#TITLE:Raison d'etre;
#SUBTITLE:~kousa suru shukumei~;
#ARTIST:Zektbach;
#TITLETRANSLIT:;
#SUBTITLETRANSLIT:;
#ARTISTTRANSLIT:;
#CREDIT:;
#BANNER:Raison d'etre ~kousa suru shukumei~.png;
#BACKGROUND:Raison d'etre ~kousa suru shukumei~-bg.png;
#LYRICSPATH:;
#CDTITLE:;
#MUSIC:Raison d'etre ~kousa suru shukumei~.mp3;
#OFFSET:0.720;
#SAMPLESTART:31.460;
#SAMPLELENGTH:12.000;
#SELECTABLE:YES;
#BPMS:0.000=154.800,83.000=175.000;
#STOPS:;
#BGCHANGES:0.000=Raison d'etre ~kousa suru shukumei~.avi=1.000=1=0=1,
99999=-nosongbg-=1.000=0=0=0 // don't automatically add -songbackground-
;

//---------------dance-single - ----------------
#NOTES:
     dance-single:
     :
     Hard:
     15:
     0.859,1.000,0.402,0.387,0.387: // measure 1
0000
0000
0000
0000
0000
0000
0000
0000
0000
0000
0000
0000
1001
0000
0001
1000
,  // measure 2
0010
0100
0001
1000
0100
0000
0000
0000
0000
0000
0000
0000
0110
0000
0010
0001
,  // measure 3
0010
0100
1000
0001
0100
0000
0000
0000
0000
0000
0000
0000
0101
0000
0001
0100
,  // measure 4
0001
1000
0010
1000
0001
0000
0000
0000
0000
0000
0000
0000
0110
0000
0100
0010
,  // measure 5
1000
0001
0100
0001
0010
0000
0000
0000
0000
0000
0000
0000
1001
0000
0000
0001
,  // measure 6
0010
0100
1000
0001
0010
0000
0100
0000
0000
0000
0000
0000
1010
0000
0000
1000
,  // measure 7
0010
0100
0001
1000
0010
0000
0100
0000
0000
0000
0000
0000
1001
0000
0000
1000
,  // measure 8
0100
0010
0001
0100
0010
0000
1000
0000
0000
0000
0000
0000
0101
0000
0000
0001
,  // measure 9
0100
0010
1000
0001
0100
0000
0010
0000
0000
0000
0000
0000
1001
0000
0001
0000
,  // measure 10
1000
0010
0100
0100
0000
1010
1000
0001
,  // measure 11
1000
0100
0010
0001
0010
0100
1100
1000
,  // measure 12
0010
0100
0001
0001
0000
1001
1000
0010
,  // measure 13
1000
0000
0010
0000
0100
0000
0001
0000
0100
0000
0001
0000
1001
0000
0000
0010
,  // measure 14
1000
0001
0100
0001
1000
0000
0010
0000
0000
0000
0000
0000
0110
0000
0000
0100
,  // measure 15
0010
1000
0010
0100
0001
0000
0100
0000
0000
0000
0000
0000
0101
0000
0000
0100
,  // measure 16
0001
1000
0010
1000
0001
0000
0100
0000
0000
0000
0000
0000
0110
0000
0000
0010
,  // measure 17
0100
0001
0100
0010
1000
0000
0010
0000
0000
0000
0000
0000
1001
0000
0001
0000
,  // measure 18
1000
0010
0100
0100
0000
1010
1000
0001
,  // measure 19
1000
0100
0010
0001
0010
0100
1100
1000
,  // measure 20
0010
0100
0001
0001
0000
1001
1000
0010
,  // measure 21
1000
0010
0100
0001
0100
0001
1001
0000
,  // measure 22
0001
1000
0000
0001
1000
0010
0100
0000
,  // measure 23
0100
0010
0000
1000
0010
0100
0001
1000
,  // measure 24
0010
0100
0001
0010
0100
1000
0100
0010
,  // measure 25
0001
0010
0100
1000
0001
0010
1000
0010
,  // measure 26
0001
1000
0010
1000
0010
0100
0001
0000
,  // measure 27
0101
0000
0100
0010
1000
0001
0100
0000
,  // measure 28
0110
0000
0010
1000
0100
0010
0001
0000
,  // measure 29
1001
0000
1000
0010
0100
0001
1000
0000
,  // measure 30
1100
0000
0100
0010
0100
1000
0001
0000
,  // measure 31
1001
0000
0001
0100
0001
1000
0200
0000
,  // measure 32
0000
0000
0000
0000
0320
0000
0000
0000
0000
0000
0031
0010
0100
0000
0000
0000
,  // measure 33
2200
0000
0000
3300
2000
0000
0002
0000
,  // measure 34
0000
0000
0000
0000
0000
0000
0000
0000
3000
0000
1003
0010
0100
0000
0000
0000
,  // measure 35
0202
0000
0000
0303
0002
0000
2000
0000
,  // measure 36
0000
0000
0000
0000
0000
0000
0000
0000
0003
0000
3001
0100
0010
0000
0000
0000
,  // measure 37
0220
0000
0000
0330
2000
0000
0000
0000
0000
0000
0000
0000
0020
0000
0000
0000
,  // measure 38
0000
0000
0000
0000
0000
0000
0000
0000
3000
0000
0130
0001
1000
0000
0000
0000
,  // measure 39
2002
0000
0000
0000
0000
3003
0001
1000
,  // measure 40
0001
0100
0010
0100
0001
0010
0100
1000
,  // measure 41
0100
0010
0001
0010
0100
1000
0010
0100
,  // measure 42
0001
1000
0010
0100
0001
0010
0001
1000
,  // measure 43
0100
1000
0010
0001
0010
1000
0100
0001
,  // measure 44
0100
1000
0010
0100
0001
0010
0001
1000
,  // measure 45
0100
1000
0010
0100
0001
1000
0010
0100
,  // measure 46
0001
1000
0010
0100
0001
1000
0010
0100
,  // measure 47
0001
0000
0010
0000
0100
0000
1000
0000
0100
0000
0010
0000
0001
0010
0100
0000
,  // measure 48
1000
0010
0100
0000
0010
0100
0001
0000
1000
0001
1000
0000
0010
0100
0010
0000
,  // measure 49
2002
3003
0001
0000
1000
0010
0100
0000
0010
0100
0001
0000
2002
3003
1000
0000
,  // measure 50
0010
0100
0001
0000
0010
0100
1000
0000
0001
1000
0100
0000
0010
0001
1000
0000
,  // measure 51
2020
3030
0010
0000
0100
0001
1000
0000
0010
0100
0001
0000
2002
3003
1000
0000
,  // measure 52
0010
0100
0001
0000
0010
0100
1000
0000
0100
0010
0001
0000
1000
0010
0100
0000
,  // measure 53
0202
0303
0001
0000
0100
0010
1000
0000
0100
0010
0001
0000
2002
3003
1000
0000
,  // measure 54
0010
0100
0001
0000
1000
0010
0100
0000
0001
1000
0100
0000
0010
0001
1000
0000
,  // measure 55
2002
3003
0001
0000
1000
0010
0100
0000
0001
1000
0010
0000
0220
0330
0000
0000
,  // measure 56
1001
1000
0010
0100
0001
1000
0100
1000
,  // measure 57
0001
0100
0001
1000
0100
1000
0010
0100
,  // measure 58
0000
0000
0010
1000
0001
1000
0010
0001
,  // measure 59
0010
1000
0100
0001
0100
0100
1100
0000
,  // measure 60
1010
0010
1000
0100
0010
0001
0100
1000
,  // measure 61
0100
0001
0010
0100
1000
0010
0100
1000
,  // measure 62
0100
0000
0010
0000
1000
0000
0001
0000
1000
0000
0010
0000
0100
0001
1000
0100
,  // measure 63
0010
0001
1000
0001
0100
0001
1000
0010
1000
0001
0100
0010
0100
0000
0000
0000
,  // measure 64
0002
0000
0003
0000
1000
0100
0010
0000
0002
0000
0003
0000
1000
0001
0100
0000
,  // measure 65
0020
0000
0030
0000
0100
0001
0010
0000
0200
0000
0300
0000
1000
0001
0100
0000
,  // measure 66
0020
0000
0030
0000
0100
0001
1000
0000
0002
0000
0003
0000
1000
0001
0100
0000
,  // measure 67
0020
0000
0030
0000
1000
0001
0010
0000
0200
0000
0300
0000
2100
0000
0000
0000
,  // measure 68
3020
0000
0230
0000
0302
0003
0201
0000
,  // measure 69
0320
0000
2030
0000
3020
0000
2030
3001
,  // measure 70
0100
0010
0100
0000
0001
0000
1000
0000
0010
0100
0010
0000
1000
0000
0001
0000
,  // measure 71
0100
0010
0100
0001
1000
0100
0010
0001
0010
0100
1000
0100
0010
0000
0010
0000
,  // measure 72
0001
0001
1000
1000
0010
0010
0100
0100
,  // measure 73
0010
0010
1000
0010
1000
0001
0100
0100
,  // measure 74
0010
0010
1000
1000
0001
0001
0100
0100
,  // measure 75
0010
0010
1000
1000
1001
0000
0001
1000
,  // measure 76
0010
0001
1000
0100
0001
0010
1000
0010
,  // measure 77
0001
0000
0000
0100
0000
0000
1000
0000
0000
0000
0000
0000
1000
0000
0000
0100
0000
0000
0001
0000
0000
0000
0001
0000
,  // measure 78
0010
0000
0010
0100
0000
0100
1000
0000
1000
0100
0000
0100
,  // measure 79
0010
0000
0010
0001
0000
0001
1000
0000
1000
0020
0000
0000
,  // measure 80
0000
0000
0100
0000
0130
0000
0001
1000
,  // measure 81
0010
0100
0001
0010
0100
1000
1010
0010
,  // measure 82
0100
0001
0010
1000
0010
0001
0101
0100
,  // measure 83
0010
1000
0010
0001
0010
1000
1001
0001
,  // measure 84
0010
1000
0001
0100
1000
0010
1010
1000
,  // measure 85
0001
0100
0001
0010
0001
1000
1010
0010
,  // measure 86
0100
0001
0010
0100
1000
0100
0110
0010
,  // measure 87
0001
0010
0100
1000
0010
0001
0011
0010
,  // measure 88
1000
0010
0100
0001
1000
0010
1010
1000
,  // measure 89
0001
1000
0001
0000
0000
0000
1000
0000
0001
1000
0001
0000
0000
0000
1000
0000
,  // measure 90
0001
1000
0001
0000
0000
0000
1000
0000
0001
1000
0001
0000
0000
0000
0000
0000
;

//---------------dance-single - Copied from----------------
#NOTES:
     dance-single:
     Copied from:
     Medium:
     11:
     0.609,0.587,0.364,0.410,0.000:
0000
0000
0000
1000
0001
0100
0001
1000
,
0000
0000
0000
0010
0100
0001
0100
0010
,
0000
0000
0000
1000
0001
0010
0100
1000
,
0000
0000
0000
0001
1000
0010
1000
0001
,
0000
0000
0000
0100
0001
1000
0010
0100
,
0000
0000
0000
0010
0100
0001
1000
0010
,
0000
0000
0000
0100
0001
1000
0010
0100
,
0000
0000
0000
0001
0010
0100
1000
0001
,
0000
0000
0000
0001
0001
1000
1000
0010
,
0010
0000
0100
0100
0001
1000
0100
0010
,
0001
0010
0100
1000
1000
0010
0010
0001
,
0001
0000
0010
0100
0001
0100
0001
1000
,
0001
1000
0001
0100
0010
0100
0010
0100
,
0001
0000
0000
0010
0100
1000
0010
0100
,
0001
0000
0000
1000
0001
0100
0010
1000
,
0001
0000
0000
1000
0010
1000
0001
0100
,
0001
0000
0000
0100
0100
0010
0010
1000
,
1000
0000
0010
0100
0001
0010
0100
0010
,
0001
1000
0010
0100
0100
0010
0010
1000
,
1000
0000
0001
0010
0001
0010
0001
0100
,
0010
0100
0010
2000
0000
3001
0200
0000
,
0301
1000
0010
0200
0000
0310
2000
0000
,
3010
0100
0001
0200
0000
0302
0000
0000
,
1003
0010
1000
0200
0000
0320
0000
0000
,
0031
0010
0100
2000
0000
3002
0000
0000
,
1003
0010
1000
0020
0000
0230
0000
0000
,
0301
1000
0001
2000
0000
3002
0000
0000
,
1003
0010
1000
0020
0000
2030
0000
0000
,
3010
0100
0001
0200
0000
0302
0000
0000
,
0013
0100
1000
0200
0000
0320
0000
0000
,
0031
1000
0001
0200
0000
0000
0000
0320
,
0000
0000
0000
1000
0000
2030
0000
0000
,
0000
3001
0000
0002
0000
0000
0000
0000
,
0000
0000
0000
1003
0000
2000
0000
0000
,
0000
3010
0000
0020
0000
0000
0000
0000
,
0000
0000
0000
0130
0000
0200
0000
0301
,
0000
0000
0000
0002
0000
0000
0000
0000
,
0000
0000
0000
1003
0000
2002
0000
0000
,
0000
0000
3003
1001
0000
0110
0000
0100
,
0010
1000
0000
1010
0000
0101
0000
0001
,
1000
0010
0000
0110
0000
0101
0000
0001
,
0010
0100
0000
1001
0000
1100
0000
1000
,
0010
0100
0000
0101
0000
1010
0000
0010
,
0100
0001
0000
1000
0010
0100
0000
0001
,
0100
0010
0000
1000
0001
1000
0000
0010
,
0100
0010
1000
0010
0100
0001
0010
0100
,
1000
0100
0010
0001
0000
0010
0000
0100
,
0000
1000
0000
0010
0000
2001
0000
3010
,
0000
0100
0000
1002
0000
0013
0000
0100
,
0000
1000
0000
0010
0000
0210
0000
0301
,
0000
1000
0000
1002
0000
0103
0000
0010
,
0000
1000
0000
0001
0000
0201
0000
0310
,
0000
1000
0000
0012
0000
0103
0000
0010
,
0000
0100
0000
0001
0000
2001
0000
3010
,
0000
1000
0000
2020
3030
2002
3003
0000
,
0020
1000
0130
0200
,
0010
0000
0301
0000
1001
0000
0000
0001
,
1000
0000
0001
0100
0010
0100
0010
1000
,
0001
1000
0001
0101
0000
1010
0000
0000
,
2000
0001
3100
0200
,
0010
0000
1300
0000
1001
0000
0000
1000
,
0001
0000
1000
0010
1000
0010
0100
0010
,
0100
0001
0100
0001
0000
2000
0000
3010
,
0000
0200
0000
0301
0000
0020
0000
0130
,
0000
2000
0000
3001
0000
0200
0000
0310
,
0000
2000
0000
3001
0000
0200
0000
0301
,
0000
1000
0000
1010
0000
0010
0000
0100
,
0000
0010
0000
1010
0000
1000
0000
0010
,
0000
1000
0000
0001
1000
0100
0000
1000
,
0001
0100
0000
0001
1000
0100
0000
1000
,
0010
0100
0001
1001
0000
0101
0000
1010
,
0000
0110
0000
0101
0000
1001
0000
0001
,
0100
0010
1000
1001
0000
1010
0000
0101
,
0000
1001
0000
0011
0000
0110
0000
1100
,
0000
1001
0000
0001
1000
0001
0000
1000
,
0010
1000
0000
0010
0100
0010
1000
0001
,
0000
1000
0100
0010
0000
0001
0000
0010
,
0000
0100
0000
1000
0000
0100
0000
0010
,
0000
0001
0000
2000
0000
0000
0000
0001
,
0000
3001
0000
1000
0010
0100
0001
0100
,
0010
1000
0000
1010
0000
0010
1000
0001
,
1000
0010
0000
0101
0000
0100
0001
1000
,
0001
0100
0000
0110
0000
0010
1000
0010
,
0100
0001
0000
1001
0000
1000
0010
0100
,
0001
1000
0000
1001
0000
0001
0010
0100
,
1000
0100
0000
0110
0000
0010
0001
0010
,
0100
1000
0000
1001
0000
0001
1000
0010
,
0100
0001
0000
1000
0001
0100
0100
0000
,
0010
0100
0100
0000
0010
0100
0100
0000
,
0010
0100
0100
0000
0000
0000
0000
0000
;

//---------------dance-single - Copied from Copied f----------------
#NOTES:
     dance-single:
     Copied from Copied f:
     Easy:
     6:
     0.456,0.553,0.015,0.542,0.000:
0000
0000
0000
1000
0000
0001
0100
0010
,
0000
0000
0000
0100
0000
0010
1000
0100
,
0000
0000
0000
0010
0000
0001
1000
0001
,
0000
0000
0000
1000
0000
0010
0100
0010
,
0000
0000
0000
0100
0000
0010
0010
0010
,
0000
0000
0000
0100
0000
0001
0001
0001
,
0000
0000
0000
0010
0000
0100
0100
0100
,
0000
0000
0000
1000
0000
0010
0010
0010
,
0000
0000
0000
0001
0000
1000
0000
0010
,
0000
0000
0100
0010
1000
0000
0100
0010
,
0001
0000
0100
0001
0100
0000
0010
1000
,
0001
0000
1000
0002
0000
1000
0000
1000
,
0000
2003
0000
0010
0000
0010
0000
3010
,
0000
0000
0000
0100
0000
0010
0000
1000
,
0001
0000
0000
0001
0000
1000
0000
0010
,
0100
0000
0000
0010
0000
1000
0000
0001
,
0100
0000
0000
0010
0000
1000
0000
0001
,
0000
0000
0100
0010
1000
0000
0010
0100
,
0001
0000
1000
0001
1000
0000
0001
0100
,
0001
0000
1000
0020
0000
1000
0000
0100
,
0000
1030
0000
0002
0000
2003
0000
3000
,
0000
0020
0000
0100
0000
0130
0000
0000
,
0000
2000
0000
3002
0000
0203
0000
0300
,
0010
0100
0000
0020
0000
2030
0000
3000
,
0001
0100
0000
0020
0000
0230
0000
0300
,
0010
1000
0000
0002
0000
0023
0000
0030
,
0100
1000
0000
0002
0000
2003
0000
3000
,
0001
1000
0000
0002
0000
0203
0000
0300
,
0001
0010
0000
0200
0000
2300
0000
3000
,
0100
0010
0000
0002
0000
2003
0000
3000
,
0100
1000
0000
0200
0000
0000
0000
0320
,
0000
0000
0000
0031
0000
1000
0000
0000
,
0000
0001
0000
0200
0000
0000
0000
0000
,
0000
0000
0000
0310
0000
1000
0000
0000
,
0000
0010
0000
0200
0000
0000
0000
0000
,
0000
0000
0000
0301
0000
1000
0000
0010
,
0000
0000
0000
0200
0000
0000
0000
0000
,
0000
0000
0000
0302
0000
0023
0000
0000
,
0000
0000
0030
0001
0000
0010
0000
0100
,
0100
0100
0000
1000
0000
0010
0000
1000
,
1000
1000
0000
0020
0000
0230
0000
0302
,
0000
2003
0000
3002
0000
0203
0000
0310
,
0010
0010
0000
0100
0000
0010
0000
1000
,
1000
1000
0000
0001
0000
0010
0000
0100
,
0100
0100
0000
0010
0000
0001
0000
0200
,
0000
2300
0000
3200
0000
0302
0000
2003
,
0000
3020
0000
0130
0000
0001
0000
1000
,
0000
0001
0000
1000
0000
0002
0000
0003
,
0000
0100
0000
0020
0000
0030
0000
0100
,
0000
0001
0000
1000
0000
0200
0000
0300
,
0000
0010
0000
0002
0000
0003
0000
1000
,
0000
0010
0000
0100
0000
0002
0000
0003
,
0000
0100
0000
0020
0000
0030
0000
1000
,
0000
0001
0000
0100
0000
0020
0000
0030
,
0000
0100
0000
1001
0000
1001
0000
0000
,
0010
0010
0010
1000
,
1000
0000
1000
0000
0002
0000
0003
1000
,
1000
0010
0001
0100
,
1000
0000
0010
2000
0000
3001
0000
0000
,
1000
0001
1000
0010
,
0100
0000
0001
0000
2000
0000
3000
0010
,
0010
0100
0100
0001
,
0001
0000
1000
0010
0000
2000
0000
3000
,
0000
0200
0000
0300
0000
0020
0000
0030
,
0000
0002
0000
0003
0000
0020
0000
0030
,
0000
0200
0000
0300
0000
2000
0000
3000
,
0000
0002
0000
2003
0000
3010
0000
0010
,
0000
0010
0000
0200
0000
0301
0000
0001
,
0000
0001
0000
1000
0000
1000
0000
0010
,
0100
0010
0000
0100
0000
0100
0000
0001
,
1000
0001
0000
1000
0000
1000
0000
0010
,
0000
0010
0000
0100
0000
0100
0000
0001
,
0100
0001
0000
1000
0000
1000
0000
0010
,
0000
0010
0000
0100
0000
0100
0000
0001
,
0000
0001
0000
1000
0010
1000
0000
0010
,
0000
0100
0000
0001
0100
0010
0000
1000
,
0000
0001
0000
1000
0000
0001
0000
1000
,
0000
0001
0000
1000
0000
0001
0000
0100
,
0000
0010
0000
0200
0000
0000
0000
0000
,
0000
0310
0000
1000
0000
0001
0000
1000
,
0000
0001
0000
0200
0000
0301
0000
1000
,
0000
0010
0000
2000
0000
3001
0000
0010
,
0000
0001
0000
0020
0000
0130
0000
1000
,
0000
0001
0000
0200
0000
0310
0000
0100
,
0000
0001
0000
2000
0000
3001
0000
0010
,
0000
0100
0000
0020
0000
0031
0000
0010
,
0000
0100
0000
2000
0000
3010
0000
0100
,
0000
0001
0000
1000
0000
0010
0100
0000
,
0000
0010
0100
0000
0000
0010
0100
0000
,
0000
0010
0100
0000
0000
0000
0000
0000
;

//---------------dance-single - Copied from Copied f----------------
#NOTES:
     dance-single:
     Copied from Copied f:
     Beginner:
     2:
     0.259,0.276,0.000,0.310,0.000:
0000
0000
0000
0000
,
0000
0000
0000
0000
,
0000
0000
0000
0000
,
0000
0000
0000
0000
,
0000
0000
0000
1000
0000
0000
0000
0001
,
0000
0000
0000
1000
0000
0000
0000
0001
,
0000
0000
0000
0010
0000
0000
0000
0100
,
0000
0000
0000
1000
0000
0000
0000
0010
,
0000
0000
0000
0100
0000
0000
0000
0010
,
0000
0000
0000
0100
0100
0000
0000
0001
,
0001
0000
0000
1000
1000
0000
0000
0010
,
0010
0000
0000
0200
0000
0310
0000
0000
,
0000
0020
0000
0130
0000
0000
0000
0010
,
0000
0000
0000
1000
0000
0000
0000
0001
,
0000
0000
0000
0100
0000
0000
0000
0010
,
0000
0000
0000
0100
0000
0000
0000
0001
,
0000
0000
0000
1000
0000
0000
0000
0010
,
0000
0000
0000
1000
1000
0000
0000
0001
,
0001
0000
0000
0100
0100
0000
0000
0010
,
0010
0000
0000
0000
0000
1000
0000
0000
,
0000
0001
0000
1000
0000
1000
0000
0000
,
0000
0010
0000
0010
0000
0010
0000
0000
,
0000
1000
0000
0000
0000
0200
0000
0300
,
0000
0000
0000
0020
0000
0032
0000
0003
,
0000
0000
0000
0020
0000
0230
0000
0300
,
0000
0000
0000
2000
0000
3200
0000
0300
,
0000
0000
0000
0020
0000
0032
0000
0003
,
0000
0000
0000
2000
0000
3002
0000
0003
,
0000
0000
0000
0200
0000
0320
0000
0030
,
0000
0000
0000
2000
0000
3002
0000
0003
,
0000
0000
0000
0200
0000
0000
0000
0320
,
0000
0000
0000
0130
0000
0100
0000
0000
,
0000
0010
0000
0020
0000
0000
0000
0000
,
0000
0000
0000
1030
0000
0000
0000
0000
,
0000
0001
0000
0002
0000
0000
0000
0000
,
0000
0000
0000
1003
0000
0000
0000
0100
,
0000
0000
0000
0020
0000
0000
0000
0000
,
0000
0000
0000
0031
0000
0000
0000
0000
,
0000
0000
0000
1000
0000
0000
0000
0100
,
0000
0100
0000
0000
0000
0000
0000
0010
,
0000
0010
0000
0001
0000
1000
0000
0001
,
0000
0100
0000
0010
0000
1000
0000
0010
,
0000
0010
0000
0000
0000
0100
0000
0001
,
0000
0001
0000
1000
0000
0000
0000
0010
,
0000
0010
0000
0100
0000
0000
0000
0001
,
0000
1000
0000
0100
0000
0010
0000
0001
,
0000
0010
0000
0100
0000
1000
0000
1000
,
0000
0001
0000
0001
0000
2000
0000
3000
,
0000
0000
0000
0020
0000
0030
0000
0000
,
0000
0000
0000
0000
0000
0200
0000
0300
,
0000
0000
0000
0002
0000
0003
0000
0000
,
0000
0000
0000
0000
0000
0002
0000
0003
,
0000
0000
0000
0020
0000
0030
0000
0000
,
0000
0000
0000
0000
0000
0020
0000
0030
,
0000
0000
0000
1000
0000
1000
0000
0000
,
0010
0000
0100
0000
,
0010
0000
1000
0000
,
0001
0000
0100
0000
,
0010
0000
1000
1000
0000
0000
0000
0000
,
0001
0000
1000
0000
,
0010
0000
0000
0000
0100
0000
0000
0010
,
0010
0000
1000
0001
,
0000
0000
0100
0100
0000
0010
0000
0000
,
0000
0100
0000
0000
0000
0010
0000
0000
,
0000
1000
0000
0000
0000
0001
0000
0000
,
0000
0100
0000
0000
0000
0010
0000
0000
,
0000
0100
0000
0002
0000
0013
0000
0000
,
0000
0010
0000
0200
0000
1300
0000
0000
,
0000
0001
0000
1000
0000
0000
0000
0010
,
0000
0010
0000
0000
0000
0100
0000
0001
,
0000
0001
0000
0000
0000
1000
0000
0010
,
0000
0010
0000
0000
0000
0100
0000
0001
,
0000
0001
0000
0000
0000
1000
0000
0010
,
0000
0010
0000
0000
0000
0100
0000
0001
,
0000
0001
0000
0000
0000
1000
0000
0010
,
0000
0010
0000
0000
0000
0100
0000
0001
,
0000
1000
0000
0001
0000
1000
0000
0010
,
0000
0100
0000
0001
0000
0100
0000
0010
,
0000
0100
0000
0200
0000
0000
0000
0000
,
0000
0300
0000
0010
0000
0000
0000
0010
,
0000
0000
0000
0200
0000
0300
0000
0000
,
0000
0000
0000
0002
0000
0003
0000
0000
,
0000
0000
0000
0020
0000
0030
0000
0000
,
0000
0000
0000
0200
0000
0300
0000
0000
,
0000
0000
0000
2000
0000
3000
0000
0000
,
0000
0000
0000
0200
0000
0300
0000
0000
,
0000
0000
0000
0020
0000
0030
0000
0000
,
0000
0000
0000
1000
,
0000
0001
0000
2000
,
0000
3001
0000
0000
;
