#TITLE:reunion;
#SUBTITLE:;
#ARTIST:Tatsh;
#TITLETRANSLIT:;
#SUBTITLETRANSLIT:;
#ARTISTTRANSLIT:;
#CREDIT:;
#BANNER:reunion-bn.png;
#BACKGROUND:reunion-bg.png;
#LYRICSPATH:;
#CDTITLE:;
#MUSIC:reunion.mp3;
#OFFSET:-1.040;
#SAMPLESTART:34.249;
#SAMPLELENGTH:12.000;
#SELECTABLE:YES;
#BPMS:0.000=184.000;
#STOPS:;
#BGCHANGES:0.000=reunion _ Tatsh-bg.png=1.000=0=0=0,
99999=-nosongbg-=1.000=0=0=0 // don't automatically add -songbackground-
;

//---------------dance-single - ----------------
#NOTES:
     dance-single:
     :
     Challenge:
     17:
     0.924,0.954,0.945,0.187,0.481:
0000
0000
0000
0000
0000
0000
0000
0000
0010
0100
0001
1000
0001
0010
0100
1000
,
0100
0010
0001
0010
0100
1000
0100
0010
0002
0000
0000
0000
0010
0000
0000
0000
,
1000
0100
1000
0010
,
0100
1003
0120
0001
,
1000
0100
0001
0100
,
2030
0000
3001
0100
0001
0000
0000
0000
0210
0000
0000
0000
1000
0000
0000
0000
,
0001
0010
1000
0001
,
0020
0000
0000
0000
0330
0000
0000
0000
0100
0010
1000
0010
0100
0010
1000
0010
,
0100
0010
1000
0010
0100
0010
1000
0010
0200
0000
0000
0000
0000
0000
0000
0000
,
0301
0000
1000
0100
1000
0000
0001
0100
0001
0000
0010
0000
0100
0000
1000
0000
,
0001
1000
0010
0100
0001
1000
0100
0020
,
0000
0031
1000
0001
0100
0010
1000
0100
,
1000
0001
0100
0010
0100
0001
0010
0200
,
0000
1300
0010
0100
0001
1000
0100
0010
,
0001
1000
0010
0001
1000
0100
0001
0020
,
0000
0130
1000
0001
0100
0010
1000
0100
,
0001
0100
0010
0001
1000
0010
0100
2000
,
0000
3100
0001
0010
1000
0001
0100
1000
,
0010
0001
1000
0100
0001
0010
1000
0001
,
0100
1000
0010
0001
0011
0010
1000
0001
,
0010
1000
0001
0100
1000
0010
0100
1000
,
0001
0010
1000
0001
0101
0100
0010
1000
,
0001
0010
1000
0001
0100
1000
0100
0001
,
0100
1000
0001
0010
0110
0100
0001
0100
,
1000
0000
0010
0000
0001
0000
0010
0000
0100
0010
0100
0010
0100
0010
0100
0010
,
0100
0010
0100
0010
0100
0010
0100
0000
1001
0000
0000
0000
1100
0000
0000
0000
,
0101
0000
1100
1000
1010
0000
0110
0000
,
0011
1010
1001
0101
,
1010
0000
1001
1000
1100
0000
0110
0000
,
0011
0000
1001
1000
1100
0000
0110
0000
,
0011
1010
1100
0101
,
0011
0000
0110
0100
1100
0000
1001
0000
,
1100
0000
0101
0100
1100
0000
1001
0000
,
0011
0000
1001
0000
1100
0100
0110
0000
,
0011
1100
0110
1001
,
0110
0000
0101
0000
1010
0100
0101
0000
,
1010
0110
1001
1100
,
1001
0000
0210
0000
0301
1000
0001
0100
,
0010
1000
0100
0010
0001
0010
0100
1000
,
0010
0100
1000
0100
0001
0010
0100
0010
,
0001
1000
0001
0100
1000
0100
0001
0100
,
1000
0100
0010
0001
0010
1000
0100
0001
,
1000
0010
0001
0100
1000
0100
0010
0100
,
0001
0000
0000
0000
0000
0000
1000
0000
0000
0000
0000
0000
0001
0000
0000
0010
0000
0000
0100
0000
0000
1000
0000
0000
0000
0000
0000
0000
0000
0000
0000
0000
1000
0000
0000
0000
0100
0000
0000
0000
0000
0000
0000
0000
0100
0000
0000
0000
,
0010
0000
0010
0001
0000
0001
0010
0000
0010
0100
0000
0100
,
1000
0010
0110
0000
1000
0001
0001
0100
,
0010
0010
1000
0100
0100
0010
0001
0010
,
0100
1000
0100
0010
0001
1000
0010
0100
,
0001
1000
0001
0100
0010
1000
1000
0010
,
0100
0100
0001
1000
1000
0100
0010
0010
,
0001
0010
0010
0100
1000
0100
0010
0001
,
0100
1000
0100
0010
1000
0010
0010
1000
,
0100
0000
0001
0000
0100
0000
1000
0000
0100
1000
0100
0010
0001
0010
0100
1000
,
0100
0000
0000
0010
0000
0000
0001
0000
0000
0010
0000
0000
0100
0000
0000
0000
1000
0000
0000
0000
0010
0000
0000
0000
0100
0000
0000
0000
0001
0000
0000
0000
0010
0000
0000
0000
0100
0000
0000
0000
1000
0000
0000
0000
0001
0000
0000
0000
,
0100
0001
0010
0100
1000
0100
0010
0001
0010
0100
1000
0001
,
0100
0010
1000
0001
0100
0010
0001
0010
0100
1000
0100
0001
,
0010
0100
1000
0001
0100
0010
1000
0001
0010
0100
1000
0010
,
0100
0010
1000
0100
0010
0001
0100
1000
0100
0010
1000
0001
,
0100
0001
1000
0100
0010
0001
1000
0010
0100
0001
0010
0100
,
1000
0001
0100
0010
0100
0001
1000
0100
0010
0001
1000
0001
,
0100
0010
1000
0001
0010
0100
1000
0100
1000
0001
0010
0001
,
0100
0000
0001
0000
1000
0000
0100
0000
0000
1000
0000
0000
0001
0000
0000
0100
0000
0000
0010
0000
0000
1000
0000
0000
,
0001
0100
0001
1000
0100
0010
0001
0010
,
1000
0001
0100
1000
0001
0100
0001
1000
,
0100
1000
0010
0100
0010
1000
0001
0010
,
0100
1000
0100
0010
0001
0100
1000
0100
,
0001
0010
1000
0010
0001
0100
1000
0100
,
0001
0010
0001
1000
0001
1000
0100
1000
,
0010
0000
1000
0000
0001
0000
0100
0000
0001
1000
0001
1000
0001
1000
0001
1000
,
0001
1000
0001
1000
0001
1000
0001
0000
1001
0000
0000
0000
1100
0000
0000
0000
,
0101
0000
1100
1000
1010
0000
0110
0000
,
0011
1010
1001
0101
,
1010
0000
1001
1000
1100
0000
0110
0000
,
0011
0000
1001
1000
1100
0000
0110
0000
,
0011
1010
1100
0101
,
0011
0000
0110
0100
1100
0000
1001
0000
,
1100
0000
0101
0100
1100
0000
1001
0000
,
0011
0000
1001
0000
1100
0100
0110
0000
,
0011
1100
0110
1001
,
0110
0000
0101
0000
1010
0100
0101
0000
,
1010
0000
0000
0000
0110
0000
0000
0000
1000
0001
1000
0001
1000
0001
1000
0001
,
1000
0001
1000
0001
1000
0002
2000
0000
0000
0000
0000
0000
3003
0000
0000
0000
,
1010
1000
0010
0110
0100
0001
1001
1000
,
0100
0110
0010
0001
0011
0001
0101
0100
,
0110
0010
1000
1010
0010
0100
0101
0001
,
1000
1001
0001
0100
0110
0010
1010
1000
,
2002
0000
0000
0000
3003
0220
0000
0330
,
2200
0000
0000
0000
3300
0220
0000
0330
,
1001
2002
0000
0000
0000
0000
0000
0000
,
0000
0000
0000
0000
,
3003
0000
0000
0000
;

//---------------dance-single - Copied from----------------
#NOTES:
     dance-single:
     Copied from:
     Hard:
     15:
     0.836,0.879,0.742,0.196,0.179:
0000
0000
0000
0000
0000
0000
0000
0000
0001
1000
0001
1000
0001
1000
0001
1000
,
0001
1000
0001
1000
0001
1000
0001
1000
0020
0000
0000
0000
0001
0000
0000
0000
,
1000
0100
1000
0001
,
0100
1030
0201
0010
,
1000
0010
0001
0010
,
0302
0000
1003
0010
1000
0000
0000
0000
2001
0000
0000
0000
0100
0000
0000
0000
,
0010
0001
0100
0001
,
0020
0000
3000
0000
0030
0000
0000
0000
1000
0010
1000
0000
0001
0100
0001
0000
,
1000
0010
1000
0000
0001
0100
0001
0000
2000
0000
0000
0000
0000
0000
0000
0000
,
3001
0000
1000
0100
1000
0000
0001
0100
0001
0000
0010
0000
0100
0000
1000
0000
,
0000
1010
0000
0101
0000
0011
0000
0020
,
0000
0031
1000
0001
0100
0010
1000
0100
,
0000
0110
0000
0011
0000
1001
0000
0200
,
0000
0310
1000
0100
0010
0001
0100
0010
,
0000
1010
0000
1001
0000
0110
0000
0020
,
0000
0130
0001
1000
0010
0100
0001
1000
,
0000
1001
0000
1100
0000
0110
0000
0012
,
0000
0103
0001
0010
1000
0010
0001
1000
,
0010
0001
1000
0100
0001
0010
0100
1000
,
0100
0010
0001
0010
0110
0100
1000
0100
,
0010
0100
1000
0100
0010
0001
0010
0100
,
0010
0001
0010
0100
1100
1000
0010
1000
,
0001
0100
0001
1000
0010
1000
0001
0100
,
0001
1000
0010
1000
0001
0100
0010
1000
,
0001
0000
1000
0000
0001
0000
1000
0000
0100
0010
0100
0000
0010
0100
0010
0000
,
0001
1000
0001
1000
0001
1000
0001
0000
0100
0000
0000
0000
0110
0000
0000
0000
,
1001
0000
1010
0000
1000
0010
0100
0000
,
1001
1010
1001
0101
,
0001
1000
0010
1000
0100
0000
0110
0000
,
1001
0000
0101
0000
0001
0100
0010
0000
,
1001
0101
1001
1010
,
1000
0001
0100
0001
0010
0000
0110
0000
,
1001
0000
1010
0000
1000
0010
0100
0000
,
1001
1010
1001
0101
,
0001
1000
0010
1000
0100
0000
0110
0000
,
1001
0000
0101
0000
0001
0100
0010
0000
,
1001
0101
1001
1010
,
1000
0001
0100
0001
0010
0100
1000
0100
,
0010
0001
1000
0010
0100
0001
1000
0010
,
0100
0001
0020
0000
0130
1000
0100
0010
,
0001
1000
0001
0010
0100
1000
0100
0010
,
0001
0010
0002
0000
1003
0010
0100
0001
,
0100
0010
0100
1000
0100
0001
0100
0010
,
1000
0000
0000
0000
0000
0000
0001
0000
0000
0000
0000
0000
1000
0000
0000
0010
0000
0000
0100
0000
0000
0001
0000
0000
0000
0000
0000
0000
0000
0000
0000
0000
0001
0000
0000
0000
0010
0000
0000
0000
0000
0000
0000
0000
0010
0000
0000
0000
,
0100
0000
0100
1000
0000
1000
0100
0000
0100
0010
0000
0010
,
0001
1000
1001
0000
1000
0001
0100
0010
,
1000
0010
0100
0001
0100
0010
0001
0010
,
1000
0001
0100
0010
1000
0001
0010
0100
,
1000
0001
0100
0010
0100
0001
1000
0010
,
0100
0001
0010
0100
1000
0100
0010
0001
,
0010
0100
0001
0100
1000
0100
0010
0001
,
0100
1000
0100
0010
1000
0001
0100
1000
,
0100
0000
0001
0000
1000
0000
0010
0000
0100
0001
1000
0000
0010
0100
0001
0000
,
0010
0100
1000
0100
0010
0000
0001
0000
1000
0000
0010
0000
0100
0000
0001
0000
,
1000
0010
1000
0001
0010
0100
1000
0100
,
0001
1000
0010
0001
1000
0010
1000
0001
,
0010
0001
0100
0010
0100
0001
1000
0100
,
0010
0001
0010
0100
1000
0010
0001
0010
,
1000
0100
0001
0100
1000
0010
0001
0010
,
1000
0100
0010
0001
1000
0010
0100
0001
,
1000
0010
1000
0001
0010
0100
1000
0100
,
0001
1000
0010
0001
1000
0010
1000
0001
,
0010
0001
0100
0010
0100
0001
1000
0100
,
0010
0001
0010
0100
1000
0010
0001
0010
,
1000
0100
0001
0100
1000
0010
0001
0010
,
1000
0100
1000
0100
1000
0010
0001
0010
,
1000
0100
0001
0100
1000
0010
0001
0010
,
1000
0100
1000
0001
1000
0001
0010
0001
,
0100
0000
0001
0000
1000
0000
0010
0000
1000
0001
0100
0000
0010
1000
0001
0000
,
0100
0010
0100
0010
0100
0010
0100
0000
0110
0000
0000
0000
0101
0000
0000
0000
,
1001
0000
1010
0000
1000
0010
0100
0000
,
1001
1010
1001
0101
,
0001
1000
0010
1000
0100
0000
0110
0000
,
1001
0000
1010
0000
1000
0010
0100
0000
,
1001
1010
1001
0101
,
0001
1000
0010
1000
0010
0000
0110
0000
,
1001
0000
0101
0000
0001
0100
0010
0000
,
1001
0101
1001
1010
,
1000
0001
0100
0001
0010
0000
0110
0000
,
1001
0000
0101
0000
0001
0100
0010
0000
,
1001
0000
0000
0000
0101
0000
0000
0000
0100
0010
0100
0010
0100
0010
0100
0010
,
0100
0010
0100
0010
0100
0020
0200
0000
0000
0000
0000
0000
0000
0000
0330
0000
,
0101
0001
0100
0110
0010
1000
1001
0001
,
0010
0110
0100
1000
1100
1000
1010
0010
,
0110
0100
0001
0101
0100
0010
1010
1000
,
0001
1001
1000
0010
0110
0100
0101
0001
,
2002
0000
0000
0000
3003
0220
0000
0330
,
2020
0000
0000
0000
3030
0202
0000
0303
,
1001
2002
0000
0000
0000
0000
0000
0000
,
0000
0000
0000
0000
0000
0000
0000
3003
;

//---------------dance-single - Copied from Copied f----------------
#NOTES:
     dance-single:
     Copied from Copied f:
     Medium:
     12:
     0.689,0.659,0.448,0.302,0.020:
0000
0000
0000
0000
0010
1000
0010
0100
,
0001
0100
0010
1000
0002
0000
0100
0000
,
1000
0100
1000
0010
,
1000
0103
0200
0010
,
0001
1000
0001
0010
,
0301
0100
0010
0000
0200
0000
0001
0000
,
1000
0001
1000
0010
,
0320
0000
0000
0000
1030
0001
1000
0001
,
1000
0001
1000
0001
2000
0000
0000
0000
,
3002
0000
0203
0000
0301
1000
0010
0200
,
0000
0320
0000
0130
0000
0101
0000
1010
,
0000
0010
1000
0001
0100
0010
1000
0200
,
0000
0320
0000
0031
0000
1001
0000
0110
,
0000
0010
1000
0100
0010
0001
1000
0020
,
0000
2030
0000
3001
0000
0101
0000
1010
,
0000
1000
0001
1000
0010
0100
0001
2000
,
0000
3002
0000
1003
0000
1010
0000
1001
,
0000
0101
0000
1010
1000
0010
0100
0010
,
1000
0010
0100
0010
1000
0010
0100
0010
,
1000
0010
0100
0000
0001
0010
0100
1000
,
0001
0010
0100
1000
0001
0010
0100
1000
,
0001
0010
0100
0000
1000
0010
0100
0001
,
1000
0010
0100
0001
1000
0010
0100
0001
,
1000
0010
0100
0000
0001
1000
0010
0100
,
0001
0010
0100
1000
0200
0000
0320
0000
,
0032
2003
3010
0100
,
0001
0000
1000
0000
0001
0100
0010
0000
,
1000
0001
0100
0110
,
1001
1010
1000
0010
,
0100
0000
0001
0000
1000
0010
0100
0000
,
0001
0010
0100
1100
,
1001
0101
0010
0100
,
0001
0000
1000
0000
0001
0100
0010
0000
,
1000
0001
0100
0110
,
1001
1010
1000
0010
,
0100
0000
0001
0000
1000
0010
0100
0000
,
0001
0100
1001
1010
,
0110
0000
0010
0000
1000
0001
1000
0010
,
0100
0001
0010
0100
1000
0100
0010
0001
,
0010
0100
0020
0000
0130
1000
0100
0010
,
0001
1000
0001
0010
0100
1000
0100
0010
,
0001
0010
0002
0000
1003
0010
0100
0001
,
0100
0010
0100
1000
0100
0001
0100
0010
,
1000
0001
2000
0000
3002
0000
0023
0000
,
0230
0000
2300
0000
3200
0000
0310
0010
,
0001
0001
1001
0000
1000
0001
0100
0010
,
1000
0010
0100
0001
0100
0010
0001
0010
,
1000
0001
0100
0010
1000
0001
0010
0100
,
1000
0001
0100
0010
0100
0001
1000
0010
,
0100
0001
0010
0100
1100
0000
1000
0001
,
1000
0010
0100
0200
0010
0000
0010
0000
,
0310
1000
0001
1000
1001
0000
0110
0000
,
0101
0000
0000
0000
1010
0000
0000
0000
1000
0010
0000
0000
0010
0100
0000
0000
,
0100
0001
0000
0000
0001
1000
0000
0000
1000
0000
0010
0000
1000
0000
0001
0000
,
1000
0010
1000
0001
0010
0001
0100
0001
,
0010
0001
0100
0000
0010
0100
0010
0001
,
0010
0100
0010
1000
0100
1000
0010
1000
,
0100
1000
0010
0000
1000
0001
0100
0001
,
1000
0001
0100
0010
1000
0100
0010
0001
,
1000
0100
0010
0000
0001
1000
0100
1000
,
0010
0100
0010
1000
0001
0100
0010
1000
,
0001
0010
0001
0000
1000
0010
1000
0000
,
0010
0100
0001
0000
0100
0001
1000
0000
,
0010
0100
0010
0000
1000
0010
0100
0000
,
0001
0100
0010
0000
1000
0010
0001
0000
,
0001
0010
1000
0000
1000
0100
0001
0000
,
0001
0100
1000
0000
1000
0010
0100
0000
,
0001
0100
0010
0000
0100
0001
1000
0010
,
0100
0001
1000
0010
1000
1000
0001
0001
,
0100
0100
0010
0100
0010
0000
0100
0000
,
0001
0000
1000
0000
0001
0100
0010
0000
,
1000
0001
0100
0110
,
1001
1010
1000
0010
,
0100
0000
0001
0000
1000
0010
0100
0000
,
0001
0010
0100
1100
,
1001
0010
0100
0001
,
1000
0000
0001
0100
0010
0000
1000
0000
,
0001
0100
0110
1001
,
1010
1000
0010
0100
,
0001
0000
1000
0010
0100
0000
0001
0000
,
0010
0100
1100
1001
,
0101
0000
0001
0000
1000
0001
0200
0000
0000
0000
0000
0000
0000
0000
0300
0000
,
0101
0000
0100
0110
0000
1000
1001
0000
,
0010
0110
0000
1000
1100
0000
1010
0000
,
0110
0000
0001
0101
0000
0010
1010
0000
,
0001
1001
0000
0010
0110
0000
0101
0000
,
2002
0000
0000
0000
3003
0220
0000
0330
,
2001
0000
0000
0000
0000
0002
0000
3003
,
1000
2002
0000
0000
0000
0000
0000
0000
,
0000
0000
0000
0000
0000
0000
0000
3003
;

//---------------dance-single - Copied from Copied f----------------
#NOTES:
     dance-single:
     Copied from Copied f:
     Easy:
     9:
     0.518,0.549,0.155,0.212,0.000:
0000
0000
0000
0000
1000
1000
0001
0001
,
1000
1000
0001
0001
2000
0000
0100
0000
,
0100
0010
0010
0001
,
0001
3010
0020
0100
,
0100
1000
1000
0100
,
0130
0001
1000
0000
0020
0000
1000
0000
,
0001
1000
0001
0100
,
0230
0000
0301
1000
,
0010
0100
0010
0100
0002
0000
0000
0000
,
2003
0000
3020
0000
0130
0000
0010
0010
,
0000
0100
0000
0100
0000
0001
0000
1001
,
0000
0001
1000
0001
1000
0000
0100
0100
,
0000
0010
0000
0001
0000
1000
0000
1001
,
0000
0001
1000
0001
1000
0000
0010
0010
,
0000
0100
0000
0100
0000
0001
0000
1001
,
0000
1000
0001
1000
0001
0000
1000
1000
,
0000
0001
0000
0001
0000
1000
0000
0001
,
0000
0010
0000
0100
1000
0000
0010
0000
,
0100
0001
1000
0010
,
0100
0100
0100
0000
0001
0000
1000
0000
,
0001
0010
0100
1000
,
0001
0001
0001
0000
1000
0000
0010
0000
,
0100
0001
1000
0001
,
0010
0010
0010
0000
0001
0000
1000
0000
,
0001
0100
0020
0230
,
0302
2003
3010
0100
,
0001
1000
0001
0001
,
1000
0001
0100
0010
,
1000
0010
1000
0010
,
0100
0001
1000
1000
,
0001
0010
0100
1000
,
0001
0100
0010
0100
,
0001
1000
0001
0001
,
1000
0001
0100
0010
,
1000
0010
1000
0010
,
0100
0001
1000
1000
,
0001
0100
0001
1000
,
0100
0010
0001
0001
,
0100
0001
0100
0000
0010
0000
0010
0000
,
0100
0001
0100
0000
0010
0000
0010
0000
,
1000
0010
1000
0000
0001
0000
0001
0000
,
0100
0010
0100
0000
0010
0000
0010
0000
,
0100
0010
0100
0000
0001
0000
0001
0000
,
1000
0001
0200
0000
0320
0000
2030
0000
,
3002
0203
0320
1030
,
0001
0000
1001
0000
1000
0001
0100
0000
,
0010
0000
1000
0000
0001
0000
0100
0010
,
0100
0010
1000
0001
,
1000
0001
0100
0000
0010
0000
1000
0000
,
0001
0000
1000
0100
1000
0000
0001
0000
,
1000
0000
0010
0200
0001
0000
0001
0000
,
0301
1000
0001
1000
0001
0000
0101
0000
,
1001
1010
1000
0010
,
0100
0000
0001
0000
1000
0010
1000
0000
,
0010
1000
0010
0000
0100
0001
0100
0000
,
0001
0100
0001
0000
0010
0100
0010
0000
,
0100
0010
0100
0000
1000
0010
1000
0000
,
0010
1000
0010
0000
1000
0001
1000
0000
,
0001
1000
0001
0000
1000
0010
1000
0000
,
0010
1000
0010
0000
0100
0010
0100
0000
,
0010
0100
0010
0000
0100
0001
0100
0000
,
0001
0100
0001
0000
1000
0010
1000
0000
,
0010
0100
0001
0000
0100
0000
0010
0000
,
0100
0010
1000
0000
0001
0000
0100
0000
,
0001
0100
0010
0000
1000
0000
0001
0000
,
1000
0010
1000
0000
0010
0000
0100
0000
,
0001
0100
0001
0000
1000
0000
0100
0000
,
0010
0001
0010
0000
0100
0000
1000
0000
,
0010
0100
0001
0010
0100
1000
0001
0001
,
0100
0100
0010
0100
0010
0000
0100
0000
,
0001
1000
0001
0001
,
1000
0001
0100
0010
,
1000
0010
1000
0010
,
0100
0001
1000
1000
,
0001
0010
0100
1000
,
0001
0100
0010
0100
,
0001
1000
0001
0001
,
1000
0001
0100
0010
,
1000
0010
1000
0010
,
0100
0001
1000
1000
,
0001
0100
0001
1000
,
0100
0000
0010
0002
0000
0000
0000
0003
,
1001
0000
0000
0110
0000
0000
1001
0000
,
0000
0101
0000
0000
1010
0000
1001
0000
,
1001
0000
0000
0101
0000
0000
1010
0000
,
0000
0101
0000
0000
0110
0000
0020
0000
,
2030
0000
0000
0000
3000
0002
0000
0000
,
0203
0000
0000
0000
0000
0302
0000
0003
,
1000
2002
0000
0000
0000
0000
0000
0000
,
0000
0000
0000
0000
0000
0000
0000
3003
;

//---------------dance-single - Copied from Copied f----------------
#NOTES:
     dance-single:
     Copied from Copied f:
     Beginner:
     4:
     0.453,0.513,0.073,0.212,0.000: // measure 1
0000
0000
0100
0010
,  // measure 2
1000
0001
2000
0100
,  // measure 3
0100
0010
0010
0001
,  // measure 4
0001
3010
0020
0100
,  // measure 5
0100
1000
1000
0100
,  // measure 6
0130
0100
0020
1000
,  // measure 7
0100
1000
0100
1000
,  // measure 8
0230
0000
0301
1000
,  // measure 9
0010
0100
0020
0000
,  // measure 10
0230
0000
0302
0000
1003
0000
0010
0010
,  // measure 11
0000
0100
0000
0100
0000
0001
0000
1000
,  // measure 12
0000
0001
0000
1000
0000
0000
0100
0100
,  // measure 13
0000
0010
0000
0001
0000
1000
0000
0001
,  // measure 14
0000
1000
0000
0001
0000
0000
0010
0010
,  // measure 15
0000
0100
0000
0100
0000
0001
0000
1000
,  // measure 16
0000
0001
0000
1000
0000
0000
0010
0010
,  // measure 17
0000
1000
0000
0001
0000
1000
0000
0001
,  // measure 18
0000
0010
0000
0100
1000
0000
0010
0000
,  // measure 19
0100
0001
1000
0010
,  // measure 20
0100
0100
0001
1000
,  // measure 21
0001
0010
0100
1000
,  // measure 22
0001
0001
1000
0010
,  // measure 23
0100
0001
1000
0001
,  // measure 24
0010
0010
0001
1000
,  // measure 25
0001
0100
0010
1000
,  // measure 26
0001
2000
3010
0010
,  // measure 27
0100
0100
0001
0001
,  // measure 28
1000
1000
0001
0001
,  // measure 29
1000
0010
1000
1000
,  // measure 30
0010
0010
1000
1000
,  // measure 31
0001
0001
0100
0100
,  // measure 32
0001
0100
0010
0010
,  // measure 33
0100
0100
0001
0001
,  // measure 34
1000
1000
0010
0010
,  // measure 35
1000
0010
1000
1000
,  // measure 36
0001
0001
1000
1000
,  // measure 37
0010
0010
0100
0100
,  // measure 38
0010
1000
0001
0001
,  // measure 39
0100
0100
0010
0010
,  // measure 40
0100
0100
0010
0010
,  // measure 41
1000
1000
0001
0001
,  // measure 42
0100
0100
0010
0010
,  // measure 43
0100
0100
0001
0001
,  // measure 44
1000
0001
0200
0000
0320
0000
2030
0000
,  // measure 45
3002
0203
0320
1030
,  // measure 46
0001
0000
1001
0000
1000
1000
1000
0000
,  // measure 47
0010
0000
1000
0000
0001
0000
0100
0100
,  // measure 48
0100
0010
1000
0001
,  // measure 49
0010
0010
0010
0000
0001
0000
1000
0000
,  // measure 50
0001
0000
1000
1000
1000
0000
0010
0000
,  // measure 51
0100
0000
0010
0010
0010
0000
0100
0000
,  // measure 52
0100
0010
1000
0001
,  // measure 53
1000
0010
0100
0001
,  // measure 54
1000
0001
1000
1000
,  // measure 55
0010
0000
0010
0000
0100
0100
0100
0000
,  // measure 56
0001
0001
0010
0010
,  // measure 57
0100
0100
0100
0000
1000
0000
1000
0000
,  // measure 58
0010
0000
0010
0000
1000
1000
1000
0000
,  // measure 59
0001
0001
1000
1000
,  // measure 60
0010
0010
0010
0000
0100
0000
0100
0000
,  // measure 61
0010
0000
0010
0000
0100
0100
0100
0000
,  // measure 62
0001
0001
1000
1000
,  // measure 63
0010
0010
0010
0000
0100
0000
0010
0000
,  // measure 64
0100
0100
0001
0100
,  // measure 65
0001
0001
1000
0001
,  // measure 66
1000
1000
0010
0100
,  // measure 67
0001
0001
1000
0100
,  // measure 68
0010
0010
0100
1000
,  // measure 69
0010
0100
0001
1000
,  // measure 70
0010
0100
0010
0010
,  // measure 71
0100
0100
0001
0001
,  // measure 72
1000
1000
0001
0001
,  // measure 73
1000
0010
1000
1000
,  // measure 74
0010
0010
1000
1000
,  // measure 75
0001
0001
0100
0100
,  // measure 76
0001
0100
0010
0010
,  // measure 77
0100
0100
0001
0001
,  // measure 78
1000
1000
0010
0010
,  // measure 79
1000
0010
1000
1000
,  // measure 80
0001
0001
1000
1000
,  // measure 81
0010
0010
0100
0100
,  // measure 82
0010
0000
1000
0002
0000
0000
0000
0003
,  // measure 83
1001
0000
0000
0110
0000
0000
1001
0000
,  // measure 84
0000
0101
0000
0000
2000
0000
3002
0000
,  // measure 85
0203
0000
0300
0101
0000
0000
1001
0000
,  // measure 86
0000
1001
0000
0000
0200
0000
0320
0000
,  // measure 87
2030
0000
0000
0000
3000
0002
0000
0000
,  // measure 88
2003
0000
0000
0000
0000
3020
0000
0030
,  // measure 89
1000
2002
0000
0000
0000
0000
0000
0000
,  // measure 90
0000
0000
0000
0000
0000
0000
0000
3003
;
