#TITLE:REPLiCA;
#SUBTITLE:;
#ARTIST:Music by Hommarju. Vocal by Ayu;
#TITLETRANSLIT:;
#SUBTITLETRANSLIT:;
#ARTISTTRANSLIT:;
#CREDIT:;
#BANNER:REPLiCA-jacket.jpg;
#BACKGROUND:;
#LYRICSPATH:;
#CDTITLE:;
#MUSIC:REPLiCA.mp3;
#OFFSET:0.100;
#SAMPLESTART:72.180;
#SAMPLELENGTH:12.000;
#SELECTABLE:YES;
#BPMS:0.000=165.000;
#STOPS:198.500=0.900
;
#BGCHANGES:;

//---------------dance-single - ----------------
#NOTES:
     dance-single:
     :
     Hard:
     14:
     0.791,0.982,0.298,0.315,0.336:
0000
0000
0000
0000
0000
0000
0001
0010
,
0100
0010
0001
2002
0000
0003
3020
0000
,
0000
0230
0000
0301
1000
0001
0100
1000
,
0100
0001
0010
0200
0000
0000
0310
0000
,
0000
1001
0000
0110
0000
0100
0010
1000
,
1000
0100
0100
0011
0000
0001
1000
0100
,
0100
0001
0001
1100
0000
1000
0010
1000
,
0100
0010
0002
2000
0003
0100
0000
0020
,
0030
0000
0002
0000
0003
0000
0200
0000
3300
0000
1000
0010
0100
0001
0010
0100
,
1000
0100
0010
0001
1000
0010
0100
0000
0010
0000
0100
0000
0010
0000
0000
0000
,
1000
0001
1000
0000
0001
0100
0001
0000
,
0100
0010
0100
0001
0100
0010
0010
1000
,
0010
0100
0001
0010
0000
0000
0000
0011
,
0000
1100
0000
0010
1000
0010
0100
0001
,
1000
0100
0010
0001
0010
0001
1000
0100
,
1000
0010
0100
0001
0010
1000
0001
0100
,
1000
0010
0100
1000
0100
0001
1000
0010
,
0100
0000
0001
0000
1000
0000
0110
0000
0010
0000
1000
0001
0100
0000
0010
0000
,
0100
0000
0010
1000
0001
0000
0100
0000
0001
0000
0010
0100
0010
0000
1000
0000
,
0010
0000
0001
0010
0001
0000
1000
0000
0010
0000
0100
0010
1000
0000
0001
0000
,
1000
0000
0100
0010
0001
0000
0010
0000
0001
0000
1000
0010
0100
0000
1000
0000
,
0100
0000
0001
0100
0001
0000
0010
0000
0100
0000
1000
0100
1000
0000
0001
0000
,
0010
0000
0100
0010
0100
0000
1000
0000
0010
0000
0100
0001
0100
0000
0010
0000
,
1000
0000
0010
1000
0001
0000
0010
0000
0100
0000
1000
0100
0010
0000
0001
0000
,
0100
0000
0001
1000
0100
0000
0010
0100
0010
0100
0010
0100
0010
0100
0010
0100
,
0010
0100
0010
0100
0010
0001
2000
0000
0000
0000
0010
0000
3010
0000
0000
0000
,
0102
0000
2000
0000
0000
3003
0010
1000
,
0001
0010
0100
1100
0000
1000
0100
0010
,
0001
1000
0100
1000
0010
0001
0010
1000
,
0010
0110
0000
0001
1000
1000
0010
0000
,
1000
0010
0100
0110
0000
0010
1010
0000
,
0100
0001
1000
0100
0010
0010
0001
1000
,
0001
0100
0100
0001
1000
0010
0001
0010
,
0100
0000
0001
0010
0100
1000
0100
0000
0010
0000
0011
0000
0000
0000
0010
0000
,
0001
0101
0000
0010
1000
1010
0010
0100
,
0001
0010
0100
0100
0000
1000
0010
0010
,
0000
0110
0000
0010
0100
1010
0000
0001
,
1000
1100
0000
0100
0000
0010
0001
0000
,
0001
1000
0010
0100
0000
1010
0000
1001
,
0000
0110
0000
0010
0010
1000
0001
0000
,
0000
0101
0000
0120
0000
2030
0000
3002
,
0000
0000
0023
0000
0000
0000
0230
0000
0000
0000
1300
0100
0010
0001
1000
0000
,
0001
0001
1000
0020
0000
0130
0002
0000
,
1003
0020
0000
2030
0000
3001
0200
0000
,
0310
0000
1000
0000
1000
0000
0010
0000
0010
0000
0100
0001
0010
0001
0100
0010
,
0100
0001
1000
0000
0010
0000
1000
0000
0000
0000
0001
0000
0100
0000
0000
0000
,
0100
0000
0110
0000
0010
0000
0100
0010
,
0100
0001
0010
1000
0010
0001
0001
0000
,
1001
0000
0010
0100
0010
0110
2002
0000
,
0000
0000
0000
0000
0000
0000
0000
0000
3003
0000
0000
0000
0110
0000
0000
0000
0000
0000
0220
0000
0000
0330
0000
0000
0010
0000
0000
0000
1000
0000
0000
0000
,
0001
0010
0100
1000
0100
0010
0001
0010
,
1000
0010
0001
0100
1000
0100
0001
0010
,
0001
1000
0100
0001
1000
0010
0101
0000
,
0001
0100
0001
0001
0010
0010
1100
0000
,
1000
0001
0010
0010
1000
1000
0011
0000
,
0001
0100
0001
0010
0100
2000
0020
3000
,
0100
0000
2000
3000
0002
0003
0200
0330
,
0001
0100
0001
1000
0100
0010
0001
0010
0100
1000
0001
0100
0010
0000
0100
0000
,
0001
1000
0010
0001
1000
0100
0001
0010
,
0100
1000
0100
0010
1000
0001
0100
1000
,
0010
0001
1000
0100
0010
1000
1100
0000
,
0100
0001
0010
0001
0100
0001
1000
0000
0010
0000
0001
0000
0010
0000
1000
0000
,
0001
0010
0001
1000
0010
0100
1000
0100
,
0001
0010
0100
1000
0010
1000
0001
0100
,
0010
1000
0100
1000
0001
0100
1000
0100
,
0001
1000
0010
0100
0001
0100
0210
0000
,
0010
0000
0002
0003
2000
3000
0002
0303
,
1000
0100
1000
0100
0010
0001
0100
0000
0010
1000
0010
1000
0010
0100
0001
0000
,
0100
0001
0010
0100
1000
0100
0010
0000
0001
1000
0001
1000
0010
0100
0001
0010
,
0001
1000
0100
1000
0010
0100
0001
0010
0100
1000
0100
0010
0001
0000
0100
0000
,
0010
0100
0010
0000
1000
0000
0001
0000
1000
0010
1000
0000
0100
0000
0010
0000
,
0001
0010
0100
0000
0010
0000
1000
0000
0010
0001
0100
0000
1000
0000
0100
0000
,
0001
0010
1000
0000
0010
0000
0001
0000
0100
1000
0100
0000
0010
0000
1000
0000
,
0001
0100
0010
0000
0100
0000
1000
0000
0100
0010
1000
0000
0001
0000
0001
0000
,
0100
0010
1000
0001
0010
0100
1000
0010
0100
0020
0000
0000
,
0000
0000
0000
0000
,
0000
0000
0000
0000
,
0030
0000
0000
0000
;

//---------------dance-single - Copied from----------------
#NOTES:
     dance-single:
     Copied from:
     Medium:
     11:
     0.496,0.549,0.187,0.272,0.004:
0000
0000
0000
0000
,
0000
0000
0000
0000
,
0000
0000
0000
0000
,
0000
0000
0000
0000
,
0000
0000
0000
0000
0000
0000
0010
0100
,
0010
1000
0001
0100
0000
0000
1000
0001
,
0100
0001
0100
0010
0000
0000
0010
0100
,
0010
0100
0001
2000
0000
3100
0000
1001
,
0000
0110
0000
1001
0000
1000
0010
0100
,
0001
0010
0001
1000
0010
0000
0010
0000
,
1000
1000
0001
0001
,
0100
0100
0010
0010
,
1000
0000
1000
0001
0000
0000
0000
0002
,
0000
2003
0000
3010
0000
0010
0100
0001
,
0000
0001
0010
0100
0000
0100
1000
0100
,
0000
0100
0010
0001
0000
0001
0010
0100
,
0000
0100
1000
0010
0000
0010
0100
0001
,
0000
0001
1000
1001
0000
1000
0100
0000
,
0100
0010
0001
0000
0001
0010
0010
0000
,
0010
0001
0001
0000
0010
0100
1000
0000
,
1000
0100
0010
0000
0001
1000
0100
0000
,
0100
0010
0010
0000
0001
1000
0010
0000
,
0010
0100
0100
0000
0010
0100
0010
0000
,
0010
1000
1000
0000
1000
0001
0100
0000
,
0100
0010
1000
0020
0000
0000
0000
0000
,
0000
0000
0000
0230
0000
0000
0000
0000
,
0000
0000
0000
0000
0000
0000
0000
0310
,
0000
1000
0000
1001
0000
0100
0000
0001
,
0000
1000
0100
1000
0000
0010
0000
0100
,
0000
0001
1000
0010
0000
0100
0000
0001
,
0000
0010
0100
1000
0000
0100
0000
0010
,
0000
0010
0001
0100
0000
0010
0000
1000
,
0000
0100
0000
0010
0000
0001
0000
1000
,
0001
1000
0010
0100
0000
0110
0000
0010
,
0000
0101
0000
0010
0000
1001
0000
0100
,
0000
0110
0000
0100
0000
1001
0000
0010
,
0000
0110
0000
0010
0000
1010
0000
0001
,
0100
0110
0000
0100
0000
0010
0010
0000
,
0000
0010
0100
0020
0000
2030
0000
3002
,
0000
0203
0000
0310
0010
1000
0001
0000
,
0000
0000
0000
0002
0000
0023
0000
0230
,
0000
2300
0000
3002
0000
1003
0010
1000
,
0000
0010
1000
0020
0000
0000
0230
0000
,
0000
0320
0000
2030
0000
0000
3002
0000
,
0000
1003
0001
1000
0001
1000
0001
0000
,
0000
0000
0000
1000
0000
0001
0100
0001
,
0000
0100
0010
0100
0000
0010
0100
0010
,
0000
1000
0010
1000
0000
0001
1000
0000
,
0010
0000
0010
0100
0010
0100
0020
0000
,
0000
0000
0000
0000
0000
0000
0000
0000
0030
0000
0000
0000
0100
0000
0000
0000
0000
0000
0020
0000
0000
0030
0000
0000
1000
0000
0000
0000
0000
0000
0000
0000
,
0001
0010
0100
0000
1000
0010
0100
0000
,
0001
0010
0100
0000
1000
0100
1000
0000
,
0001
0010
0001
0000
1000
0010
1010
0000
,
0010
0000
0100
0000
0001
0100
0100
0000
,
1000
0000
0100
0000
0001
0010
0010
0000
,
0100
0000
1000
0001
0100
0000
0020
0000
,
0130
1010
1001
0110
,
0001
0000
0001
1000
0010
0000
0010
0100
,
0001
0000
0001
0010
0100
0000
0100
1000
,
0010
0010
0010
1001
,
0100
0010
0100
0000
0010
0100
0010
0000
,
0100
0110
1010
0101
,
0001
0010
0001
0000
1000
0100
1000
0000
,
0001
0010
0001
0000
1000
0100
1000
0000
,
0010
0100
0010
0000
0010
0000
0110
0000
,
0001
0000
0100
0000
0100
0010
2000
0000
,
3020
0230
0302
0023
,
0130
0100
2000
0000
3001
0001
0020
0000
,
0130
0100
2000
0000
3001
0010
0001
0010
,
0001
0100
0010
1000
0010
1000
0010
0100
,
0010
0000
1000
0001
1000
0000
0100
0010
,
0001
0000
0010
0100
1000
0000
0001
0100
,
0010
0000
1000
0010
0100
0000
0010
1000
,
0001
0000
0010
0100
1000
0000
2000
0001
,
0000
0000
0000
0002
,
0000
0000
0000
0000
,
3003
0000
0000
0000
;

//---------------dance-single - Copied from Copied f----------------
#NOTES:
     dance-single:
     Copied from Copied f:
     Easy:
     5:
     0.375,0.388,0.119,0.434,0.004:
0000
0000
0000
0000
,
0000
0000
0000
0000
,
0000
0000
0000
0000
,
0000
0000
0000
0000
,
0000
0000
0000
0000
0000
0000
0000
0100
,
0000
0100
0010
0010
0000
0000
0000
1000
,
0000
0001
0100
0100
0000
0000
0000
0100
,
0000
0100
0000
2000
0000
3002
0000
0023
,
0000
0230
0000
2300
0000
3001
0000
0100
,
0000
0010
0000
1000
0000
0000
0010
0000
,
0000
1000
0000
0001
0000
0000
0000
0100
,
0000
0010
0000
0100
0000
0000
0010
0000
,
0000
2000
0000
3001
0000
0000
0000
0002
,
0000
2003
0000
3010
0000
0010
0000
0001
,
0000
0001
0000
0100
0000
0100
0000
0010
,
0000
1000
0000
0001
0000
0001
0000
0100
,
0000
0100
0000
0010
0000
0010
0000
1000
,
0000
0001
1000
1000
0000
1000
0001
0000
,
0000
0001
0100
0000
0000
0010
0010
0000
,
0000
0100
0100
0000
0000
0001
0001
0000
,
0000
1000
1000
0000
0000
0010
0100
0000
,
0000
0100
0001
0000
0000
0001
0100
0000
,
0000
0010
0010
0000
0000
1000
1000
0000
,
0000
0001
0001
0000
0000
0100
0010
0000
,
0000
0010
1000
0020
0000
0000
0000
0000
,
0000
0000
0000
0230
0000
0000
0000
0000
,
0000
0000
0000
0000
0000
0000
0000
0310
,
0000
1000
0000
1001
0000
0100
0000
0001
,
0000
1000
0000
0001
0000
1000
0000
0010
,
0000
0100
0000
0001
0000
0010
0000
0010
,
0000
0100
0000
0100
0000
1000
0000
1000
,
0000
0001
0000
0100
0000
0010
0000
1000
,
0000
0010
0000
0100
0000
0001
0000
0000
,
0000
0000
0000
0100
0000
0110
0000
0010
,
0000
1001
0000
0010
0000
0110
0000
0100
,
0000
1001
0000
0100
0000
0110
0000
0010
,
0000
1001
0000
0010
0000
0100
0000
0001
,
0100
0100
0000
0010
0000
0010
0000
0100
,
0000
0010
0000
0002
0000
0203
0000
0320
,
0000
2030
0000
3010
0000
1000
0001
0000
,
0000
0000
0000
0200
0000
0302
0000
2003
,
0000
3020
0000
0230
0000
0300
0000
0000
,
0000
0010
0000
0020
0000
0000
0230
0000
,
0000
0320
0000
2030
0000
0000
3002
0000
,
0000
0103
0000
0100
0000
0010
0100
0000
,
0000
0000
0000
1000
0000
0001
0000
0001
,
0000
0100
0000
0100
0000
0010
0000
0010
,
0000
1000
0000
1000
0000
0001
1000
0000
,
0010
0000
0000
0010
0000
0100
0002
0000
,
0000
0000
0000
0000
0003
0000
1000
0000
0000
0001
0000
0000
1000
0000
0000
0000
,
0001
0100
0020
2030
,
3001
0100
0010
0200
,
0301
0001
1000
2002
,
3003
0100
0010
0110
,
0000
0100
0001
0101
,
0000
0200
0302
0023
,
0230
2300
3100
0110
,
0000
0001
0100
0010
,
0000
2000
0000
0000
3002
0000
0203
0000
,
0300
0020
0230
0302
,
0003
0100
0000
0000
0010
0000
2000
0000
,
0000
3001
1000
0001
,
0100
0010
0100
0001
,
1000
0001
0100
0001
,
0100
0010
0100
1001
,
0000
0100
0010
2002
,
0000
3003
0200
0000
0010
0000
0310
0000
,
0000
0002
0003
0200
,
0300
0020
0030
2000
,
3000
0000
0000
0010
,
0010
1000
1000
0100
,
0100
0001
0001
0010
,
0010
1000
1000
0100
,
0100
0000
0001
0000
0001
0000
0100
0100
,
0000
0000
0000
2002
,
0000
0000
0000
0000
,
3003
0000
0000
0000
;

//---------------dance-single - Copied from Copied from Copied f----------------
#NOTES:
     dance-single:
     Copied from Copied from Copied f:
     Beginner:
     3:
     0.251,0.388,0.051,0.357,0.004: // measure 1
0000
0000
0000
0000
,  // measure 2
0000
0000
0000
0000
,  // measure 3
0000
0000
0000
0000
,  // measure 4
0000
0000
0000
0000
,  // measure 5
0000
0000
0000
0000
,  // measure 6
0000
0000
0000
0000
,  // measure 7
0000
0000
0000
0000
,  // measure 8
0000
0000
0000
0000
0000
0000
0000
0100
,  // measure 9
0000
0100
0000
0100
0000
0000
0000
0000
,  // measure 10
0000
0000
0000
0001
0000
0000
1000
0000
,  // measure 11
0000
0001
0000
1000
0000
0000
0000
0010
,  // measure 12
0000
0100
0000
0010
0000
0000
0100
0000
,  // measure 13
0000
0001
0000
1000
0000
0000
0000
2000
,  // measure 14
0000
3002
0000
0003
0000
0100
0000
0000
,  // measure 15
0000
1000
0000
0000
0000
0010
0000
0000
,  // measure 16
0000
0001
0000
0000
0000
1000
0000
0000
,  // measure 17
0000
0010
0000
0000
0000
0100
0000
0000
,  // measure 18
0000
1000
0000
0001
0000
0001
1000
0000
,  // measure 19
0000
1000
1000
0000
0000
0010
0010
0000
,  // measure 20
0000
0100
0100
0000
0000
0010
0010
0000
,  // measure 21
0000
1000
1000
0000
0000
0001
0001
0000
,  // measure 22
0000
0100
0100
0000
0000
0010
0010
0000
,  // measure 23
0000
1000
1000
0000
0000
0001
0001
0000
,  // measure 24
0000
1000
1000
0000
0000
0010
0010
0000
,  // measure 25
0000
0000
1000
2000
0000
0000
0000
0000
,  // measure 26
0000
0000
0000
3002
0000
0000
0000
0000
,  // measure 27
0000
0000
0000
0000
0000
0000
0000
0003
,  // measure 28
0000
0000
0000
1001
0000
0000
0000
1000
,  // measure 29
0000
0000
0000
1000
0000
0000
0000
0100
,  // measure 30
0000
0000
0000
1000
0000
0000
0000
0100
,  // measure 31
0000
0000
0000
0010
0000
0000
0000
0001
,  // measure 32
0000
0000
0000
0010
0000
0000
0000
0001
,  // measure 33
0000
0000
0000
0010
0000
0000
0000
0000
,  // measure 34
0000
0000
0000
0000
0000
0110
0000
0000
,  // measure 35
0000
0100
0000
0000
0000
1001
0000
0000
,  // measure 36
0000
0100
0000
0000
0000
0110
0000
0000
,  // measure 37
0000
0010
0000
0000
0000
0100
0000
0000
,  // measure 38
0010
0010
0000
0000
0000
0100
0000
0000
,  // measure 39
0000
0000
0000
2000
0000
0000
0000
3002
,  // measure 40
0000
0000
0000
0203
0000
0000
0310
0000
,  // measure 41
0000
0000
0000
0020
0000
0000
0000
0230
,  // measure 42
0000
0000
0000
0320
0000
0000
0000
0030
,  // measure 43
0000
0100
0000
0200
0000
0000
0320
0000
,  // measure 44
0000
0230
0000
0302
0000
0000
2003
0000
,  // measure 45
0000
3010
0000
0000
0000
0100
0100
0000
,  // measure 46
0000
0000
0000
0001
0000
0000
0000
1000
,  // measure 47
0000
0000
0000
0010
0000
0000
0000
0100
,  // measure 48
0000
0000
0000
0001
0000
0000
0000
0001
,  // measure 49
0000
0000
0000
0100
0000
0000
0000
0020
,  // measure 50
0000
0000
0000
0000
0000
0000
1030
0000
0000
1000
0000
0000
0001
0000
0000
0000
,  // measure 51
0000
0100
0020
0230
,  // measure 52
0300
0010
0100
0020
,  // measure 53
0030
1000
0001
2000
,  // measure 54
3000
0010
0100
0010
,  // measure 55
0000
0100
0001
0100
,  // measure 56
0000
0010
0000
0200
,  // measure 57
0000
0302
2003
3020
,  // measure 58
0030
1000
0000
0100
,  // measure 59
0000
0002
0000
0000
2003
0000
3020
0000
,  // measure 60
0030
0200
0320
2030
,  // measure 61
3000
0010
0000
0000
0100
0000
0002
0000
,  // measure 62
0000
1003
0000
0001
,  // measure 63
0000
0100
0000
0010
,  // measure 64
0000
1000
0000
0100
,  // measure 65
0000
0010
0000
0001
,  // measure 66
0000
0010
0000
2002
,  // measure 67
0000
3003
0020
0000
0230
0000
0320
0000
,  // measure 68
0030
2000
3000
0020
,  // measure 69
0030
0200
0300
0002
,  // measure 70
0003
0000
0000
0100
,  // measure 71
0000
0001
0000
0010
,  // measure 72
0000
1000
0000
0100
,  // measure 73
0000
0001
0000
0010
,  // measure 74
0000
1000
0000
0010
,  // measure 75
0000
0000
0000
2002
,  // measure 76
0000
0000
0000
0000
,  // measure 77
3003
0000
0000
0000
;
