#VERSION:0.81;
#TITLE:Pluto;
#SUBTITLE:(IIDX BPM STYLE);
#ARTIST:Black Hole;
#TITLETRANSLIT:;
#SUBTITLETRANSLIT:;
#ARTISTTRANSLIT:;
#GENRE:;
#ORIGIN:;
#CREDIT:;
#BANNER:;
#BACKGROUND:;
#PREVIEWVID:;
#JACKET:Pluto-jacket.png;
#CDIMAGE:;
#DISCIMAGE:;
#LYRICSPATH:;
#CDTITLE:;
#MUSIC:Pluto.ogg;
#OFFSET:0.000000;
#SAMPLESTART:4.800003;
#SAMPLELENGTH:12.000000;
#SELECTABLE:YES;
#BPMS:0.000=50.000,
12.000=220.000,
25.500=55.000,
26.000=220.000,
40.000=55.000,
40.500=230.000,
56.000=58.000,
56.500=230.000,
71.500=240.000,
95.500=230.000,
119.500=50.000,
121.500=200.000,
145.500=220.000,
155.500=55.000,
156.000=220.000,
166.500=55.000,
166.875=220.000,
179.000=50.000,
187.000=55.000,
188.000=220.000,
194.000=55.000,
194.250=220.000,
196.750=55.000,
197.125=220.000,
200.500=55.000,
200.750=220.000,
204.250=55.000,
204.500=220.000,
206.500=55.000,
206.875=220.000,
209.375=55.000,
209.625=220.000,
211.625=55.000,
211.875=220.000,
212.125=55.000,
212.500=220.000,
213.625=55.000,
213.875=220.000,
214.375=55.000,
214.750=220.000,
218.250=55.000,
218.625=220.000,
219.125=55.000,
219.500=220.000,
220.000=55.000,
220.375=220.000,
223.500=240.000,
237.000=60.000,
237.500=240.000,
238.000=250.000,
251.500=63.000,
252.000=250.000,
252.250=260.000,
267.500=65.000,
267.750=68.000,
267.875=270.000;
#STOPS:40.500=0.020,
200.500=0.020;
#DELAYS:;
#WARPS:;
#TIMESIGNATURES:0.000=4=4;
#TICKCOUNTS:0.000=4;
#COMBOS:0.000=1;
#SPEEDS:0.000=1.000=0.000=0;
#SCROLLS:0.000=1.000;
#FAKES:;
#LABELS:0.000=Song Start;
#BGCHANGES:;
#KEYSOUNDS:;
#ATTACKS:
;

//---------------dance-single - ----------------
#NOTEDATA:;
#CHARTNAME:;
#STEPSTYPE:dance-single;
#DESCRIPTION:;
#CHARTSTYLE:;
#DIFFICULTY:Challenge;
#METER:16;
#RADARVALUES:0.883571,1.000000,0.613919,0.439822,0.522289,560.000000,67.000000,48.000000,0.000000,0.000000,0.000000,0.000000,0.000000,0.883571,1.000000,0.613919,0.439822,0.522289,560.000000,67.000000,48.000000,0.000000,0.000000,0.000000,0.000000,0.000000;
#CREDIT:;
#NOTES:
0000
0000
0000
0000
,
1001
0000
0001
1000
0000
0010
1000
0000
0000
0100
0010
0000
0001
0000
1001
0000
1000
0000
0010
1000
0000
1000
0100
0000
0000
0010
0001
0000
1000
0000
1010
0000
,
0010
0000
0100
0001
0000
0001
0100
0000
0000
0010
1000
0000
1000
0000
1001
0000
0001
0000
0010
0100
0000
1000
0001
0000
0000
1000
0010
0100
0010
0000
0010
0000
,
1000
0000
0001
0000
1000
0010
0100
0010
0100
0000
0000
0000
0100
0000
0001
0000
,
1000
0001
0100
0100
0000
0001
0010
0100
,
1000
0001
0100
1000
0100
0000
0010
1000
,
0010
0100
0001
1002
0103
0010
1000
0001
,
0010
1000
0000
0001
0100
1000
0010
0100
,
1000
0000
0100
0001
1000
0100
0010
0001
,
1000
1000
0000
0100
0100
0010
0001
1000
,
2002
3003
1000
0001
0100
0010
0100
0000
,
0010
1000
0001
1000
0001
0100
0000
0010
,
1000
0001
0100
1000
0100
0001
0010
0000
,
0100
1000
0100
0010
0001
1000
0010
0000
,
1001
0000
1000
0001
0100
0000
0000
0000
0010
0000
0000
0000
1000
0000
0000
0000
0000
0000
0000
0000
0010
0000
0000
0000
0100
0000
0000
0000
0001
0000
0000
0000
,
1000
0100
0010
0000
0001
0010
0100
1000
,
0100
0010
0001
1000
0000
0001
1000
0100
,
1000
0010
0110
0000
0100
0010
1000
0001
,
1000
1002
0000
0023
0000
0130
1000
1020
,
0000
0230
0000
0301
1000
1002
0000
0023
,
0000
0130
1000
2010
0000
3002
0000
0013
,
0100
0120
0000
0230
0000
1300
0001
0201
,
0000
0302
0000
0013
0001
2100
0000
3020
,
0000
0130
0010
0220
0330
2002
3003
0001
,
0100
1000
0100
0001
0010
1000
0010
0001
,
1000
0100
0001
1000
0010
0001
1000
0010
,
0001
1000
0100
0001
0010
0100
1000
0100
,
0001
0100
1000
0001
0100
1000
0100
0001
,
0010
1000
0001
0100
1000
0001
0100
1000
,
0001
0010
1000
0001
0100
1000
0001
0020
,
0000
0000
0000
1030
1000
0001
0001
0100
,
0100
0010
0010
1000
1000
0100
0100
0011
,
0011
1100
0000
1010
1010
0101
0000
0011
,
1100
1001
0000
0110
1010
0011
0000
0011
,
0110
1001
0000
1010
1000
1001
1000
1010
,
1000
1100
0100
0110
0010
0011
0001
1001
,
0110
1010
0000
0010
1000
0001
1000
0100
,
1000
0100
0010
0100
1000
0001
0010
0100
,
0010
0001
1000
0010
0100
0001
1000
1020
,
0130
0010
1000
0001
0010
0100
1000
0010
,
0001
0010
1000
0001
0100
0001
1000
0100
,
0010
1000
0010
0001
0010
0210
1300
0010
,
0100
0001
0100
0100
0010
0010
1000
0010
,
1000
0001
0100
0001
0010
0100
0010
0001
,
1000
0100
0010
0010
0000
0000
2002
0000
,
3003
0010
1000
0000
0001
0000
0110
0000
0100
0000
0001
1000
0000
0010
1000
0000
0000
0100
0010
0000
0001
0000
1001
0000
1000
0010
0100
0100
0001
0010
0010
0001
,
1000
0001
0001
0100
0010
1000
0001
0100
1000
0001
0010
0010
1000
0100
1000
1000
0001
0010
0100
0100
1000
0001
0010
0001
0002
0000
0000
0000
0000
0000
0000
0000
,
1003
1000
0010
0100
0001
0010
0100
1000
,
0001
0000
1000
0000
0010
0000
1000
0000
0010
0100
0000
0001
0000
1000
0000
0010
,
0000
1000
0000
0001
1001
0000
0000
0000
1000
0000
0010
0000
1000
0000
0001
0000
,
0100
0000
0001
1000
0000
0010
0000
1000
0000
0001
0000
1000
0000
0010
0000
0100
,
0000
0000
0001
0000
1000
0000
0000
0000
0001
0000
0000
0000
0010
0000
0000
0000
0100
0000
0000
0000
1000
0000
0000
0001
0000
0000
0000
0010
0000
0000
0000
0100
,
0000
0000
0000
1000
0000
0000
0000
0001
0000
0000
0000
0100
0000
0010
0000
0000
0000
1000
0000
0000
0000
0001
0000
0000
0000
0100
0000
0000
0000
0010
0000
1000
,
0000
0010
0000
0000
0000
0100
0000
0000
0000
0001
0000
0000
0000
0100
0000
0001
0000
0000
0000
1000
0000
0000
0010
0000
0000
0000
1000
0000
0000
0000
0001
0000
,
0000
0000
1000
0000
0000
0000
0100
0000
0000
0000
0010
0000
0000
0000
0100
0000
0000
0000
1000
0000
0000
0010
0000
0000
0000
0100
0000
0000
0010
0000
0000
0000
,
1000
0000
0000
0001
0000
0000
0000
0000
0000
0000
0000
0000
1000
0000
0000
0000
0000
0000
0010
0000
0000
0000
0000
0000
0000
0000
0000
0000
1000
0000
0010
0000
,
0100
0001
0010
0000
0100
0000
1000
0000
0000
0000
0010
0000
1000
0000
0100
0000
,
1000
0001
0011
0000
1000
0010
1000
0100
,
0010
0001
0010
1100
0000
1000
0001
1000
,
0010
0100
0120
1000
1030
0001
0100
0001
,
2001
0000
3100
0010
0001
1000
0001
0201
,
0000
0310
1000
0001
0100
1000
0100
0001
,
0021
0000
0130
1000
0001
0010
0100
2100
,
0000
3001
0100
1000
0100
0102
0000
0013
,
0100
1000
0001
0100
2100
0000
3001
0010
,
1000
0001
1000
0100
0010
0210
0000
1300
,
0001
0000
1000
0000
0010
0000
0220
0000
0330
0000
2002
0000
3003
0000
1001
0001
,
1000
0010
0200
0000
0000
0301
0001
1000
,
0010
1000
1200
0000
0310
0010
0001
0100
,
0010
1000
0001
0021
0000
0130
0100
1000
,
0010
0100
0010
0110
0000
1001
0000
0000
,
0000
0220
0000
0000
0000
0000
0330
2002
,
0000
0000
0000
0000
0000
0000
3003
0220
,
0000
0000
0000
0000
,
0000
0000
0000
0000
,
0000
0000
0000
0000
0000
0000
0000
0330
;

//---------------dance-single - ----------------
#NOTEDATA:;
#CHARTNAME:;
#STEPSTYPE:dance-single;
#DESCRIPTION:;
#CHARTSTYLE:;
#DIFFICULTY:Hard;
#METER:15;
#RADARVALUES:0.780161,0.938574,0.458148,0.183259,0.435241,526.000000,50.000000,20.000000,0.000000,0.000000,0.000000,0.000000,0.000000,0.780161,0.938574,0.458148,0.183259,0.435241,526.000000,50.000000,20.000000,0.000000,0.000000,0.000000,0.000000,0.000000;
#CREDIT:;
#NOTES:
0000
0000
0000
0000
,
1001
0000
0010
0100
0000
0100
0001
0000
0000
1000
0010
0000
0010
0000
0110
0000
0000
0000
0100
0001
0000
0001
1000
0000
0000
1000
0001
0000
0001
0000
0011
0000
,
0000
0000
0010
0100
0000
0100
1000
0000
0000
0100
1000
0000
1000
0000
1001
0000
0000
0000
0001
0010
0000
0010
0001
0000
0000
1000
0010
0000
0100
0000
0100
0000
,
0001
1000
0100
0010
0001
0000
1000
0010
,
1000
0010
0100
0001
0000
1000
0100
0010
,
0100
1000
0010
0100
0010
0000
1000
0001
,
0010
0100
0010
0002
1003
0100
0010
0100
,
1000
0001
0000
0001
0100
1000
0100
0001
,
0010
0000
0010
0100
1000
0001
0010
0100
,
1000
0001
0000
0001
1000
0100
0001
0100
,
2000
0000
3001
0100
0001
0100
1000
0000
,
0100
0010
1000
0010
0100
0001
0000
1000
,
0010
1000
0001
0010
0001
0010
0100
0000
,
1000
0100
1000
0001
0100
1000
0100
0000
,
0110
0000
0010
1000
0000
0001
0100
0001
,
0010
0100
1000
0000
0001
1000
0010
0001
,
0010
1000
0100
0010
0000
0001
1000
0100
,
1000
0010
0100
0000
0010
0100
0001
1001
,
0000
0101
0000
1010
0000
0101
0000
1010
,
0000
1100
0000
1001
0000
1100
0000
0011
,
0000
0101
0000
1010
0000
0110
0000
1001
,
0000
0101
0000
1010
0000
1100
0000
0101
,
0000
0011
0000
1010
0000
1100
0000
0101
,
0000
1001
0000
0110
0000
2002
3003
0001
,
0100
0010
0100
0001
0010
1000
0010
0001
,
1000
0100
0010
0100
1000
0010
0001
1000
,
0100
1000
0100
0001
0010
0100
0001
0100
,
0001
0100
1000
0010
0001
1000
0100
0001
,
0010
0001
1000
0100
1000
0010
0100
1000
,
0001
0010
0100
0001
1000
0001
0100
0020
,
0000
0000
0000
1030
0001
1000
0010
0100
,
0010
1000
0100
1000
0100
0010
0001
1000
,
1000
1020
0000
0100
0130
0102
0000
0010
,
0013
0210
0000
1000
1300
1002
0000
0100
,
0103
0110
0000
1010
0010
0110
0100
0101
,
0001
1001
1000
1010
0010
0110
0000
1001
,
1001
1001
0000
0001
0100
0010
1000
0001
,
0010
0001
1000
0100
1000
0010
0100
1000
,
0100
0001
0010
0100
0010
0001
1000
0002
,
0103
0010
0100
0001
1000
0100
1000
0100
,
0010
0001
0100
0010
1000
0001
0010
0001
,
0100
0010
1000
0001
1000
0020
0130
0001
,
0010
0100
1000
0010
0100
0001
0100
1000
,
0100
0001
0010
0100
0001
0100
1000
0010
,
0001
1000
0100
0010
0000
0000
2002
0000
,
3003
0010
0100
0000
0010
0000
0010
0000
0000
0000
1000
0001
0000
0001
0100
0000
0000
0010
1000
0000
0100
0000
0100
0000
0010
0000
0001
0000
0010
0000
0100
0000
,
1000
0000
0010
0000
0100
0000
0010
0000
1000
0000
0001
0000
0010
0000
0100
1000
0100
1000
0010
0100
0010
0100
0001
0010
0002
0000
0000
0000
0000
0000
0000
0000
,
1003
0010
1000
0001
0100
0010
0100
0001
,
0010
0000
0100
0000
1000
0000
0100
0000
0010
0001
0000
1000
0000
0010
0000
0100
,
0000
0001
0000
1000
0010
0000
0000
0000
1000
0000
0010
0000
1000
0000
0001
0000
,
0100
0000
0001
0100
0000
0010
0000
0100
0000
1000
0000
0100
0000
0001
0000
0100
,
0000
0000
0010
0000
0100
0000
0000
0000
0001
0000
0000
0000
1000
0000
0000
0000
0100
0000
0000
0000
0010
0000
0000
0001
0000
0000
0000
0010
0000
0000
0000
0001
,
0000
0000
0000
1000
0000
0000
0000
0010
0000
0000
0000
1000
0000
0100
0000
0000
0000
0010
0000
0000
0000
0001
0000
0000
0000
0010
0000
0000
0000
0100
0000
1000
,
0000
0001
0000
0000
0000
0100
0000
0000
0000
0010
0000
0000
0000
0100
0000
1000
0000
0000
0000
0100
0000
0000
0001
0000
0000
0000
1000
0000
0000
0000
0100
0000
,
0000
0000
1000
0000
0000
0000
0001
0000
0000
0000
0100
0000
0000
0000
0001
0000
0000
0000
0010
0000
0000
0100
0000
0000
0000
1000
0000
0000
0010
0000
0000
0000
,
0100
0000
0000
0001
0000
0000
0000
0000
0000
0000
0000
0000
1000
0000
0000
0000
0000
0000
0010
0000
0000
0000
0000
0000
0000
0000
0000
0000
1000
0000
0000
0000
,
0001
1000
0010
0100
0000
0010
1000
0001
,
1000
0010
0100
0000
0001
0010
0001
1000
,
0010
0001
0010
1000
0000
0001
0100
1000
,
0100
0001
0010
0100
1000
0001
0100
0001
,
1000
0000
0100
1000
0010
1000
0001
0010
,
0000
0001
0010
1000
0010
0001
0100
1000
,
0100
0000
0010
1000
0001
0010
0100
1000
,
0000
0010
0100
0010
1000
0001
0000
0010
,
0100
1000
0001
0100
0001
0000
1000
0010
,
1000
0010
0100
0001
0010
0100
0000
1000
,
0100
0010
0001
1000
0000
0110
0000
1001
,
0000
0010
0100
0000
0000
0001
1000
0010
,
1000
0001
0100
0000
0010
0100
0001
1000
,
0100
1000
0001
0010
0000
0001
0100
1000
,
0001
0010
1000
0010
0000
1001
0000
0000
,
0000
0220
0000
0000
0000
0000
0330
2002
,
0000
0000
0000
0000
0000
0000
3003
0220
,
0000
0000
0000
0000
,
0000
0000
0000
0000
,
0000
0000
0000
0000
0000
0000
0000
0330
;

//---------------dance-single - ----------------
#NOTEDATA:;
#CHARTNAME:;
#STEPSTYPE:dance-single;
#DESCRIPTION:;
#CHARTSTYLE:;
#DIFFICULTY:Medium;
#METER:13;
#RADARVALUES:0.503963,0.556192,0.119119,0.164933,0.109956,354.000000,13.000000,18.000000,0.000000,0.000000,0.000000,0.000000,0.000000,0.503963,0.556192,0.119119,0.164933,0.109956,354.000000,13.000000,18.000000,0.000000,0.000000,0.000000,0.000000,0.000000;
#CREDIT:;
#NOTES:
0000
0000
0000
0000
,
1001
0000
0000
0000
0000
0000
1000
0010
0100
0000
0000
0000
0000
0000
0001
0010
,
0100
0000
0000
0000
0000
0000
1000
0001
0100
0000
0000
0000
0000
0000
0000
0000
,
0010
0000
1000
0000
0001
0000
0100
0001
,
0100
0000
0010
1000
0000
0010
1000
0000
,
0001
0100
0001
0000
0010
0000
0100
0000
,
1000
0100
1000
0002
0003
0100
0000
0010
,
1000
0001
0000
0100
0010
1000
0000
0001
,
0010
0000
0001
1000
0000
0001
0000
0100
,
0000
0010
0000
1000
0001
0100
0000
0010
,
0200
0000
0301
1000
0001
1000
0000
0000
,
0100
0010
0000
0100
0001
0000
1000
0000
,
0010
0000
0100
0001
0100
0010
1000
0000
,
0001
0010
0000
0100
1000
0000
0100
0000
,
1100
0000
1000
0001
0000
0100
0010
0100
,
0001
1000
0000
0001
0000
0001
0000
1000
,
0010
0100
0001
0000
0000
1000
0010
0000
,
0100
0001
0000
1000
0000
0010
0000
1000
,
0000
0010
0000
0100
0000
0001
0010
0001
,
0000
0100
0000
0010
0000
1000
0000
0100
,
0000
0010
0001
0010
0000
0100
0000
1000
,
0000
0001
0000
1000
0000
0100
1000
0100
,
0000
0010
0000
0001
0000
1000
0000
0010
,
0000
1000
0001
0100
0000
0020
0000
1030
,
0000
0001
0000
0010
0000
0100
0000
1000
,
0000
0010
0000
0100
0001
0100
0001
1000
,
0010
1000
0010
1000
0001
1000
0001
0100
,
0000
0010
0000
1000
0000
0100
0000
0010
,
0000
0001
0000
0010
0100
0010
0100
1000
,
0001
1000
0001
0100
0010
0100
0001
2000
,
0000
0000
0000
3001
0000
0100
0000
0010
,
0000
1000
0000
0100
0000
0010
0000
0001
,
0010
0200
0000
1000
1000
2300
0000
0010
,
0010
3020
0000
0100
0100
0230
0000
0001
,
0001
0301
0000
1001
0000
1001
0000
1010
,
0000
1010
0000
0101
0000
0101
0000
0010
,
1000
1001
0000
0001
0000
1000
0010
0000
,
0010
0100
0000
0010
0000
1000
0100
1000
,
0010
0000
0010
0100
0000
0010
1000
0002
,
0103
0000
0010
1000
0000
0100
1000
0000
,
0010
0100
0010
0100
0000
0001
1000
0000
,
0010
0100
0000
0010
0000
2000
3001
0000
,
0100
0010
0100
0000
0001
1000
0100
0000
,
0010
0001
0010
0000
0100
0000
1000
0000
,
0001
0010
0100
1000
0000
0000
2002
0000
,
3003
0000
0010
0010
0000
0000
0000
0000
0000
0000
0100
0100
0010
0000
1000
0000
,
0001
0000
0100
0000
0001
0000
0010
0000
0001
0000
1000
1000
0000
0000
0000
0000
,
0001
0000
0100
0000
0010
0000
1000
0001
,
1000
0000
0000
0000
0001
0000
0000
0000
1000
0010
0000
0000
0000
0010
0000
0000
,
0000
0100
0000
0000
0010
0000
0000
0000
1000
0000
0000
0000
0001
0000
0000
0000
,
0100
0000
0000
0000
0000
0010
0000
0000
0000
1000
0000
0000
0000
0001
0000
0000
,
0000
0000
0000
0000
1000
0000
0000
0000
0000
0000
0000
0000
0100
0000
0000
0000
0000
0000
0000
0000
0010
0000
0000
0000
0000
0000
0000
0000
0000
0000
0000
0001
,
0000
0000
0000
0000
0000
0000
0000
0010
0000
0000
0000
0000
0000
0000
0000
0000
0000
0000
0000
0000
0000
0100
0000
0000
0000
0000
0000
0000
0000
1000
0000
0000
,
0000
0010
0000
0000
0000
0100
0000
0000
0000
0000
0000
0000
0000
0000
0000
0000
0000
0000
0000
0001
0000
0000
1000
0000
0000
0000
0000
0000
0000
0000
0100
0000
,
0000
0000
0000
0000
0000
0000
0010
0000
0000
0000
0000
0000
0000
0000
0001
0000
0000
0000
0000
0000
0000
0000
0000
0000
0000
1000
0000
0000
0000
0000
0000
0000
,
0010
0000
0000
0100
0000
0000
0000
1000
,
0000
0001
0000
0100
0000
0010
1000
0001
,
0000
0100
0010
0000
1000
0010
0000
1000
,
0000
0100
0000
0010
0000
0001
0010
0001
,
0000
0010
0100
0000
1000
0000
0010
0000
,
1000
0000
0100
1000
0010
0000
0100
0010
,
0000
0100
0001
0000
1000
0000
0010
0000
,
0100
0000
0010
0100
0001
0000
1000
0010
,
0000
0100
0000
0001
1000
0000
0000
0010
,
0000
0100
0001
0100
0000
0010
0000
0010
,
0000
1000
0001
1000
0001
0100
0000
0010
,
0000
0000
1000
0001
0000
0010
0000
0100
,
0000
1000
0100
0000
0000
0100
0010
0000
,
0000
0001
1000
0100
0000
0100
0000
0010
,
0001
1000
0001
0000
0000
0100
0010
0000
,
0100
0001
0000
1000
0000
1000
0000
0000
,
0000
0220
0000
0000
0000
0000
0330
2002
,
0000
0000
0000
0000
0000
0000
3003
0220
,
0000
0000
0000
0000
,
0000
0000
0000
0000
,
0000
0000
0000
0000
0000
0000
0000
0330
;

//---------------dance-single - ----------------
#NOTEDATA:;
#CHARTNAME:;
#STEPSTYPE:dance-single;
#DESCRIPTION:;
#CHARTSTYLE:;
#DIFFICULTY:Easy;
#METER:5;
#RADARVALUES:0.375681,0.522289,0.018326,0.146607,0.036652,269.000000,2.000000,16.000000,0.000000,0.000000,0.000000,0.000000,0.000000,0.375681,0.522289,0.018326,0.146607,0.036652,269.000000,2.000000,16.000000,0.000000,0.000000,0.000000,0.000000,0.000000;
#CREDIT:;
#NOTES:
0000
0000
0000
0000
,
1001
0000
0000
0010
0100
0000
0000
0001
,
1000
0000
0000
0100
0010
0000
0000
0000
,
0001
0001
1000
0010
,
0010
0100
0000
0001
,
1000
1000
0100
0010
,
0001
0000
0001
2000
3010
0000
0010
0000
,
0001
0100
0100
1000
,
0001
0000
0000
0001
0000
1000
0000
0010
,
0000
0100
0000
0001
0000
0010
0000
0100
,
0020
0000
1030
0000
0001
0100
0000
0000
,
0010
0000
0000
0010
1000
0000
0001
0000
,
0100
0000
0000
0000
0010
0100
0000
0000
,
1000
0010
0001
0010
,
0011
0000
0000
0010
0000
0100
0000
0000
,
0000
0001
0000
1000
0000
1000
0000
0001
,
0000
0010
1000
0000
0000
0001
0000
0000
,
0000
1000
0000
0001
0000
0100
0000
0001
,
0000
0100
0000
0010
0000
1000
0000
1000
,
0000
0010
0000
0100
0000
0001
0000
0010
,
0000
0100
0000
0100
0000
0010
0000
0001
,
0000
1000
0000
0001
0000
0010
0000
0010
,
0000
0100
0000
1000
0000
0001
0000
0100
,
0000
0001
0000
0010
0000
2000
0000
3001
,
0000
1000
0000
0100
0000
0010
0000
0001
,
0000
0100
0000
0010
0000
0100
0000
0001
,
0000
0100
0000
0001
0000
1000
0000
0010
,
0000
0100
0000
0001
0000
0010
0000
0100
,
0000
1000
0000
0100
0000
1000
0000
0001
,
0000
0100
0000
0010
0000
0100
0000
0002
,
0000
0000
0000
1003
0000
0010
0000
0100
,
0000
0001
0000
0010
0000
0100
0000
1000
,
0001
1000
0000
0001
0100
0001
0000
1000
,
0010
1000
0000
0001
0010
0001
0000
1000
,
0001
1000
0000
0020
0000
0032
0000
0203
,
0000
2300
0000
3020
0000
0032
0000
0013
,
1000
0010
0000
1000
0000
0001
0000
0000
,
0100
0100
0001
1000
,
0100
0000
0010
0000
0100
0000
0001
2000
,
3010
0100
0100
0001
,
0100
0010
1000
0001
,
0100
0000
0010
0000
0100
0002
1003
0000
,
0010
0010
1000
0001
,
1000
0100
0010
0001
,
1000
0010
0000
0002
,
0003
1000
0010
0000
0000
0010
1000
0100
,
0010
0001
0100
0010
1000
0010
0000
0000
,
1000
0010
0100
0001
,
0100
0010
0001
0000
,
0000
0100
0100
0000
0001
0000
1000
0000
,
0010
0000
0000
0000
0000
0000
0000
0000
0000
0001
0000
0000
0000
1000
0000
0000
,
0000
0000
0000
0000
0000
0000
0000
0000
0000
0000
0000
0000
0010
0000
0000
0000
0000
0000
0000
0000
0100
0000
0000
0000
0000
0000
0000
0000
0000
0000
0000
1000
,
0000
0000
0000
0000
0000
0000
0000
0100
0000
0000
0000
0000
0000
0000
0000
0000
0000
0000
0000
0000
0000
0000
0000
0000
0000
0000
0000
0000
0000
0000
0000
0000
,
0000
0000
0000
0000
0000
0000
0000
0000
0000
0000
0000
0000
0000
0000
0000
0000
0000
0000
0000
1000
0000
0000
0000
0000
0000
0000
0000
0000
0000
0000
0000
0000
,
0000
0000
0000
0000
0000
0000
0100
0000
0000
0000
0000
0000
0000
0000
1000
0000
0000
0000
0000
0000
0000
0000
0000
0000
0000
0001
0000
0000
0000
0000
0000
0000
,
0100
0000
0000
0010
0000
0000
0000
0001
,
0000
1000
0000
0010
0000
0100
0000
1000
,
0000
0010
0000
0000
0000
1000
0000
0001
,
0000
0010
0000
0100
0000
1000
0000
1000
,
0000
0100
0010
0000
0001
0000
0100
0000
,
0001
0000
0010
0000
0100
0000
0010
1000
,
0000
0000
0001
0100
,
0010
0000
0100
0000
1000
0000
0001
0100
,
0000
0010
0000
1000
0000
0000
0000
0100
,
0000
0010
0000
0010
0000
0100
0000
0100
,
0000
0001
0000
0001
0000
0010
0000
0100
,
0000
0000
0001
1000
0000
0100
0000
0010
,
0000
0000
0000
0000
,
0100
1000
0000
0010
0000
0010
0000
0000
,
0000
0001
1000
0000
0000
0010
0000
0010
,
0000
1000
0000
0001
0000
1000
0000
0000
,
0000
0020
0000
0000
0000
0000
0000
2030
,
0000
0000
0000
0000
0000
0000
0000
3002
,
0000
0000
0000
0000
,
0000
0000
0000
0000
,
0000
0000
0000
0000
,
0003
0000
0000
0000
;

//---------------dance-single - ----------------
#NOTEDATA:;
#CHARTNAME:;
#STEPSTYPE:dance-single;
#DESCRIPTION:;
#CHARTSTYLE:;
#DIFFICULTY:Beginner;
#METER:3;
#RADARVALUES:0.198967,0.274889,0.000000,0.045815,0.022907,147.000000,0.000000,5.000000,0.000000,0.000000,0.000000,0.000000,0.000000,0.198967,0.274889,0.000000,0.045815,0.022907,147.000000,0.000000,5.000000,0.000000,0.000000,0.000000,0.000000,0.000000;
#CREDIT:;
#NOTES:
// measure 0
0000
0000
0000
0000
,  // measure 1
1000
0000
0000
0010
0000
0000
0000
0001
,  // measure 2
0000
0000
0000
0100
0000
0000
0000
0000
,  // measure 3
0001
0000
1000
0000
,  // measure 4
0010
0000
0000
0001
,  // measure 5
1000
0000
0100
0000
,  // measure 6
0001
0000
0010
0000
,  // measure 7
0001
0000
0100
0000
,  // measure 8
0001
0000
0000
0001
0000
0000
0000
0010
,  // measure 9
0000
0000
0000
0001
0000
0000
0000
0100
,  // measure 10
0010
1000
0001
0000
,  // measure 11
0010
0000
1000
0000
,  // measure 12
0100
0000
0010
0000
,  // measure 13
1000
0000
0001
0000
,  // measure 14
0100
0000
0000
0010
0000
0000
0000
0000
,  // measure 15
0000
0001
0000
0000
0000
1000
0000
0000
,  // measure 16
0000
0010
0000
0000
0000
0001
0000
0000
,  // measure 17
0000
1000
0000
0000
0000
0100
0000
0000
,  // measure 18
0000
0100
0000
0000
0000
1000
0000
0000
,  // measure 19
0000
0010
0000
0000
0000
0001
0000
0000
,  // measure 20
0000
0100
0000
0000
0000
0010
0000
0000
,  // measure 21
0000
1000
0000
0000
0000
0010
0000
0000
,  // measure 22
0000
0100
0000
0000
0000
0001
0000
0000
,  // measure 23
0000
0001
0000
0000
0000
0100
0000
1000
,  // measure 24
0000
0000
0000
0000
0000
0010
0000
0000
,  // measure 25
0000
0000
0000
0010
0000
0000
0000
0000
,  // measure 26
0000
0100
0000
0000
0000
0000
0000
0010
,  // measure 27
0000
0000
0000
0000
0000
0010
0000
0000
,  // measure 28
0000
0000
0000
0100
0000
0000
0000
0000
,  // measure 29
0000
0100
0000
0000
0000
0000
0000
0002
,  // measure 30
0000
0000
0000
1003
0000
0000
0000
0100
,  // measure 31
0000
0000
0000
0010
0000
0000
0000
1000
,  // measure 32
0000
1000
0000
0001
0000
0001
0000
1000
,  // measure 33
0000
1000
0000
0001
0000
0001
0000
1000
,  // measure 34
0000
1000
0000
0010
0000
0010
0000
0010
,  // measure 35
0000
0100
0000
0100
0000
0100
0000
0001
,  // measure 36
0000
1000
0000
0001
0000
0000
0000
0000
,  // measure 37
0000
0100
0000
1000
,  // measure 38
0000
0010
0000
0001
,  // measure 39
0000
0100
0000
0001
,  // measure 40
0000
0010
0000
0001
,  // measure 41
0000
0010
0000
1000
,  // measure 42
0000
0010
0000
0001
,  // measure 43
0000
0100
0000
0001
,  // measure 44
0000
1000
0000
0002
,  // measure 45
0003
1000
0000
0000
0000
0010
0000
0100
,  // measure 46
0100
0001
0001
1000
1000
0010
0000
0000
,  // measure 47
0100
0000
0001
0000
,  // measure 48
0100
0000
0001
0000
,  // measure 49
0000
0100
0000
0000
,  // measure 50
0010
0000
0000
0000
0000
0000
0000
0000
0000
0001
0000
0000
0000
0000
0000
0000
,  // measure 51
0000
0000
0000
0000
0000
0000
0000
0000
0000
0000
0000
0000
0010
0000
0000
0000
0000
0000
0000
0000
0000
0000
0000
0000
0000
0000
0000
0000
0000
0000
0000
1000
,  // measure 52
0000
0000
0000
0000
,  // measure 53
0000
0000
0000
0000
0000
0000
0000
0000
0000
0000
0000
0000
0000
0000
0000
0000
0000
0000
0000
1000
0000
0000
0000
0000
0000
0000
0000
0000
0000
0000
0000
0000
,  // measure 54
0000
0000
0000
0000
0000
0000
0100
0000
0000
0000
0000
0000
0000
0000
0000
0000
0000
0000
0000
0000
0000
0000
0000
0000
0000
0001
0000
0000
0000
0000
0000
0000
,  // measure 55
0000
0000
0000
0010
0000
0000
0000
0001
,  // measure 56
0000
0000
0000
0010
0000
0000
0000
1000
,  // measure 57
0000
0000
0000
0000
0000
1000
0000
0000
,  // measure 58
0000
0010
0000
0000
0000
1000
0000
0000
,  // measure 59
0000
0010
0000
0100
,  // measure 60
0000
0010
0000
0010
,  // measure 61
0000
0000
0001
0000
,  // measure 62
0010
0000
1000
0000
,  // measure 63
0000
0010
0000
0000
0000
0000
0000
0100
,  // measure 64
0000
0000
0000
0010
0000
0000
0000
0100
,  // measure 65
0000
0000
0000
0001
0000
0000
0000
0100
,  // measure 66
0000
0000
0000
1000
0000
0000
0000
0010
,  // measure 67
0000
0000
0000
0000
,  // measure 68
0000
1000
0000
0000
0000
0010
0000
0000
,  // measure 69
0000
0001
0000
0000
0000
0010
0000
0000
,  // measure 70
0000
1000
0000
0000
0000
1000
0000
0000
,  // measure 71
0000
0002
0000
0000
0000
0000
0000
2003
,  // measure 72
0000
0000
0000
0000
0000
0000
0000
3020
,  // measure 73
0000
0000
0000
0000
,  // measure 74
0000
0000
0000
0000
,  // measure 75
0030
0000
0000
0000
;
