#TITLE:Play back hate you;
#SUBTITLE:;
#ARTIST:AKIRA YAMAOKA;
#TITLETRANSLIT:;
#SUBTITLETRANSLIT:;
#ARTISTTRANSLIT:;
#CREDIT:;
#BANNER:play back hate you-bn.png;
#BACKGROUND:;
#LYRICSPATH:;
#CDTITLE:;
#MUSIC:Play back hate you.mp3;
#OFFSET:0.000;
#SAMPLESTART:76.840;
#SAMPLELENGTH:12.000;
#SELECTABLE:YES;
#BPMS:0.000=142.000;
#STOPS:;
#BGCHANGES:;

//---------------dance-single - ----------------
#NOTES:
     dance-single:
     :
     Hard:
     15:
     0.781,0.713,0.111,0.153,0.796:
0000
0000
0000
0000
,
0000
0000
0000
0000
1000
0000
0001
0000
0100
0010
0000
1000
0010
0000
0100
0010
,
0000
1000
0010
0000
0100
0000
0001
0000
0010
0100
0000
1000
0001
0000
0100
0001
,
0000
1000
0010
0000
0100
0000
0001
0000
0100
0010
0000
0100
0001
0000
0010
0001
,
0000
0010
0100
0000
1000
0000
0001
0000
0010
0100
0000
1000
0100
0000
0010
0001
,
0000
0010
0100
0000
1000
0000
0100
0000
0010
0001
0000
0001
0100
0000
0010
1000
,
0000
1000
0001
0000
0010
0100
0000
0100
1000
0010
0100
0001
0010
1000
0010
0001
,
0100
1000
0100
0002
0010
0000
0000
0000
0010
0000
0000
0000
0010
0000
0000
0000
,
0010
0000
0013
0100
1000
0100
0010
0001
,
1001
0000
0110
0000
0010
0000
1000
0000
0010
0100
0000
0001
1000
0000
0010
0100
,
0000
0001
0100
0000
0010
0000
1000
0000
0100
0010
0000
0001
1000
0000
0100
1000
,
0000
0001
0100
0000
0010
0000
1000
0000
0001
0100
0000
0010
0100
0000
0010
1000
,
0000
0100
0010
0000
0001
0000
0010
0000
0100
1000
0000
1000
0001
0000
0100
0010
,
0000
0010
0100
0000
0001
0000
1000
0000
0010
0100
0000
0010
0100
0000
0001
1000
,
0000
0001
1000
0000
0010
0000
1000
0000
0001
0010
0000
0100
1000
0000
0001
0010
,
0000
0100
1000
0000
0010
0000
0100
0000
0010
0100
0000
0010
0001
0000
0010
1000
,
0000
0010
0100
0000
0010
0000
1000
0000
0100
0010
0000
0010
0001
0000
0001
0010
,
0000
0010
0100
0000
1000
0100
0010
0001
0010
0100
0010
0002
0000
1000
0000
1003
,
0010
0100
0001
0000
0010
0000
0100
1000
0100
0000
1000
0200
0000
0010
0000
0310
,
0001
0010
1000
0000
0010
0000
0001
1000
0001
0000
0100
0020
0000
0100
0000
0130
,
1000
0100
0001
0000
0010
0000
0100
1000
0100
0000
0010
0002
0000
0100
0000
0103
,
1000
0100
0010
0000
1000
0000
0001
0100
0001
0000
1000
0020
0000
0100
0000
0130
,
0001
1000
0001
0000
0010
0000
0100
0010
0100
0000
0010
0002
0000
1000
0000
1003
,
0010
1000
0100
0000
0010
0000
0001
0010
0100
0000
1000
0002
0000
0010
0000
0013
,
0100
1000
0001
0000
0100
0000
1000
0001
0010
0000
0100
0020
0000
1000
0000
0130
,
0001
0100
0001
0000
1000
0000
0020
0000
0000
0000
0130
0000
0001
0000
0200
0000
,
0000
0310
1000
0002
0000
1003
0001
0100
,
1001
0000
0000
0000
1000
0000
0010
0000
1000
0100
0000
0100
0010
0000
0010
0001
,
0100
0001
0100
0000
1000
0000
0100
0000
0001
0010
0000
0010
0100
0000
0100
1000
,
0001
1000
0001
0000
1000
0000
0002
0000
0000
0000
0013
0000
0100
0000
2000
0000
,
0000
3010
0001
0020
0000
0130
0001
1000
,
1001
0000
0000
0000
0001
0000
0100
0000
0001
0010
0000
0010
0100
0000
0100
1000
,
0010
1000
0010
0000
0001
0000
0010
0000
1000
0100
0000
0100
0010
0000
0010
0001
,
1000
0001
1000
0000
0010
0100
0001
0100
0010
1000
0001
1000
0010
0000
0100
0010
,
0000
1000
0001
0010
0000
0100
1000
0000
0010
1000
0000
0001
0100
0000
0001
0010
,
0000
0100
1000
0010
0000
0100
0001
0000
1000
0010
0000
0100
0001
0000
0010
0100
,
0000
1000
0100
0010
0002
0000
0000
0000
0023
0000
0000
0000
0130
0000
1000
0000
,
0001
0010
0100
1000
0000
0000
1010
0000
0000
0010
1000
0001
0100
0000
0101
0000
,
0000
0001
1000
0010
1000
0000
1001
0000
0000
0001
0010
0100
1000
0000
1010
0000
,
0000
0010
0100
0001
0010
0000
0110
0000
0000
0100
0010
0001
1000
0000
1001
0000
,
0000
0001
1000
0100
0001
0000
0101
0000
0000
0100
1000
0010
0100
0000
1100
0000
,
0000
1000
0100
0000
0001
0000
0010
0000
1000
0000
0010
0000
0001
0000
0010
0000
,
0100
1000
0010
0100
0010
1000
0001
1000
,
0001
0100
0010
1000
0001
0010
0001
1000
,
0100
1000
0001
0010
1000
0010
0001
0100
,
1000
0100
0010
1000
0001
0100
0010
0100
,
0001
0010
0001
1000
0100
1000
0010
0100
,
0010
1000
0100
0010
0001
0100
0010
1000
,
0100
0010
0001
0100
0010
1000
0100
0010
,
0001
1000
1010
0010
0001
0010
1000
0010
,
0001
0010
1000
0100
0001
0100
1000
0100
,
0001
0100
0010
0001
0010
1000
0001
0100
,
1000
0001
0010
1000
0001
0100
1000
0010
,
0001
1000
0100
0001
0010
1000
0010
0001
,
1000
0010
0001
1000
0100
0001
1000
0010
,
0001
1000
0100
0001
1000
0100
0001
1000
,
0010
0001
1000
0100
0001
1000
0010
0001
,
0010
0000
0100
0000
1000
0000
0001
0000
0100
0010
0000
1000
0010
0000
0100
0010
,
0000
1000
0010
0000
0100
0000
0001
0000
0010
0100
0000
1000
0001
0000
0100
0001
,
0000
1000
0010
0000
0100
0000
0001
0000
0100
0010
0000
0100
0001
0000
0010
0001
,
0000
0010
0100
0000
1000
0000
0001
0000
0010
0100
0000
1000
0100
0000
0010
0001
,
0000
0010
0100
0000
1000
0000
0100
0000
0010
0001
1000
0001
0100
0000
0010
1000
,
0000
1000
0001
0000
0010
0000
0100
0000
1000
0010
0100
0001
0100
0000
0010
1000
,
0000
0010
0100
0000
0001
0000
1000
0000
0001
0100
0010
0100
0001
0000
0010
0100
,
0000
1000
0001
0000
0100
0000
0010
0000
1000
0001
0100
0001
1000
0000
0010
0100
,
0000
0100
0001
1000
0020
0000
0000
0000
0000
0000
0000
0000
0000
0000
0000
0000
,
0000
0000
0000
0000
,
0030
0000
0000
0000
;

//---------------dance-single - Copied from----------------
#NOTES:
     dance-single:
     Copied from:
     Medium:
     12:
     0.494,0.485,0.136,0.136,0.277:
0000
0000
0000
0000
,
0000
0000
0000
0000
1000
0000
0001
0000
0000
0100
0000
0000
0010
0000
0000
0100
,
0000
0000
0001
0000
1000
0000
0001
0000
0000
1000
0000
0000
0100
0000
0000
0010
,
0000
0000
0001
0000
0010
0000
0100
0000
0000
1000
0000
0000
0100
0000
0000
0010
,
0000
0000
0100
0000
1000
0000
0010
0000
0000
0100
0000
0000
0001
0000
0000
1000
,
0000
0000
0100
0000
1000
0000
0100
0000
0000
0010
0000
0000
0010
0000
0000
0001
,
0000
0000
0001
0000
0000
1000
0000
0000
1000
0000
0001
0000
0010
0000
0100
0000
,
1000
0001
0010
0000
0100
0000
1000
0000
,
0001
0000
0010
0100
1000
0100
0010
0002
,
1000
0000
1003
0000
0001
0000
1000
0000
0000
0010
0000
0000
0100
0000
0000
0010
,
0000
0000
1000
0000
0001
0000
1000
0000
0000
0001
0000
0000
0010
0000
0000
0100
,
0000
0000
1000
0000
0100
0000
0010
0000
0000
0001
0000
0000
0010
0000
0000
0100
,
0000
0000
0010
0000
0001
0000
0100
0000
0000
0010
0000
0000
1000
0000
0000
0001
,
0000
0000
0100
0000
0001
0000
1000
0000
0000
0010
0000
0000
0100
0000
0000
0010
,
0000
0000
1000
0000
0001
0000
1000
0000
0000
0001
0000
0000
0010
0000
0000
0100
,
0000
0000
1000
0000
0100
0000
0010
0000
0000
0001
0000
0000
0010
0000
0000
0100
,
0000
0000
0010
0000
0001
0000
0100
0000
0000
0010
0000
0000
1000
0000
0000
0001
,
0000
0000
0010
0000
0100
0000
0010
0000
0100
0000
0000
1000
0000
0000
0000
0000
,
0001
0000
1000
0000
0001
0000
0000
0000
0100
0000
0000
0010
0000
0000
0000
0000
,
1000
0000
0010
0000
1000
0000
0000
0000
0010
0000
0000
0100
0000
0000
0000
0000
,
0001
0000
0100
0000
0001
0000
0000
0000
1000
0000
0000
0010
0000
0000
0000
0000
,
1000
0000
0001
0000
1000
0000
0000
0000
0010
0000
0000
0100
0000
0000
0000
0000
,
0001
0000
0100
0000
0001
0000
0000
0000
0100
0000
0000
0010
0000
0000
0000
0000
,
1000
0000
0010
0000
1000
0000
0000
0000
0001
0000
0000
0100
0000
0000
0000
0000
,
0001
0000
0100
0000
1000
0000
0000
0000
0100
0000
0000
0010
0000
0000
0000
0000
,
1000
0010
0001
0000
0000
0010
1010
0000
,
0000
1000
1001
0000
0000
0001
0011
0000
,
1001
0000
0000
0000
1000
0000
0001
0000
1000
0000
0000
0000
0010
0000
0000
0100
,
0000
0000
0010
0000
1000
0000
0100
0000
0000
0010
0000
0000
0001
0000
0000
0010
,
0000
0100
1000
0000
0000
0010
1010
0000
,
0000
0100
0110
0000
0000
0001
0101
0000
,
1001
0000
0000
0000
0001
0000
1000
0000
0001
0000
0000
0000
0100
0000
0000
0010
,
0000
0000
0100
0000
0001
0000
0010
0000
0000
0100
0000
0000
1000
0000
0000
0100
,
0000
0010
0001
0010
0100
0000
1000
0001
,
1000
0010
0001
0000
0010
1000
0001
0010
,
0100
0000
0010
0100
1000
0001
0010
0000
,
0100
0000
2000
0000
3002
0000
0013
0010
,
0100
0000
0100
0000
1000
0000
1010
0000
0000
0010
0000
0000
0000
0000
0110
0000
,
0000
0100
0000
0000
0000
0000
0101
0000
0000
0001
0000
0000
0000
0000
1001
0000
,
0000
1000
0000
0000
0000
0000
1100
0000
0000
0100
0000
0000
0000
0000
0110
0000
,
0000
0010
0000
0000
0000
0000
0011
0000
0000
0001
0000
0000
0000
0000
0101
0000
,
0000
0100
0000
0000
0002
0000
0000
0000
1000
0000
0000
0000
0010
0000
0000
0000
,
0103
2000
0010
0100
,
3001
0020
0001
1000
,
0130
0002
0010
0100
,
1003
0010
0200
0000
0301
0100
0020
0000
,
1030
0001
2000
0000
3001
0100
0002
0000
,
0103
0010
2000
0000
3010
0100
0020
0000
,
0130
0010
0200
0000
0301
1000
0002
0000
,
1003
0010
1000
0001
0100
0001
1000
0100
,
1000
0001
0010
0001
0100
0010
0100
0001
,
1000
0001
0010
0100
1000
0001
0010
0100
,
1000
0010
0100
0001
1000
0010
0100
0001
,
0010
0100
1000
0001
0010
0100
1000
0010
,
0100
0001
1000
0010
0100
0001
0010
0001
,
0100
0001
0010
0001
0100
0010
1000
0100
,
1000
0010
1000
0100
1000
0010
0100
0001
,
0010
0000
0001
0000
1000
0000
0001
0000
0000
0100
0000
0000
0010
0000
0000
0100
,
0000
0000
0001
0000
1000
0000
0001
0000
0000
1000
0000
0000
0100
0000
0000
0010
,
0000
0000
0001
0000
0010
0000
0100
0000
0000
1000
0000
0000
0100
0000
0000
0010
,
0000
0000
0100
0000
1000
0000
0010
0000
0000
0100
0000
0000
0001
0000
0000
1000
,
0000
0000
0010
0000
1000
0000
0001
0000
0000
0100
0000
0000
0010
0000
0000
0100
,
0000
0000
0001
0000
1000
0000
0001
0000
0000
1000
0000
0000
0100
0000
0000
0010
,
0000
0000
0001
0000
0010
0000
0100
0000
0000
1000
0000
0000
0100
0000
0000
0010
,
0000
0000
0100
0000
1000
0000
0010
0000
0000
0100
0000
0000
0001
0000
0000
1000
,
0000
0100
0020
0000
0000
0000
0000
0000
,
0000
0000
0000
0000
,
0030
0000
0000
0000
;

//---------------dance-single - Copied from Copied f----------------
#NOTES:
     dance-single:
     Copied from Copied f:
     Easy:
     5:
     0.358,0.371,0.017,0.230,0.000: // measure 1
0000
0000
0000
0000
,  // measure 2
0000
0000
1000
0001
1000
0000
0010
0000
,  // measure 3
0100
0000
0001
1000
0001
0000
0100
0000
,  // measure 4
0001
0000
1000
0010
1000
0000
0010
0000
,  // measure 5
0100
0000
0001
0010
0001
0000
0010
0000
,  // measure 6
0100
0000
1000
0100
0000
0100
0010
0000
,  // measure 7
0010
0001
0000
0000
0010
0000
0100
0000
,  // measure 8
1000
0001
0100
0010
,  // measure 9
0100
0001
1000
0010
,  // measure 10
0100
0000
0001
1000
0100
0000
0100
0000
,  // measure 11
0000
1000
0001
1000
0000
0000
0010
0000
,  // measure 12
0000
0100
0001
1000
0000
0000
0100
0000
,  // measure 13
0000
0010
0001
0010
0000
0000
0001
0000
,  // measure 14
0000
1000
0100
1000
0000
0000
0010
0000
,  // measure 15
0000
0100
0010
0100
0000
0000
0001
0000
,  // measure 16
0000
0010
0100
1000
0000
0000
0100
0000
,  // measure 17
0000
0010
0001
0010
0000
0000
0200
0000
,  // measure 18
1300
0000
0001
1000
0002
0000
0100
0000
,  // measure 19
1003
0010
2000
0000
0010
0000
3001
0000
,  // measure 20
1000
0001
0200
0000
0010
0000
0301
0000
,  // measure 21
1000
0010
0200
0000
1000
0000
0301
0000
,  // measure 22
1000
0001
0020
0000
0001
0000
0130
0000
,  // measure 23
1000
0001
2000
0000
0100
0000
3010
0000
,  // measure 24
0001
1000
0002
0000
0100
0000
1003
0000
,  // measure 25
0010
1000
0200
0000
0010
0000
0301
0000
,  // measure 26
0100
0000
0100
0000
0000
0010
0010
0000
,  // measure 27
0000
1000
1000
0000
0000
0001
0001
0000
,  // measure 28
1001
0100
0100
0010
,  // measure 29
0010
1000
1000
0001
,  // measure 30
0001
0000
0200
0000
0300
0010
0010
0000
,  // measure 31
0000
0100
0100
0000
0000
0001
0001
0000
,  // measure 32
1001
0010
0010
1000
,  // measure 33
1000
0001
0001
0010
,  // measure 34
0010
0000
0100
1000
0100
0000
1000
0000
,  // measure 35
1000
0000
0001
0100
0001
0000
0100
0000
,  // measure 36
0100
0000
0010
0100
0010
0000
0100
0000
,  // measure 37
0010
2000
3002
0013
,  // measure 38
0100
0000
1000
2000
0000
3000
0000
0020
,  // measure 39
0000
0030
0000
0200
0000
0300
0000
0002
,  // measure 40
0000
0003
0000
2000
0000
3000
0000
0200
,  // measure 41
0000
0300
0000
0020
0000
0030
0000
0002
,  // measure 42
0000
0003
2000
0000
0000
0000
0000
0000
,  // measure 43
3010
0200
0000
0000
,  // measure 44
0301
0020
0000
0000
,  // measure 45
0031
0002
0000
0000
,  // measure 46
1003
0000
0010
0000
0100
0010
0100
0000
,  // measure 47
0001
0000
1000
0000
0001
0100
0001
0000
,  // measure 48
0100
0000
0010
0000
1000
0001
0010
0000
,  // measure 49
0100
0000
1000
0000
0001
0100
0001
0000
,  // measure 50
1000
0010
0001
0100
,  // measure 51
1000
0010
0100
0001
,  // measure 52
0010
0100
1000
0100
,  // measure 53
0010
0001
1000
0010
,  // measure 54
0001
0100
1000
0100
,  // measure 55
0010
0001
1000
0010
,  // measure 56
0001
0010
0100
1000
,  // measure 57
0001
1000
0010
0001
,  // measure 58
0010
1000
0001
1000
0100
0000
0100
0000
,  // measure 59
0000
1000
0001
1000
0000
0000
0010
0000
,  // measure 60
0000
0100
0001
1000
0000
0000
0100
0000
,  // measure 61
0000
0010
0001
0010
0000
0000
0001
0000
,  // measure 62
0000
1000
0100
1000
0000
0000
0010
0000
,  // measure 63
0000
0100
0010
0100
0000
0000
0001
0000
,  // measure 64
0000
0010
0100
1000
0000
0000
0100
0000
,  // measure 65
0000
0010
0001
0010
0000
0000
0200
0000
,  // measure 66
2300
3002
0000
0000
,  // measure 67
0000
0000
0000
0000
,  // measure 68
0003
0000
0000
0000
;

//---------------dance-single - Copied from Copied f----------------
#NOTES:
     dance-single:
     Copied from Copied f:
     Beginner:
     2:
     0.200,0.257,0.017,0.119,0.000:
0000
0000
0000
0000
,
0000
1000
0010
0000
,
0000
0001
0100
0000
,
0000
1000
0001
0000
,
0000
1000
0010
0000
,
0000
1000
0000
0010
,
0000
0100
0000
0001
,
0000
0100
0100
0100
,
0100
0020
0000
0000
,
0130
0001
1000
0000
,
0000
0010
0100
0000
,
0000
0010
0001
0000
,
0000
0001
1000
0000
,
0000
0010
1000
0010
,
0000
0010
0000
0001
,
0000
0100
0000
0010
,
0000
0001
0000
1000
,
1000
0001
0002
0000
,
0003
2000
0001
3000
,
0000
0200
0010
0300
,
0000
0020
0001
0030
,
0000
0200
0001
0300
,
0000
0002
0100
0003
,
0000
2000
0100
3000
,
0000
0020
0100
0030
,
0100
0000
0000
0000
0000
0001
0000
0000
,
0000
1000
0000
0000
0000
0001
0000
0000
,
1001
0000
0100
0000
,
0010
0000
1000
0000
,
0001
0000
0000
0000
0000
0010
0000
0000
,
0000
0100
0000
0000
0000
0001
0000
0000
,
1001
0000
0010
0000
,
1000
0000
0001
0000
,
0010
0100
0100
0000
,
1000
0001
0001
0000
,
0100
0010
0010
0000
,
0000
0100
0100
0010
,
0100
0000
0000
1000
0000
0000
0000
0001
,
0000
0000
0000
0010
0000
0000
0000
0100
,
0000
0000
0000
1000
0000
0000
0000
0100
,
0000
0000
0000
0010
0000
0000
0000
0001
,
0000
2000
0000
0000
,
3000
0200
0000
0000
,
0300
0020
0000
0000
,
0030
0002
0000
0000
,
0003
1000
0000
0000
,
0000
0001
0000
0000
,
0000
0100
0000
0000
,
0000
0010
0000
0000
,
0000
0001
0001
0001
,
0001
1000
1000
1000
,
1000
0010
0010
0010
,
0010
0100
0100
0100
,
0100
0001
0001
0001
,
0001
0010
0010
0010
,
0010
0100
0100
0100
,
0100
1000
1000
1000
,
0000
1000
0010
0000
,
0000
0001
0100
0000
,
0000
1000
0001
0000
,
0000
1000
0010
0000
,
0000
1000
0000
0010
,
0000
0100
0000
0001
,
0000
0100
0010
0100
,
0010
1000
0000
0010
,
0100
0002
0000
0000
,
0000
0000
0000
0000
,
0003
0000
0000
0000
;
