#TITLE:ピアノ協奏曲第1番"蠍火";
#SUBTITLE:;
#ARTIST:virkato;
#TITLETRANSLIT:Piano kyousoukyoku dai 1 ban "Sasoribi";
#SUBTITLETRANSLIT:;
#ARTISTTRANSLIT:virkato;
#GENRE:;
#CREDIT:;
#BANNER:Piano kyousoukyoku dai 1 ban Sasoribi.png;
#BACKGROUND:Piano kyousoukyoku dai 1 ban Sasoribi-bg.png;
#LYRICSPATH:;
#CDTITLE:;
#MUSIC:Piano kyousoukyoku dai 1 ban Sasoribi.mp3;
#OFFSET:0.190000;
#SAMPLESTART:52.782948;
#SAMPLELENGTH:12.000000;
#SELECTABLE:YES;
#BPMS:0.000000=185.000000
,202.000000=165.000000
,204.666672=177.000000
,208.000000=184.000000
,236.000000=180.000000
,240.000000=168.000000
,242.000000=173.000000
,244.000000=174.000000
,252.000000=177.000000
,255.000000=178.000000
,255.500000=179.000000
,256.000000=184.000000
,276.000000=186.000000
,292.000000=188.000000
,298.000000=178.000000
,300.000000=179.000000
,320.000000=182.000000
,324.000000=188.000000
,348.000000=180.000000
;
#STOPS:
;
#BGCHANGES:;
#KEYSOUNDS:;
#ATTACKS:;

//---------------dance-single - ----------------
#NOTES:
     dance-single:
     :
     Hard:
     15:
     0.728060,1.235126,0.186171,0.395613,0.608933,657.000000,633.000000,24.000000,51.000000,0.000000,0.000000,0.728060,1.235126,0.186171,0.395613,0.608933,657.000000,633.000000,24.000000,51.000000,0.000000,0.000000:
0000
0000
0000
0000
,
1001
0000
0000
0000
0000
0000
0000
0001
,
0000
0001
0000
0000
0000
0000
0000
1000
,
0000
1000
0000
0000
0000
0000
0000
0000
,
0000
0000
0102
0000
,
0000
0000
0203
0000
,
0000
0320
2000
0000
,
0000
0000
0000
0000
0000
3030
0000
0000
,
0000
0000
0000
0000
0000
0000
1001
0000
0000
0000
0000
0000
0000
0000
0000
0000
0000
0000
0000
0000
0000
1000
0000
0001
,
0000
0010
0000
0100
0000
1000
0000
0000
0000
0000
0000
0000
0000
0000
0000
0000
0000
0000
0001
0000
0100
0000
0001
0000
,
1000
0010
1000
0001
0100
0001
0010
0000
0000
0000
0000
0000
,
0000
0100
0000
0000
0000
0000
0000
0000
0000
2200
0000
0000
,
0000
0000
0000
0000
0000
0000
0000
3300
,
0110
0000
0000
0000
0011
0001
1000
0100
,
1000
0000
0010
0000
0100
0000
0001
0000
0010
0000
0000
0000
0100
1000
0100
0000
,
0010
0001
0010
0000
0100
0000
1000
0000
0001
0000
0000
0000
1000
0010
0100
0000
,
0001
1000
0001
0000
0010
0100
1000
0000
0001
0000
0000
0000
1000
0000
0010
0100
,
0010
1000
0001
0100
0001
0000
0010
0100
,
1000
0000
0001
0100
0001
0000
1000
0000
0010
0000
0000
0000
0100
0000
0001
0000
,
1000
0001
0100
0000
0010
0000
0100
0000
0100
0000
0001
1000
0001
1000
0010
0000
,
0200
0000
0302
0000
1003
0010
0100
0001
,
0010
0000
0100
1000
0100
1000
0010
0000
0100
0000
0001
0000
0000
0000
2001
0000
,
0000
0000
0000
0000
,
3100
0000
0000
0000
,
0000
0000
1000
0010
0100
0000
0001
0000
,
0010
0100
0010
0001
,
1000
0010
1010
0101
,
0110
1010
1100
0011
,
1001
0000
1100
0000
0100
0010
0001
0000
,
0010
0100
1000
0000
0001
0100
0010
0000
,
1000
0000
0001
0000
0010
0000
0001
0000
1000
0000
0100
0000
1000
0000
0010
0100
,
0010
1000
0001
0010
0100
1000
0010
0100
,
0001
1000
0010
0100
0002
0000
0000
0000
,
0000
0000
2003
0000
0200
0000
0000
3000
,
0000
0000
0020
0300
0002
0000
0030
0000
,
2003
0000
0001
0000
0020
3000
0130
0001
,
2000
0000
3002
0000
0200
0003
0310
2000
,
0000
0000
3001
0010
0002
0000
0023
0000
,
0230
0000
2300
0000
3002
0000
0103
0020
,
0000
0000
1030
0001
0100
0010
0100
0000
,
1010
0000
0000
0000
0101
0000
0000
0000
1000
0001
0000
0000
0001
0010
0000
0000
,
0010
0100
0000
0000
0100
1000
0000
0000
1000
0010
0000
0000
0010
0100
0000
0000
,
0100
0001
0000
0000
0001
0010
0000
0000
0010
0100
0000
0000
0100
1000
0000
0000
,
1000
0100
0000
0000
0100
0010
0000
0000
0010
0001
0000
0000
0001
0000
1000
0000
,
0010
0000
0100
0000
0001
1000
0001
1000
0001
0000
0010
0000
0100
0000
1000
0000
,
0010
0100
0010
1000
0001
0010
0100
1000
,
0010
0100
0010
0000
1000
0001
1000
0000
0010
0000
0100
0000
0010
0000
1000
0000
,
0001
0000
0010
0000
0100
1000
0100
0010
0002
0000
0000
0000
2003
0000
0000
0000
,
3001
0000
0100
0000
0001
0000
1000
0010
1000
0000
0001
0000
1000
0000
0001
0100
,
0001
0000
0010
0000
0100
0000
1000
0100
1000
0000
0001
0000
0100
0000
0010
0000
,
0100
0000
0000
0001
0000
0000
0010
0000
0100
0000
1000
0000
0001
0000
0000
0000
0000
0000
0000
0000
0000
0000
0000
0000
,
2000
0000
0000
0000
0000
3001
0100
0010
,
1000
0000
0001
0010
0001
0000
1000
0010
0100
0000
0001
1000
0001
0000
0100
0010
,
1000
0000
0001
0000
0100
0000
0001
1000
0001
1000
0010
0000
0100
0001
0100
0000
,
0010
0000
1000
0000
0001
0100
0001
0100
0010
0000
1000
0100
1000
0000
0001
0000
,
1000
0000
0010
0000
0100
0001
0100
0001
0010
0000
0100
1000
0100
0000
0010
0001
,
0010
0000
0100
0000
1000
0001
0100
0000
0010
0000
0100
0000
0001
0010
0001
0010
,
0100
0000
0010
0000
0001
0010
0001
0000
1000
0000
0010
0000
0100
0001
0100
0000
,
0010
1000
0100
0010
0001
1000
0010
0100
,
0001
1000
0010
0000
0100
0001
1000
0000
0001
0010
0100
0000
1000
0010
0100
0000
,
0001
1000
0001
1000
0010
0100
0010
0100
0001
0000
0010
0000
0100
0000
1000
0000
,
1000
0000
0001
0100
0001
0000
0100
0010
0100
0000
0010
1000
0001
0000
0100
0010
,
1000
0000
0001
0000
0010
0000
0100
1000
0100
0000
0010
0001
1000
0000
0010
0100
,
0010
0000
1000
0000
0001
0000
0100
0001
1000
0000
0001
0010
0100
1000
0100
0010
,
0001
0000
1000
0000
0001
0000
0100
0010
1000
0000
0010
0000
0100
0000
0001
0000
,
1001
0000
1000
0000
0010
0000
0100
0000
0001
0000
1000
0000
0001
0010
0100
0010
,
0001
0000
1000
0000
0010
0100
0010
0100
0001
0000
0010
0000
0100
1000
0100
1000
,
0001
0000
0000
0000
0010
0000
0000
0000
0100
0000
0000
0000
1000
0000
0000
0000
0000
0000
0000
0000
0000
0000
0000
0000
0001
0000
0000
0000
0000
0000
0100
0000
0000
0001
0000
0000
0100
0000
0000
0000
0000
0000
0010
0000
0000
1000
0000
0000
,
0010
0000
0000
0000
0100
0000
0000
0000
0001
0000
0000
0000
1000
0000
0000
0000
0010
0000
0000
0000
1000
0000
0000
0000
0000
0000
0000
0000
0000
0000
0001
0000
0000
0010
0000
0000
0100
0000
0000
1000
0000
0000
0010
0000
0000
0100
0000
0000
,
0010
0000
0000
0000
0100
0001
0100
0000
0010
0000
1000
0000
0001
0100
0001
0000
,
1000
0000
0100
0000
0010
0001
0010
0000
0100
0000
1000
0000
0010
0100
0010
0000
,
0100
0000
0001
0000
1000
0001
1000
0000
0001
0000
0100
0000
0010
1000
0010
0000
,
0220
0330
2002
3003
2020
3030
0220
0330
,
0001
0000
0001
0000
1000
0001
1000
0000
0100
0000
0100
0000
0010
0001
0010
0000
,
0100
0000
0100
0000
1000
0010
1000
0000
0001
0000
0001
0000
0100
0010
0100
0000
,
0020
2030
3002
0203
,
0310
1000
0002
0000
0103
0001
0010
0100
,
2000
0000
3002
0000
0023
0000
0130
1000
,
0200
0000
0310
0001
1000
0001
0100
0010
,
2000
0000
0000
3001
,
0220
0000
0000
0000
0000
0000
0000
0000
0000
0000
0330
0000
0001
0010
0001
0010
,
0100
0000
0000
0000
1000
0010
1000
0010
0100
0000
0000
0000
0001
0010
0100
1000
,
0001
0000
0000
0000
1000
0010
0100
0001
1000
0000
0000
0000
0001
0100
0001
0100
,
0010
0000
0000
0000
1000
0100
1000
0100
0010
0000
0001
0000
0100
0010
1000
0010
,
1000
0000
0001
0000
0010
0100
0010
0100
1000
0001
1000
0001
0100
0010
0100
0010
,
1000
0010
1000
0001
0010
0001
0010
0100
1000
0100
0010
0001
0010
0001
1000
0010
,
0100
0001
0100
0010
1000
0100
0010
0001
1000
0001
0100
0010
0100
0010
1000
0000
,
0001
0000
0000
0000
0000
0100
0000
0000
0000
0000
0000
0000
0000
0000
0000
0000
0000
0000
0000
0000
0000
0000
0000
0000
,
0000
0000
0000
0000
,
0000
0000
0000
0000
0000
0010
0000
0000
0000
0000
0000
0000
,
0000
0000
0000
0000
0000
1000
0000
0000
0000
0000
0000
0000
,
0000
0000
0000
0001
0000
0000
0000
0100
0000
0000
0000
0000
,
0000
0000
0000
0000
,
0000
0000
0000
0000
0000
0000
0000
0000
0010
0000
0000
0000
,
0000
0000
0000
0000
1000
0000
0000
0000
0000
0001
0000
0000
0000
0000
0000
0100
0000
0000
0000
0000
0001
0000
0000
0000
,
0000
0000
0000
0000
0000
0000
0000
0000
0000
0000
0000
0010
0000
0000
0000
0000
0000
0000
0000
0000
0000
0000
1000
0000
,
0000
0000
0000
2002
3003
0000
0000
0000
;

//---------------dance-single - ----------------
#NOTES:
     dance-single:
     :
     Medium:
     12:
     0.496455,0.673705,0.162899,0.403370,0.100842,448.000000,427.000000,21.000000,52.000000,0.000000,0.000000,0.496455,0.673705,0.162899,0.403370,0.100842,448.000000,427.000000,21.000000,52.000000,0.000000,0.000000:
0000
0000
0000
0000
,
0001
0000
0000
0000
0000
0000
0000
0100
,
0000
0100
0000
0000
0000
0000
0000
0010
,
0000
0010
0000
0000
0000
0000
0000
0000
,
0000
0000
1000
0000
,
0000
0000
0010
0000
,
0000
1000
0001
0000
,
0000
0000
0000
0000
,
0000
0000
1001
0000
0000
0000
0000
2000
,
0000
3001
0000
0000
0000
0000
0200
0000
,
0000
0000
0000
0000
0000
0310
0000
0000
0000
0000
0000
0000
,
0000
1000
0000
0000
0000
0000
0000
0000
0000
2002
0000
0000
,
0000
0000
0000
0000
0000
0000
0000
3003
,
0100
0000
1001
0001
,
0010
0100
1000
0000
0010
0000
1000
0001
,
0010
0100
1000
0100
0010
0000
0001
0000
,
1000
0010
1000
0000
0010
0000
0100
0000
,
0001
0100
0010
1000
0010
0000
0100
0000
,
0001
0010
0001
0000
0010
0000
0100
1000
,
0100
0000
0010
0000
0001
0000
1000
0000
0001
0000
0000
0100
0010
0000
1000
0000
,
0001
0000
0101
0000
0100
0010
1000
0010
,
0200
0000
0000
0000
0301
0000
1000
0010
1000
0000
0001
0000
0000
0000
2002
0000
,
0000
0000
0000
0000
,
3003
0000
0000
0000
,
0000
0000
1000
0010
0100
0000
0001
0000
,
0010
0100
1000
0010
,
0100
0001
0010
0100
,
1000
0001
0100
0001
,
1000
0000
0010
0000
1000
0001
0100
0000
,
0010
0100
0001
0000
0010
0100
1000
0000
,
0100
0010
0001
0000
1000
0001
0010
0001
,
1000
0010
1000
0001
0100
0001
0010
0100
,
1000
0010
0100
0001
0200
0000
0000
0000
,
0000
0302
2000
0000
,
0000
0003
3020
0000
0230
0000
0000
0000
,
0302
0023
0230
0000
,
2300
0000
3020
0000
0230
0000
0000
0302
,
0000
2003
3020
0230
,
0302
0000
2003
0000
3200
0000
0000
0320
,
0000
0000
0031
1000
0100
1000
0010
0000
,
0110
0000
0000
0000
1001
0000
0000
0000
1000
0001
0000
0000
0001
0100
0000
0000
,
0100
0010
0000
0000
0010
1000
0000
0000
1000
0100
0000
0000
0100
0010
0000
0000
,
0010
0001
0000
0000
0001
1000
0000
0000
1000
0001
0000
0000
0001
0100
0000
0000
,
0100
0010
0000
0000
0010
1000
0000
0000
1000
0001
0000
0000
0001
0000
0010
0000
,
0100
1000
0010
1000
0100
0000
0010
0001
,
0100
0000
0010
1000
0001
0100
0010
0000
,
1000
0010
1000
0001
0100
0000
0001
1000
,
0100
0000
0010
0001
0100
0000
0001
0000
,
0010
0000
0100
1000
0100
0000
0010
0001
,
0010
0000
0100
1000
0001
0100
0001
0010
,
0100
0010
0001
1000
0020
0000
0000
0000
,
0230
0000
0000
0000
0000
0000
0301
1000
,
0010
0000
0100
0000
0010
1000
0001
0000
,
0100
0001
1000
0000
0000
0010
1000
0001
,
1000
0100
0000
0000
0010
0001
0100
0100
,
0020
0000
2030
3002
,
0103
0000
0000
0001
0100
0000
0010
0010
,
1000
0000
0000
0001
0100
0000
0001
0010
,
0100
1000
0010
0100
0010
1000
0001
0100
,
0001
1000
0010
1000
0100
0010
0001
1000
,
0020
0000
0230
0000
0301
1000
0001
0100
,
0110
0000
0100
0000
0010
0000
1000
0010
,
1000
0001
1000
0000
0001
0100
0001
1000
,
0010
0100
0001
0000
1000
0100
1000
0001
,
0010
0000
0000
0100
1000
0000
0200
0000
,
0320
0000
0031
0010
0001
0100
0010
0100
,
0001
0000
1000
0100
1000
0001
0100
0001
,
2000
0000
3010
1000
0001
0000
1000
0010
,
0100
0001
1000
1000
0000
0001
0010
0100
,
1100
1000
1010
0010
,
0110
0100
0101
0001
,
1001
1000
1100
0100
,
0110
0011
1001
1010
,
0101
0001
1000
0010
0100
0100
0010
1000
,
0001
0001
0010
0100
1000
1000
0001
0100
,
0020
0230
0302
2003
,
3020
1000
0100
1000
,
0230
0302
2003
3200
,
0010
1000
0010
2300
,
0002
0000
3000
0103
,
0120
0000
0000
0000
0000
0000
1030
0010
,
0100
0000
0001
0010
0100
0000
1000
0010
,
1000
0000
0001
0100
0001
0000
1000
0001
,
0100
0000
0001
0100
0010
1000
0100
1000
,
0100
0010
0001
0010
0100
1000
0100
0010
,
0001
0001
1000
1000
0010
0010
0100
0100
,
0001
0001
1000
1000
0100
0100
0010
0010
,
0002
0000
0000
0000
0000
0203
0000
0000
0000
0000
0000
0000
0000
0000
0000
0000
0000
0000
0000
0000
0000
0000
0000
0000
,
0000
0000
0000
0300
,
0000
0000
0000
0000
0000
0010
0000
0000
0000
0000
0000
0000
,
0000
0000
0000
0000
0000
1000
0000
0000
0000
0000
0000
0000
,
0000
0000
0000
0001
0000
0000
0000
1000
0000
0000
0000
0000
,
0000
0000
0000
0000
,
0000
0000
0000
0000
0000
0000
0000
0000
0010
0000
0000
0000
,
0000
0000
0000
0000
0100
0000
0000
0000
0000
0010
0000
0000
0000
0000
0000
1000
0000
0000
0000
0000
0100
0000
0000
0000
,
0000
0000
0000
0000
0000
0000
0000
0000
0000
0000
0000
0010
0000
0000
0000
0000
0000
0000
0000
0000
0000
0000
0001
0000
,
0000
0000
0000
2002
3003
0000
0000
0000
;

//---------------dance-single - ----------------
#NOTES:
     dance-single:
     :
     Challenge:
     18:
     0.890959,1.235126,0.263742,0.302527,1.054967,804.000000,770.000000,34.000000,39.000000,0.000000,0.000000,0.890959,1.235126,0.263742,0.302527,1.054967,804.000000,770.000000,34.000000,39.000000,0.000000,0.000000:
// measure 0
0000
0000
0000
0000
,  // measure 1
2001
0000
0000
0000
0000
0000
0000
0001
,  // measure 2
3000
0002
0000
0000
0000
0000
0000
0100
,  // measure 3
0000
0203
0000
0000
0000
0000
0000
0000
,  // measure 4
0000
0000
0302
0000
,  // measure 5
0000
0000
2003
0000
,  // measure 6
0000
3002
0020
0000
,  // measure 7
0000
0000
0000
0000
,  // measure 8
0000
0000
0000
0033
0000
0000
1001
0000
0000
0000
0000
0000
0000
0000
0000
0000
0000
0000
0000
0000
0000
1000
0000
0010
,  // measure 9
0000
0100
0000
0001
0000
1000
0000
0001
0000
0000
0000
0000
0000
0000
0000
0000
0000
0000
0001
0000
0010
0000
0100
0000
,  // measure 10
1000
0000
0000
0010
0000
0000
0100
0000
0000
0001
0000
0000
1000
0000
0000
0000
0010
0000
0000
0000
0100
0000
0000
0000
0001
0000
0000
0000
0000
0000
0000
0000
0000
0000
0000
0000
0000
0000
0000
0000
0000
0000
0000
0000
0000
0000
0000
0000
,  // measure 11
0000
0100
0000
0000
0000
0000
0000
0000
0000
2002
0000
0000
,  // measure 12
0000
0000
0000
0000
0000
0000
0000
3003
,  // measure 13
0110
0000
0000
0000
1001
0001
0010
0100
,  // measure 14
1000
0000
0010
0000
0100
0000
0001
0000
0100
0000
0010
0000
1000
0010
1000
0010
,  // measure 15
0100
0001
0100
0001
0010
0000
0100
0000
0010
0000
0001
0000
1000
0100
0010
0100
,  // measure 16
1000
0001
0010
0100
0010
0001
1000
0010
1000
0000
0001
0000
1000
0000
0100
0010
,  // measure 17
0001
0010
0100
0000
0001
0000
0100
0000
1000
0000
0010
0100
0001
0100
0010
1000
,  // measure 18
0010
0100
0001
0010
0001
0000
1000
0000
0010
0000
0100
0000
0010
1000
0001
1000
,  // measure 19
0010
0100
0010
0000
1000
0000
0001
0000
0001
0000
1000
0001
0100
0010
0100
0000
,  // measure 20
0101
0000
1010
1000
0001
0010
0100
1000
,  // measure 21
0001
0000
1000
0010
0100
0010
0100
0000
0001
0000
1001
0000
0000
0000
0220
0000
,  // measure 22
0000
0000
0000
0000
0000
0000
0000
0000
0000
0000
0030
0000
0310
0100
0010
0100
,  // measure 23
0010
0000
0000
0000
,  // measure 24
0000
0000
1000
0001
0100
0000
0110
0000
,  // measure 25
1000
0101
1000
1010
,  // measure 26
0010
0101
0010
1001
,  // measure 27
0100
0110
1000
1100
,  // measure 28
0001
0000
0101
0000
0100
0001
0100
0010
,  // measure 29
1000
0001
0100
0010
1000
0001
0010
0100
,  // measure 30
1000
0000
0100
0000
0010
0000
0001
0000
1000
0000
0010
0000
1000
0001
1000
0001
,  // measure 31
0100
0001
1000
0010
0100
0001
0010
0100
,  // measure 32
1000
0010
0100
0001
2000
0000
0000
0000
,  // measure 33
0000
3002
0200
0000
,  // measure 34
0000
0003
0020
0300
1000
0000
0130
0001
,  // measure 35
2000
0000
0100
0000
0020
3000
1030
0001
,  // measure 36
0200
0000
0002
0300
2000
0003
3001
0020
,  // measure 37
0000
0000
0031
0010
0200
0000
2000
0300
,  // measure 38
3100
1000
0002
0000
0200
0003
0310
2000
,  // measure 39
0000
0000
3001
0100
0100
0010
1000
0000
,  // measure 40
1010
0000
0000
0000
0101
0000
0000
0000
1000
0001
0100
0000
0100
0001
0010
0000
,  // measure 41
0010
0100
1000
0000
1000
0001
0100
0000
0100
0010
1000
0000
1000
0100
0001
0000
,  // measure 42
0001
0100
1000
0000
1000
0001
0010
0000
0010
0001
0100
0000
0100
0001
1000
0000
,  // measure 43
1000
0000
0000
0100
0000
0000
0001
0000
0000
0000
0000
0000
0001
0000
0000
0100
0000
0000
1000
0000
0000
0000
0000
0000
1000
0000
0000
0010
0000
0000
0001
0000
0000
0000
0000
0000
0001
0000
0000
0000
0010
0000
0000
0000
0100
0000
0000
0000
,  // measure 44
1000
0000
0000
0000
0100
0000
0000
0000
0010
0000
0000
0000
1000
0000
0000
0001
0000
0000
1000
0000
0000
0001
0000
0000
0100
0000
0000
0000
0001
0000
0000
0000
0010
0000
0000
0000
1000
0000
0000
0000
0001
0000
0000
0000
0100
0000
0000
0000
,  // measure 45
0010
1000
0010
0001
1000
0010
0001
0010
1000
0001
0100
0001
,  // measure 46
1000
0000
0000
0100
0000
0000
0010
0000
0000
0001
0000
0000
0100
0000
0000
0010
0000
0000
1000
0000
0000
0100
0000
0000
0010
0000
0000
0000
0001
0000
0000
0000
1000
0000
0000
0000
0010
0000
0000
0000
0001
0000
0000
0000
0010
0000
0000
0000
,  // measure 47
1000
0000
0000
0000
0001
0000
0000
0000
0100
0000
0000
0000
0010
0000
0000
1000
0000
0000
0001
0000
0000
1000
0000
0000
0100
0000
0000
0000
1000
0000
0000
0000
0010
0000
0000
0000
0001
0000
0000
0000
0010
0000
0000
0000
1000
0000
0000
0000
,  // measure 48
0001
0000
0000
0000
0010
0000
0000
0000
0100
0000
0000
0000
1000
0000
0000
0100
0000
0000
1000
0000
0000
0100
0000
0000
0010
0000
0000
0000
0000
0000
0001
0000
0000
0000
0000
0000
0010
0000
0000
0100
0000
0000
0010
0000
0000
0100
0000
0000
,  // measure 49
1000
0000
0000
0000
0000
0000
0001
0000
0000
0000
0000
0000
0100
0000
0000
0001
0000
0000
0100
0000
0000
0001
0000
0000
0010
0000
0000
0000
0100
0000
0000
0000
1000
0000
0000
0000
0001
0000
0000
0000
0100
0000
0000
0000
0010
0000
0000
0000
,  // measure 50
1000
0001
1000
0001
0010
0100
1000
0000
0000
0000
0000
0000
,  // measure 51
0001
0000
1000
0000
0010
0000
0100
0000
0001
0000
1000
0010
0100
0001
0100
0000
0010
0000
0100
0000
0000
0010
0000
0000
,  // measure 52
1000
0000
0001
0010
0001
0010
0100
1000
0001
1000
0100
0010
0001
0010
0100
1000
,  // measure 53
0010
0000
0100
0000
0100
0000
0001
0010
0100
1000
0010
0100
0001
1000
0010
0000
,  // measure 54
1000
0000
0010
0000
1000
0001
1000
0001
1000
0010
0100
0010
0100
0000
0001
0000
,  // measure 55
1000
0000
0010
0000
1000
0010
1000
0010
0100
0000
0010
1000
0010
0100
0001
0010
,  // measure 56
0100
0000
1000
0000
0100
0010
0001
0010
0100
0000
1000
0000
0001
1000
0001
1000
,  // measure 57
0100
0000
0010
0000
0001
0010
0001
1000
0100
1000
0010
0100
0001
0000
0100
0000
,  // measure 58
0010
1000
0010
0100
0001
1000
0100
0010
0100
1000
0001
0100
1000
0100
0001
1000
,  // measure 59
0010
1000
0001
0010
0100
1000
0010
0100
0001
0010
0001
1000
0010
1000
0001
0010
,  // measure 60
0100
0010
0001
0010
0100
1000
0010
0100
0001
0000
1000
0000
1000
0000
0010
0000
,  // measure 61
0010
0000
0100
0001
1000
0010
0100
0001
0010
0100
0010
0001
1000
0001
0100
0010
,  // measure 62
1000
0000
0010
0000
0100
0001
0100
0010
1000
0010
0100
0001
0010
0001
0100
0000
,  // measure 63
0010
0000
1000
0000
0010
0100
1000
0100
0010
1000
0100
0010
0001
1000
0001
0000
,  // measure 64
1000
0000
0001
0010
0100
0001
0100
1000
0010
0001
0010
0100
1000
0100
0010
0100
,  // measure 65
0001
0000
1000
0001
0010
0100
0010
0001
1000
0010
0100
1000
0100
0010
0100
0000
,  // measure 66
0010
0000
1000
0100
1000
0010
0100
0010
1000
0001
0010
0001
0010
0100
1000
0001
,  // measure 67
0100
0000
0000
0000
0010
0000
0000
0000
0100
0000
0000
0000
0001
0000
0000
0000
0000
0000
1000
0000
0000
0000
0000
0000
0001
0000
0000
0000
0000
0000
0100
0000
0000
0001
0000
0000
0100
0000
0000
0010
0000
0000
0100
0000
0000
0001
0000
0000
,  // measure 68
1000
0000
0000
0000
0010
0000
0000
0000
0100
0000
0000
0000
0010
0000
0000
0000
0100
0000
0000
0000
0001
0000
0000
0000
0000
0000
0000
0000
0000
0000
0100
0000
0000
0001
0000
0000
0100
0000
0000
0001
0000
0000
1000
0000
0000
0000
0000
0000
,  // measure 69
1001
0000
0010
0100
0001
0010
0100
0000
1010
0000
1000
0001
0010
0100
0010
0000
,  // measure 70
0101
0000
0010
1000
0010
1000
0001
0000
1100
0000
0010
0100
0010
0100
0001
0000
,  // measure 71
0011
0000
0100
1000
0100
0010
0001
0000
1001
0000
0100
0010
1000
0001
0100
0000
,  // measure 72
0101
0001
1001
1000
1010
0010
0110
0100
,  // measure 73
0101
0000
0001
0000
1000
0001
1000
0001
0100
0000
0100
0000
0010
1000
0010
1000
,  // measure 74
0001
0000
0001
0000
0100
0001
0100
0001
1000
0000
1000
0000
0100
0010
0100
0010
,  // measure 75
0002
0000
2000
0003
0200
3000
0020
0300
,  // measure 76
0031
0010
1000
0010
0001
0100
0010
0100
,  // measure 77
2000
0000
0200
3000
0310
1000
0001
0100
,  // measure 78
2000
0000
3100
0001
0010
0100
0010
0001
,  // measure 79
2000
0000
0000
3010
,  // measure 80
2002
0000
0000
0000
0000
0000
0000
0000
0000
0000
3003
0000
0001
0100
0010
0100
,  // measure 81
1000
0000
0000
0000
1000
0100
0010
0100
0001
0000
0000
0000
1000
0100
0010
0100
,  // measure 82
0001
0000
0000
0000
0001
0100
0010
0100
1000
0000
0000
0000
0010
0100
0001
0100
,  // measure 83
0010
0000
0000
0000
1000
0010
0100
0010
1000
0000
0010
0000
0100
0001
1000
0001
,  // measure 84
1000
0010
0100
0010
1000
0001
0010
0001
0100
0010
1000
0001
0100
0010
1000
0100
,  // measure 85
1000
0001
0010
0001
0100
0010
1000
0100
1000
0001
0010
0001
0100
0010
0100
0001
,  // measure 86
1000
0010
1000
0001
0100
0001
0010
0001
1000
0010
1000
0001
0100
0010
0100
0000
,  // measure 87
1001
0000
0000
0000
0000
0120
0000
0000
0000
0000
0000
0000
0000
0000
0000
0000
0000
0000
0000
0000
0000
0000
0000
0000
,  // measure 88
0000
0000
0000
0030
,  // measure 89
0000
0000
0000
0000
0000
0100
0000
0000
0000
0000
0000
0000
,  // measure 90
0000
0000
0000
0000
0000
0001
0000
0000
0000
0000
0000
0000
,  // measure 91
0000
0000
0000
1000
0000
0000
0000
0010
0000
0000
0000
0000
,  // measure 92
0000
0000
0000
0000
,  // measure 93
0000
0000
0000
0000
0000
0000
0000
0000
0100
0000
0000
0000
,  // measure 94
0000
0000
0000
0000
0010
0000
0000
0000
0000
0100
0000
0000
0000
0000
0000
0001
0000
0000
0000
0000
1000
0000
0000
0000
,  // measure 95
0000
0000
0000
0000
0000
0000
0000
0000
0000
0000
0000
0010
0000
0000
0000
0000
0000
0000
0000
0000
0000
0000
1000
0000
,  // measure 96
0000
0000
0000
2002
3003
0000
0000
0000
;

//---------------dance-single - ----------------
#NOTES:
     dance-single:
     :
     Easy:
     6:
     0.320258,0.485934,0.131871,0.403370,0.011636,289.000000,272.000000,17.000000,52.000000,0.000000,0.000000,0.320258,0.485934,0.131871,0.403370,0.011636,289.000000,272.000000,17.000000,52.000000,0.000000,0.000000:
0000
0000
0000
0000
,
0001
0000
0000
0000
0000
0000
0000
0100
,
0000
0100
0000
0000
0000
0000
0000
0010
,
0000
0010
0000
0000
0000
0000
0000
0000
,
0000
0000
1000
0000
,
0000
0000
0010
0000
,
0000
1000
0001
0000
,
0000
0000
0000
0000
,
0000
0000
0001
0000
0000
0000
0000
2000
,
0000
3000
0000
0000
0000
0000
0200
0000
,
0000
0000
0000
0000
0000
0310
0000
0000
0000
0000
0000
0000
,
0000
1000
0000
0000
0000
0000
0000
0000
0000
2002
0000
0000
,
0000
0000
0000
0000
0000
0000
0000
3003
,
0100
0000
1001
0001
,
0010
1000
0010
0000
,
0010
1000
0010
0001
,
1000
1000
0010
0000
,
0001
0010
0010
0100
,
0001
0001
0010
0100
,
0100
0001
0001
0000
,
1000
0000
1001
0000
0001
0000
1000
0010
,
0200
0000
0302
0000
0000
1003
0000
2002
,
0000
0000
0000
0000
,
3003
0000
0000
0000
,
0000
1000
1000
0001
,
0001
0100
0100
0010
,
0010
1000
1000
0100
,
0100
0010
0010
0001
,
0001
0010
0010
0100
,
1000
0100
0010
0001
,
1000
0010
1000
0001
,
0100
0010
1000
0100
,
0010
0001
0200
0000
,
0000
0302
2000
0000
,
0000
0003
3020
0000
0230
0000
0000
0000
,
0000
0320
0230
0000
,
0000
0000
0302
0000
2003
0000
0000
3002
,
0000
2003
3020
0230
,
0302
0000
2003
0000
3200
0000
0000
0320
,
0000
0031
0010
0100
,
2000
3001
0010
0100
,
1000
0010
0100
0001
,
0010
0001
1000
0010
,
1000
0100
0010
0100
,
1000
0001
0100
0010
,
0100
0010
1000
0001
,
0100
0010
1010
1000
,
0010
0100
0002
0203
,
0320
1030
0010
0001
,
1000
0001
0010
0100
,
1000
0000
0010
0100
0002
0000
0000
0000
,
2003
0000
0000
0000
,
3010
0100
0010
1000
,
0001
0010
0000
0100
,
0100
0000
1000
0001
,
0200
0000
0320
2030
,
3001
0000
0100
0010
,
1000
0000
0001
0010
,
0001
0010
0100
1000
,
0010
0100
0001
0001
,
0020
0000
0000
0000
0000
0031
0001
1000
,
1000
0100
0010
0001
,
1000
0010
1000
0001
,
0100
0001
1000
0010
,
2000
0000
3002
0203
,
0320
1030
0001
0100
,
0010
1000
0001
1000
,
0002
0000
0000
0003
1001
0000
0000
0000
,
0100
0010
0100
0010
0000
0000
0000
0000
,
1001
0000
0101
0000
,
1010
0000
0110
0000
,
1010
0000
0101
0000
,
1001
1001
0110
0110
,
1000
1000
0000
0000
0010
0010
0000
0000
,
0100
0100
0000
0000
0001
0001
0000
1000
,
2000
3020
0230
0302
,
0023
0000
0000
0000
,
0230
2300
3020
0230
,
0320
0000
0000
0130
,
0200
0000
0000
0301
,
0002
0000
0000
0000
0000
0000
1003
1000
,
1000
0000
0010
0010
0010
0000
0100
0100
,
0100
0000
0001
0001
0001
0000
1000
1000
,
1000
0001
0010
0100
,
1000
0001
0100
0001
,
1000
0010
0100
0001
,
0010
0100
1000
0010
,
1000
0000
0000
0000
0000
0001
0000
0000
0000
0000
0000
0000
0000
0000
0000
0000
0000
0000
0000
0000
0000
0000
0000
0000
,
0000
0000
0000
0000
,
0000
0000
0000
0000
,
0000
0000
0000
0000
,
0000
0000
0000
0000
,
0000
0000
0000
0000
,
0000
0000
0000
0000
,
0000
0000
0000
0000
,
0000
0000
0000
0000
,
0000
0000
0000
1001
0000
0000
0000
0000
;

//---------------dance-single - ----------------
#NOTES:
     dance-single:
     :
     Beginner:
     3:
     0.186171,0.336416,0.031028,0.201685,0.007757,168.000000,164.000000,4.000000,26.000000,0.000000,0.000000,0.186171,0.336416,0.031028,0.201685,0.007757,168.000000,164.000000,4.000000,26.000000,0.000000,0.000000:
0000
0000
0000
0000
,
0001
0000
0000
0000
0000
0000
0000
0010
,
0000
0000
0000
0000
0000
0000
0000
0100
,
0000
0000
0000
0000
,
0000
0000
0001
0000
,
0000
0000
0100
0000
,
0000
0001
1000
0000
,
0000
0000
0000
0000
,
0000
0000
1000
0000
0000
0000
0000
0001
,
0000
0000
0000
0010
,
0000
0000
0000
0000
,
0000
0001
0000
0000
0000
0000
0000
0000
0000
2000
0000
0000
,
0000
0000
0000
0000
,
3010
0000
0001
0000
,
0100
0000
0100
0000
,
0100
0000
0100
0000
,
0001
0000
0100
0000
,
1000
0000
0100
0000
,
1000
0000
0100
0000
,
0010
0000
1000
0000
,
0001
0000
1000
0000
,
0020
0000
0030
0000
0000
0100
0000
0002
,
0000
0000
0000
0000
,
0003
0000
0000
0000
,
0000
0000
0001
0000
,
1000
0000
0010
0000
,
0100
0000
0001
0000
,
0010
0000
0100
0000
,
1000
0000
0100
0000
,
0001
0000
0100
0000
,
0001
0000
0001
0000
,
0010
0000
0001
0000
,
0100
0000
0020
0000
,
0000
0030
2000
0000
,
0000
3000
0020
0000
,
0000
0030
0020
0000
,
0000
0000
2030
0000
3000
0000
0000
2000
,
0000
3002
0203
0300
,
0000
0000
0002
0000
0023
0000
0000
0030
,
0000
1000
0100
0000
,
0002
0003
0100
0000
,
0001
0000
0010
0000
,
0100
0000
0001
0000
,
0001
0000
0100
0000
,
0001
0000
0010
0000
,
0010
0000
0001
0000
,
0010
0000
0001
0000
,
0100
0000
1000
1000
,
1000
0000
0100
0000
,
0001
0000
0100
0000
,
0001
0000
1000
0000
,
0002
0000
0000
0000
,
0103
0000
0100
0000
,
1000
0000
0000
0010
,
0000
0000
0001
1000
,
0010
0000
0200
0301
,
1000
0000
0010
0000
,
0001
0000
1000
0000
,
1000
0000
0010
0000
,
0100
0000
1000
0000
,
0200
0000
0000
0000
0000
0300
0000
0001
,
0001
0000
0000
1000
,
0001
0000
0000
1000
,
0010
0000
0000
0100
,
0001
0000
0100
0100
,
0100
0000
0000
0010
,
0100
0000
1000
0000
,
2000
0000
0000
3000
0001
0000
0000
0000
,
0010
0000
0000
0000
,
1001
0000
0010
0000
,
0101
0000
0100
0000
,
1001
0000
0010
0000
,
1000
1000
0001
0001
,
1000
0000
0100
0000
,
0010
0000
1000
0000
,
0002
0003
0020
0030
,
0200
0000
0000
0000
,
0320
0030
0200
0300
,
0200
0000
0000
0300
,
0020
0000
0000
0030
,
2000
0000
0000
3001
,
0001
0100
0100
0010
,
0010
1000
1000
0001
,
0001
0010
0010
0100
,
0100
1000
1000
0001
,
0100
0000
0010
0000
,
0100
0000
0001
0000
,
1000
0000
0000
0000
0000
1000
0000
0000
0000
0000
0000
0000
0000
0000
0000
0000
0000
0000
0000
0000
0000
0000
0000
0000
,
0000
0000
0000
0000
,
0000
0000
0000
0000
,
0000
0000
0000
0000
,
0000
0000
0000
0000
,
0000
0000
0000
0000
,
0000
0000
0000
0000
,
0000
0000
0000
0000
,
0000
0000
0000
0000
,
0000
0000
0000
0110
0000
0000
0000
0000
;
