#VERSION:0.81;
#TITLE:Paradission;
#SUBTITLE:;
#ARTIST:BlackY;
#TITLETRANSLIT:;
#SUBTITLETRANSLIT:;
#ARTISTTRANSLIT:;
#GENRE:;
#ORIGIN:;
#CREDIT:;
#BANNER:Paradission-bn.png;
#BACKGROUND:Paradission-bg.png;
#PREVIEWVID:;
#JACKET:Paradission-jacket.png;
#CDIMAGE:;
#DISCIMAGE:;
#LYRICSPATH:;
#CDTITLE:;
#MUSIC:Paradission.mp3;
#OFFSET:-0.100000;
#SAMPLESTART:99.900017;
#SAMPLELENGTH:12.000000;
#SELECTABLE:YES;
#BPMS:0.000=154.000;
#STOPS:85.000=0.100,
85.250=0.080,
85.500=0.010,
184.500=0.100,
184.750=0.080,
185.000=0.010;
#DELAYS:;
#WARPS:;
#TIMESIGNATURES:0.000=4=4;
#TICKCOUNTS:0.000=4;
#COMBOS:0.000=1;
#SPEEDS:0.000=1.000=0.000=0;
#SCROLLS:0.000=1.000;
#FAKES:;
#LABELS:0.000=Song Start;
#BGCHANGES:;
#KEYSOUNDS:;
#ATTACKS:
;

//---------------dance-single - ----------------
#NOTEDATA:;
#CHARTNAME:;
#STEPSTYPE:dance-single;
#DESCRIPTION:;
#CHARTSTYLE:;
#DIFFICULTY:Hard;
#METER:16;
#RADARVALUES:0.892581,0.964169,0.174438,0.222013,1.000000,738.000000,22.000000,28.000000,0.000000,0.000000,0.000000,0.000000,0.000000,0.892581,0.964169,0.174438,0.222013,1.000000,738.000000,22.000000,28.000000,0.000000,0.000000,0.000000,0.000000,0.000000;
#CREDIT:;
#NOTES:
// measure 0
0000
0000
0000
0000
,  // measure 1
0000
0000
0000
0000
,  // measure 2
0000
0000
0000
0000
1000
0000
0001
0000
0100
0010
0000
0010
0100
0000
0001
0000
,  // measure 3
0010
0000
0000
0000
0100
0000
1000
0000
0001
1000
0000
1000
0100
0000
0010
0000
,  // measure 4
0001
0000
0000
0000
0010
0000
0001
0000
1000
0001
0000
0001
0100
0000
0010
0000
,  // measure 5
0100
0000
0000
0000
0010
0000
1000
0000
0001
0100
0000
0100
0010
0000
1000
0000
,  // measure 6
0001
0000
1000
0000
0010
0000
0100
0000
0001
0010
0000
0100
1000
0000
0100
0000
,  // measure 7
0010
0001
0010
0001
1000
0000
1000
0000
0010
0100
0010
0100
0001
0000
0001
0000
,  // measure 8
1000
0010
1000
0010
0100
0000
0001
0010
0100
0000
1000
0010
0100
0000
0001
0010
,  // measure 9
0100
0000
0000
0000
1001
0000
1000
0000
0001
0000
0100
0001
1000
0000
0010
0000
,  // measure 10
1001
0000
0000
0000
1000
0000
0001
0000
0100
0010
0100
0010
1000
0000
1000
0000
,  // measure 11
0001
0010
0100
0010
0001
0000
1000
0010
0000
0100
0010
0000
0100
0001
0000
0001
,  // measure 12
1000
0100
0010
0001
0010
0000
0100
1000
0100
1000
0001
0100
0001
0000
1000
0010
,  // measure 13
0000
0010
1000
0000
0001
0000
0100
0010
0000
0010
0100
0000
0001
1000
0010
0100
,  // measure 14
0010
0100
0001
0010
0100
0000
0100
1000
0000
0010
0100
0001
0100
0000
0001
1000
,  // measure 15
0000
0000
0000
0001
0000
0000
0010
0000
0000
0001
0000
0000
0100
0000
0000
0000
0000
0000
0001
0000
0000
1000
0000
0000
0000
0000
0000
0010
0000
0000
0100
0000
0000
0000
0000
0000
0001
0000
0000
0000
0000
0000
1000
0000
0000
0000
0010
0000
,  // measure 16
0000
0000
0100
0000
0000
0000
0001
0000
0000
1000
0000
0000
0001
0000
0000
0000
0000
0000
0100
0000
0000
0001
0000
0000
0100
0000
0000
0001
0000
0000
1000
0000
0000
0010
0000
0000
0000
0000
0000
0000
0000
0000
0010
0000
0000
1000
0000
0000
,  // measure 17
0000
1000
0001
0010
0100
0000
1000
0100
0000
1000
0100
0000
1000
0100
0000
1000
,  // measure 18
0100
0000
0010
0000
0001
0000
0001
0000
1000
0010
0000
0100
0001
0000
1000
0000
,  // measure 19
0001
0010
0001
0010
0100
0000
1000
0000
0010
1000
0010
1000
0001
0100
0001
0100
,  // measure 20
0010
1000
0001
0010
0100
1000
0100
1000
0010
0100
0010
0100
0001
1000
0100
0010
,  // measure 21
0100
1000
0001
1000
0010
0100
0010
0000
0100
0010
0100
0000
0001
0000
0010
0000
,  // measure 22
0100
2000
0010
3010
0100
0001
1000
0100
,  // measure 23
1000
0000
0100
0000
0010
0000
0001
0000
1000
0010
1000
0000
0001
0000
0100
0000
,  // measure 24
0010
0000
0200
0000
0001
0000
0301
0000
1000
0000
0010
0000
1000
0001
0000
1000
,  // measure 25
0001
0010
0001
0000
1000
0000
0001
0000
0010
0100
0010
0000
0100
0000
1000
0000
,  // measure 26
0001
0000
0201
0000
0000
0000
0310
0000
0100
0010
0100
0000
0001
0000
1000
0000
,  // measure 27
0010
0000
2010
0000
0000
0000
3001
0100
0001
0010
0100
0000
1000
0000
0001
0100
,  // measure 28
1000
0100
0002
0000
0010
0000
0013
0000
0100
0000
1000
0000
0001
0100
0000
0010
,  // measure 29
1000
0001
1000
0000
0010
0000
0100
0001
1000
0010
1000
0000
0001
0010
0100
1000
,  // measure 30
0100
0010
0002
0000
0000
0000
2003
0000
0000
0000
3020
0000
0000
0000
0130
0000
,  // measure 31
0100
0000
0001
1000
0010
0000
0100
0010
1000
0000
0001
0000
0010
0000
0100
1000
,  // measure 32
0100
0010
0200
0000
0000
0000
1300
0000
0001
0000
0100
0000
0010
0100
0000
0010
,  // measure 33
1000
0000
0001
1000
0001
0100
0010
1000
0010
1000
0001
0010
0100
1000
0001
1000
,  // measure 34
0001
0000
1000
0000
0000
1010
0000
0000
0010
0000
0000
0110
0000
0000
0100
0000
,  // measure 35
0000
0101
0000
0000
0001
0000
0000
1001
0000
0000
1000
0000
0000
1100
0000
0000
,  // measure 36
0100
0000
0020
0000
0000
0000
0000
0000
0000
0000
0000
0000
0031
0010
0100
1000
,  // measure 37
0001
0100
0001
0100
0010
0000
1010
0000
1000
0001
0100
0000
0101
0000
0001
0000
,  // measure 38
0010
0000
0200
0000
0000
0000
1300
0010
1000
0010
0100
0000
0001
0000
0010
0000
,  // measure 39
0100
0000
0010
0001
0010
0100
0010
0001
0010
0100
2000
0000
0000
0000
0000
0000
,  // measure 40
3001
0100
0001
0010
0100
0010
0100
1000
0001
0100
0001
1000
0010
1000
0010
0100
,  // measure 41
1000
0100
0010
1000
0001
0010
0100
0010
0001
1000
0010
0001
0010
1000
0100
0010
,  // measure 42
0001
0000
1001
0000
1000
0000
0001
0100
0001
0100
0010
0000
1000
0000
0001
0000
,  // measure 43
1000
0000
0100
0010
0100
1000
0100
0010
0100
1000
0100
0000
0010
0000
0001
1000
,  // measure 44
0001
1000
0020
0000
0000
0000
0130
0001
0100
0001
1000
0000
0010
0000
0100
0000
,  // measure 45
0010
0000
1000
0100
0001
0100
1000
0010
0001
0010
0100
0001
0010
0100
1000
0100
,  // measure 46
0010
0001
1000
0010
1000
0000
0010
0100
0010
0000
1000
0000
2002
0000
3003
0000
,  // measure 47
1000
0000
0001
0100
0000
0010
1000
0010
1000
0000
0001
0010
0000
0100
1000
0100
,  // measure 48
0010
0000
0001
0100
0000
0001
0100
0010
1000
0000
0001
1000
0000
0100
1000
0100
,  // measure 49
0010
0000
0001
0010
0000
0100
1000
0100
2000
0000
0000
0000
3010
0000
0010
0000
,  // measure 50
0110
0000
0100
0001
0000
0001
1000
0001
0100
0000
0000
0000
0101
0000
0100
0000
,  // measure 51
0001
0000
1000
0100
0000
0100
1000
0100
0010
0000
0000
0002
0000
0000
1000
0000
,  // measure 52
0103
0000
0000
0020
0000
0000
0100
0000
0130
0000
0000
0000
0110
0000
0100
0000
,  // measure 53
0010
0000
1000
0010
0000
0100
0001
0100
0010
0000
0000
0010
0000
1000
0001
1000
,  // measure 54
0100
0000
0000
0010
0000
0000
0001
0000
1000
0000
0100
0000
1000
0000
0010
0000
,  // measure 55
0200
0000
0001
0000
0301
0000
0010
1000
0200
0000
0010
0000
0310
0000
0001
1000
,  // measure 56
0010
0000
1000
0000
0100
0000
0010
0001
1000
0000
0010
0100
0000
0001
0100
0000
,  // measure 57
0010
0000
1000
0001
0000
0001
0100
0010
0100
0000
0001
1000
0000
1000
0100
0000
,  // measure 58
0012
0000
0000
0000
2003
0000
0000
0000
3020
0000
0000
0000
0130
0001
1000
0001
,  // measure 59
0100
0000
0001
1000
0000
0010
1000
0010
0100
0000
0010
0000
1000
0000
0001
0000
,  // measure 60
1000
0000
1010
0000
0010
0000
0100
0000
0001
1000
0001
0100
0010
1000
0100
0010
,  // measure 61
0001
0000
0100
0000
0010
1000
0001
1000
0100
0000
0100
0000
0010
0000
0010
0000
,  // measure 62
0012
0000
0000
0000
2000
0000
0000
3003
,  // measure 63
1001
0000
0000
0000
0000
0000
0010
0100
0010
0000
1000
0000
0001
0000
1000
0000
,  // measure 64
0210
0000
0000
0000
0000
0000
0000
0000
0301
0010
0100
1000
0010
0100
0010
1000
,  // measure 65
0001
0000
1000
0000
0010
0100
0010
0100
0001
0000
0001
0000
1000
0100
0010
0100
,  // measure 66
1000
0000
0001
0100
0000
0010
0100
0000
0010
1000
0000
1000
0001
0010
0100
1000
,  // measure 67
0100
0000
0010
0001
0010
0001
1000
0010
1000
0000
0001
0100
0000
0100
0001
0000
,  // measure 68
1000
0000
0010
0100
0000
0100
0010
0000
1000
0001
0100
0010
0100
0010
1000
0100
,  // measure 69
0010
0000
0010
0001
0000
0100
0010
0100
0001
0000
1000
0001
0000
1000
0100
1000
,  // measure 70
0010
0000
0000
0000
0000
0000
0100
0000
0000
0001
0000
0000
0000
0000
0000
1000
0000
0000
0010
0000
0000
0000
0000
0000
0100
0000
0000
0000
0000
0000
0001
0000
0000
0000
0100
0000
0000
0000
0010
0000
0000
0000
1000
0000
0000
0001
0000
0000
,  // measure 71
1000
0000
0010
1000
0010
1000
0001
0100
0000
0000
0100
0001
0000
0001
1000
0100
,  // measure 72
0010
0000
0001
0010
0000
0100
0010
0000
0001
0010
0000
0100
0010
0000
0100
0000
,  // measure 73
1000
0000
1000
0000
0010
0100
0000
0001
0100
0000
0010
1000
0000
0000
0220
0000
,  // measure 74
0000
0000
0000
0000
,  // measure 75
0000
0000
0000
0000
,  // measure 76
0330
0000
0000
0000
;

//---------------dance-single - ----------------
#NOTEDATA:;
#CHARTNAME:;
#STEPSTYPE:dance-single;
#DESCRIPTION:;
#CHARTSTYLE:;
#DIFFICULTY:Medium;
#METER:12;
#RADARVALUES:0.528979,0.572475,0.031716,0.309232,0.039645,424.000000,4.000000,39.000000,0.000000,0.000000,0.000000,0.000000,0.000000,0.528979,0.572475,0.031716,0.309232,0.039645,424.000000,4.000000,39.000000,0.000000,0.000000,0.000000,0.000000,0.000000;
#CREDIT:;
#NOTES:
0000
0000
0000
0000
,
0000
0000
0000
0000
,
0000
0000
0001
1000
0100
0000
0010
0010
,
0001
0000
1000
0010
0100
0000
0001
0001
,
1000
0000
0010
0100
0001
0000
0100
0010
,
1000
0000
0001
1000
0100
0000
0010
0001
,
0010
0100
1000
0100
0010
0010
0002
1003
,
0100
0100
0020
0031
1000
1000
0200
0310
,
0001
0001
1000
0010
1000
0001
0100
0010
,
0100
0000
0001
0010
0001
0100
1000
0100
,
0110
0000
0010
0001
1000
0001
1000
0000
,
0010
0000
0100
0000
0010
0000
0000
0010
0000
0000
0010
0000
0000
0000
1000
0000
,
0001
0000
0010
0000
0100
0000
0000
0000
1000
0000
0001
0000
0100
0000
0000
0100
,
0000
0100
0001
0000
1000
0000
0001
0010
,
0100
1000
0001
0000
1000
0100
1000
0000
,
0001
0100
0001
0000
0100
0000
0001
1000
,
0200
0000
0310
0000
0001
1000
0020
0000
,
0130
0001
0001
1000
,
1000
0000
0001
1000
0010
0000
0100
0001
,
1000
0001
0100
0000
0010
1000
0010
0100
,
0001
0100
0001
0010
0001
1000
0100
1000
,
0010
0100
0002
1003
0000
0010
0000
1000
,
0010
0200
0000
0301
0000
1000
0001
0100
,
0000
0010
0000
1000
0000
0001
0010
0100
,
1000
0002
0000
1003
0000
0010
1000
0010
,
0100
0001
0000
0000
1000
0100
1000
0001
,
0010
0200
0000
0000
0310
0001
1000
0001
,
0100
0020
0000
1030
0001
0010
0001
1000
,
0100
0020
0000
0031
0100
0001
0000
1000
,
0000
0100
0010
0001
0000
1000
0001
0100
,
0010
0200
0000
0302
0000
2003
0000
3100
,
0010
0001
0000
1000
0010
0100
0000
0010
,
0100
0002
0000
1003
0000
0001
0000
0100
,
0000
0001
0010
0100
0010
0001
1000
0100
,
0010
0000
0001
0000
0000
0001
0000
0000
1000
0000
0000
1000
0000
0000
0010
0000
,
0000
0010
0000
0000
0100
0000
0000
0100
0000
0000
0001
0000
0000
1000
0000
0000
,
0010
0200
0000
0000
0000
0000
0000
0000
,
0000
0301
1000
1000
0010
0100
0100
0001
,
0100
0020
0000
1030
0001
1000
0100
0010
,
0001
0020
0000
0032
0000
0203
0000
0000
,
0301
0100
0001
0100
0010
1000
0010
1000
,
0001
1000
0001
0100
0001
0010
0100
1000
,
0100
0010
0000
0001
0010
0001
1000
0100
,
1000
0010
0100
0010
0100
0001
0000
1000
,
0001
0200
0000
0310
1000
0002
0000
0103
,
0000
0010
1000
0010
0100
0001
0100
0010
,
1000
0002
1003
0000
0010
0000
0102
0000
,
1003
0000
0001
0000
1000
0001
1000
0000
,
0100
0000
0010
0001
0100
0000
0010
0000
,
1000
0001
1000
0000
0002
0000
0103
0010
,
0100
0000
0010
1000
0010
0000
0110
0000
,
0100
0001
1000
0000
0010
1000
0001
0000
,
0100
0010
1000
0001
0100
0000
0010
0000
,
0010
1000
0100
0010
0001
0000
1000
0010
,
0100
0000
0001
0000
1000
0100
1000
0010
,
0200
0301
2000
3010
,
0200
0000
0301
0010
0100
0000
1000
0010
,
0100
0000
0001
0000
1000
0000
0001
0100
,
0002
2003
3020
0130
,
0001
0000
0000
1000
0001
0000
0000
0001
,
1000
0010
0100
0100
0001
0010
0001
1000
,
0020
0000
0130
0001
0100
0001
1000
0010
,
0200
0000
0320
0000
,
1030
0000
0000
0010
0100
0001
1000
0100
,
0020
0000
0000
0000
0031
1000
0010
0100
,
0001
1000
0010
1000
0001
0000
0100
0010
,
0100
0000
0000
0100
0000
0000
0100
0000
0000
0000
0001
0000
1000
0000
0100
0000
,
0010
0000
0000
0000
0001
0000
1000
0000
0010
0000
0000
0010
0000
0000
0010
0000
,
1000
0000
0001
0000
1000
0100
0010
0001
,
1000
0000
0001
0010
0001
0000
1000
0010
,
1000
0000
0010
0000
1000
0001
0020
0000
,
0130
0000
1000
0001
0200
0000
0310
0000
,
1000
0000
1000
0000
0001
0000
1000
0010
,
0100
0000
0000
0000
0001
0000
0000
0000
1000
0000
0000
0010
0000
0000
2002
0000
,
0000
0000
0000
0000
,
0000
0000
0000
0000
,
3003
0000
0000
0000
;

//---------------dance-single - ----------------
#NOTEDATA:;
#CHARTNAME:;
#STEPSTYPE:dance-single;
#DESCRIPTION:;
#CHARTSTYLE:;
#DIFFICULTY:Easy;
#METER:4;
#RADARVALUES:0.289976,0.331433,0.023787,0.166509,0.000000,232.000000,3.000000,21.000000,0.000000,0.000000,0.000000,0.000000,0.000000,0.289976,0.331433,0.023787,0.166509,0.000000,232.000000,3.000000,21.000000,0.000000,0.000000,0.000000,0.000000,0.000000;
#CREDIT:;
#NOTES:
0000
0000
0000
0000
,
0000
0000
0000
0000
,
0000
1000
0010
0100
,
1000
0001
0010
1000
,
0001
0100
1000
0010
,
0001
1000
0010
0100
,
0100
0000
0001
0000
0100
0000
2000
3000
,
0010
0000
0200
0300
0001
0000
0020
0030
,
1000
0001
0001
0010
,
0010
1000
1000
0001
,
0110
0100
0001
0001
,
0100
0100
0000
0000
,
1000
0010
0001
0010
,
0000
1000
0001
1000
,
0010
1000
0001
0001
,
1000
1000
0010
1000
,
0020
0130
1000
0200
,
0310
1000
1000
0001
,
0001
1000
0100
0010
,
0001
0010
0100
0100
,
1000
1000
1000
0010
,
0100
0000
2000
3000
0000
0000
0000
0000
,
0100
0000
0000
1000
,
0000
0000
0000
0100
,
0001
0000
0000
0001
,
0010
0000
0001
0001
,
0100
0000
0100
0001
,
0010
0000
1000
1000
,
0010
0000
0010
0000
,
0000
0100
0000
1000
,
0100
0000
0000
0000
,
0100
0000
0100
0000
,
0010
0000
0000
0000
,
0000
0100
0100
0001
,
0100
0000
0001
0000
,
0000
0010
0000
0000
,
0100
0000
0000
0000
,
0000
0001
0100
0010
,
0010
0000
1000
0010
,
1000
0000
0000
0000
,
1000
1000
0100
0100
,
1000
1000
1000
0010
,
0010
0000
0100
0001
,
0001
0010
0010
0000
,
1000
0000
0001
0000
,
0000
0001
0010
0010
,
0001
0001
0100
2010
,
3001
1000
0001
0001
,
0010
0100
0010
0100
,
0001
0001
2000
3010
,
0010
0100
0100
0110
,
0010
0001
0100
1000
,
0010
0001
0010
0100
,
0100
0010
1000
0001
,
0010
1000
0001
0001
,
0020
1030
0002
0103
,
0020
1030
0010
0001
,
0010
1000
0001
1000
,
2000
3002
0203
0310
,
1000
0000
1000
0000
,
0001
0010
1000
1000
,
0200
0310
0010
0001
,
0020
0000
0230
0000
,
0301
0000
0010
0001
,
0200
0000
1300
0100
,
1000
0100
1000
0010
,
0010
0000
0000
0001
,
0100
1000
0100
0000
,
0001
1000
0001
0100
,
0001
1000
1000
0001
,
0001
0100
0001
0200
,
0310
0001
0020
0130
,
0001
0001
1000
0001
,
0010
0000
1000
0000
0001
0000
0000
2000
,
0000
0000
0000
0000
,
0000
0000
0000
0000
,
3000
0000
0000
0000
;

//---------------dance-single - ----------------
#NOTEDATA:;
#CHARTNAME:;
#STEPSTYPE:dance-single;
#DESCRIPTION:;
#CHARTSTYLE:;
#DIFFICULTY:Beginner;
#METER:2;
#RADARVALUES:0.181235,0.241042,0.000000,0.142722,0.000000,142.000000,0.000000,18.000000,0.000000,0.000000,0.000000,0.000000,0.000000,0.181235,0.241042,0.000000,0.142722,0.000000,142.000000,0.000000,18.000000,0.000000,0.000000,0.000000,0.000000,0.000000;
#CREDIT:;
#NOTES:
0000
0000
0000
0000
,
0000
0000
0000
0000
,
0000
1000
0000
0100
,
0000
0001
0000
1000
,
0000
0100
0000
0010
,
0000
1000
0000
0100
,
0000
0000
0001
0000
0000
0000
2000
3000
,
0000
0000
0200
0300
0000
0000
0020
0030
,
0000
0001
0000
0010
,
0000
1000
0000
0001
,
0100
0000
0001
0000
,
0100
0000
0000
0000
,
1000
0000
0001
0000
,
0000
1000
0000
1000
,
0000
1000
0000
0001
,
0000
1000
0000
1000
,
0000
0100
0000
0000
,
0010
0000
1000
0000
,
0001
1000
0000
0010
,
0000
0010
0000
0100
,
1000
0000
1000
0010
,
0000
0000
2000
3000
0000
0000
0000
0000
,
0100
0000
0000
1000
,
0000
0000
0000
0100
,
0000
0000
0000
0001
,
0010
0000
0001
0000
,
0100
0000
0100
0000
,
0010
0000
1000
0000
,
0010
0000
0010
0000
,
0000
0100
0000
1000
,
0000
0000
0000
0000
,
0100
0000
0100
0000
,
0010
0000
0000
0000
,
0000
0100
0000
0001
,
0000
0000
0001
0000
,
0000
0010
0000
0000
,
0100
0000
0000
0000
,
0000
0001
0000
0010
,
0010
0000
1000
0010
,
1000
0000
0000
0000
,
1000
1000
0100
0100
,
1000
1000
1000
0010
,
0010
0000
0100
0001
,
0001
0010
0010
0000
,
1000
0000
0001
0000
,
0000
0000
0000
0100
0000
0000
0000
0100
,
0000
2000
3000
0000
0100
0000
2000
0000
,
3001
0000
0001
0000
,
0010
0000
0010
0000
,
0001
0000
2000
3000
,
0010
0000
0100
0000
,
0010
0000
0100
0000
,
0010
0000
0010
0000
,
0100
0000
1000
0000
,
0010
0000
0001
0000
,
0020
0030
0002
0003
,
0020
0030
0010
0000
,
0010
0000
0001
0000
,
2000
3000
0002
0003
,
1000
0000
1000
0000
,
0001
0000
1000
0000
,
0200
0300
0010
0000
,
0020
0000
0230
0000
,
0301
0000
0010
0000
,
0200
0000
1300
0000
,
1000
0000
1000
0000
,
0010
0000
0000
0001
,
0000
1000
0000
0000
,
0001
0000
0001
0000
,
0001
1000
0000
0001
,
0000
0100
0000
0200
,
0300
0001
0000
0100
,
0000
0001
0000
0001
,
0000
0000
1000
0000
0000
0000
0000
2000
,
0000
0000
0000
0000
,
0000
0000
0000
0000
,
3000
0000
0000
0000
;
