#VERSION:0.83;
#TITLE:PUPA;
#SUBTITLE:;
#ARTIST:モリモリあつし;
#TITLETRANSLIT:PUPA;
#SUBTITLETRANSLIT:;
#ARTISTTRANSLIT:Atsushi Morimori;
#GENRE:;
#ORIGIN:;
#CREDIT:;
#BANNER:;
#BACKGROUND:;
#PREVIEWVID:;
#JACKET:PUPA-jacket.png;
#CDIMAGE:;
#DISCIMAGE:;
#LYRICSPATH:;
#CDTITLE:;
#MUSIC:PUPA.mp3;
#OFFSET:0.820000;
#SAMPLESTART:12.160010;
#SAMPLELENGTH:12.000000;
#SELECTABLE:YES;
#BPMS:0.000=202.020,
129.500=50.020,
130.000=202.020,
137.000=50.020,
137.333=202.020,
152.000=67.020,
152.500=202.020,
184.500=101.020,
198.500=151.020,
201.500=202.020,
230.500=134.020,
232.500=202.020;
#STOPS:8.000=0.900,
13.000=0.900,
18.000=0.900,
363.500=0.900,
368.500=0.900,
373.500=0.900;
#DELAYS:;
#WARPS:;
#TIMESIGNATURES:0.000=4=4;
#TICKCOUNTS:0.000=4;
#COMBOS:0.000=1;
#SPEEDS:0.000=1.000=0.000=0;
#SCROLLS:0.000=1.000;
#FAKES:;
#LABELS:0.000=Song Start;
#BGCHANGES:;
#KEYSOUNDS:;
#ATTACKS:
;

//---------------dance-single - ----------------
#NOTEDATA:;
#CHARTNAME:;
#STEPSTYPE:dance-single;
#DESCRIPTION:;
#CHARTSTYLE:;
#DIFFICULTY:Hard;
#METER:15;
#RADARVALUES:0.900161,1.008684,0.181611,0.284261,0.821200,798.000000,775.000000,23.000000,36.000000,0.000000,0.000000,0.000000,0.000000,0.000000,0.900161,1.008684,0.181611,0.284261,0.821200,798.000000,775.000000,23.000000,36.000000,0.000000,0.000000,0.000000,0.000000,0.000000;
#CREDIT:;
#NOTES:
0000
0000
0000
0000
,
0100
0000
0010
0000
1000
0001
1000
0000
0010
0000
0100
0010
0100
0000
0001
0000
,
0020
0000
0000
0000
0130
0000
1000
0000
0001
0010
0001
0000
0100
0000
0010
1000
,
0010
0000
0100
0000
0002
0000
0000
0000
1003
0000
0010
0000
0100
1000
0100
0000
,
0001
0000
0010
0100
0010
0000
0100
0000
2000
0000
0000
0000
3001
0000
0100
0000
,
0010
1000
0010
0000
0100
0000
0001
1000
0001
0000
0100
0000
0020
0000
0000
0000
,
0000
0000
0000
1030
,
1010
0000
0100
0001
0100
0010
0000
1000
,
0001
0000
1000
0000
0100
0000
0010
0001
0010
0000
0100
0000
1000
0000
0010
0000
,
0100
0000
0010
0000
1000
0000
0001
0000
1000
0001
1000
0001
0010
0000
0100
0000
,
0010
0000
0001
0000
0000
0000
1000
0000
0001
0100
0001
1000
0010
1000
0010
0000
,
0100
0000
0001
1000
0100
1000
0000
0010
,
0100
0000
0010
0000
1000
0001
0100
0001
1000
0000
0010
0000
0010
0000
1000
0000
,
0001
0010
0100
1000
0010
0100
0010
1000
0100
0010
0001
0000
1000
0000
0020
0000
,
0000
0000
0000
0000
0000
0000
1030
0000
0000
0000
0000
0000
0001
0000
0000
1000
0000
0000
0001
0000
0000
0000
0000
0000
0010
0000
0000
0000
0100
0000
0000
0000
1000
0000
0000
0000
0100
0000
0000
0000
0010
0000
0000
0000
0001
0000
0000
0000
,
1000
0000
0002
0000
0000
0010
0000
0000
0100
0000
0000
1000
0000
0003
0200
0000
,
0000
0000
0010
0000
0000
1000
0000
0000
0010
0000
0000
0001
0000
0000
0320
0000
,
0000
0000
1000
0000
0000
0100
0000
0000
0001
0000
0000
0100
0000
0000
2030
0000
,
0000
0000
0001
0000
0000
0100
0000
0000
0010
0000
0000
0100
0000
0000
3001
0000
,
0100
0000
0000
0000
0010
0000
1000
0000
0000
0000
1001
0000
0000
0000
0100
0001
,
0010
0100
1000
0010
0000
0200
0000
0301
,
1000
0000
0001
0010
0000
0100
0000
1000
,
0010
0000
0000
0000
1001
0000
0000
0000
0001
1000
0000
0010
0100
0000
0001
1000
,
0010
0000
2000
0000
0000
0100
0000
0000
0010
0000
0000
0001
0000
3000
0020
0000
,
0000
0000
0100
0000
0000
0001
0000
0000
0100
0000
0000
1000
0000
0000
0230
0000
,
0000
0000
0001
0000
0000
0010
0000
0000
1000
0000
0000
0010
0000
0000
0302
0000
,
0000
0000
1000
0000
0000
0010
0000
0000
0100
0000
0000
0010
0000
0000
1003
0000
,
0001
0010
0100
1000
0010
0100
0001
1000
,
0010
0000
1000
0000
0001
0000
0100
0000
0001
0010
0100
1000
0001
0010
0100
1000
,
0001
0000
0001
0101
0000
0110
0000
1000
,
1010
0000
0010
0100
0001
0000
1000
0001
0010
0000
0100
1000
0010
0000
1000
0001
,
0100
0010
1000
0001
0100
0100
0010
1000
,
0100
0010
0001
0021
0000
0130
1000
0001
,
0100
0010
0010
1000
0001
1000
0010
0100
,
0001
0100
0110
0010
1000
0001
0010
0100
,
0100
1000
0001
0010
0100
0010
0001
2002
,
0000
0000
3003
1000
0010
1000
0001
0100
,
1000
0100
0001
0010
0100
1000
0100
0010
,
0110
0000
0100
0000
0000
0100
0000
0000
0100
0000
1000
0000
0000
1000
0000
0000
,
1000
0000
0001
0000
0000
0001
0000
0000
0001
0000
0010
0000
0000
0010
0000
0000
,
0010
0000
0001
0000
0000
0001
0000
0000
0001
0000
1000
0000
0000
1000
0000
0000
,
1000
0000
0010
0000
0000
0010
0000
0000
0010
0000
0100
0000
0000
0100
0000
0000
,
0100
0000
0010
1000
0001
0000
0100
0000
0010
1000
0100
0000
0010
0000
0001
1000
,
0010
0000
0100
0000
0010
0100
0001
0000
0010
0000
0100
1000
0001
0000
0100
0000
,
0010
0000
1000
0010
1000
0010
0100
0010
0100
0010
1000
0001
1000
0001
0010
0100
,
2000
0000
0000
0000
0010
0000
3010
0000
0100
0000
0001
1000
0001
1000
0020
0000
,
0000
0000
0000
0000
0000
0000
0130
0000
0000
0000
0000
0000
0001
0000
0000
1000
0000
0000
0100
0000
0000
0000
0010
0000
0000
0000
0001
0000
0000
0000
1000
0000
0000
0000
0010
0000
0000
0000
0100
0000
0000
0000
0010
0000
0000
0000
0000
0000
,
0000
0000
1000
0000
0001
0000
1000
0000
0000
0000
0000
0000
0010
0000
0000
1000
0000
0000
0001
0000
0000
0000
0100
0000
0000
0000
0010
0000
0000
0000
1000
0000
0000
0000
0100
0000
0000
0000
0010
0000
0000
0000
0001
0000
0000
0000
0000
0000
,
0000
0000
0100
0000
0010
0000
0100
0000
0000
0000
0000
0000
0001
0000
0000
1000
0000
0000
0100
0000
0000
0000
0010
0000
0000
0000
0100
0000
0000
0000
1000
0000
0000
0000
0001
0000
0000
0000
0100
0000
0000
0000
0010
0000
0000
0000
0000
0000
,
0000
0000
1000
0000
0100
0000
1000
0000
0000
0000
0000
0000
0010
0000
0000
0100
0000
0000
0001
0000
0000
0000
1000
0000
0000
0000
0100
0000
0000
0000
0010
0000
0000
0000
0000
0000
0001
0000
0000
0000
0010
0000
0000
0000
0100
0000
0000
0000
,
1000
0000
0000
0000
0001
0000
0000
0000
0100
0000
0000
0000
0010
0000
0000
1000
0000
0000
0010
0000
0000
0000
0000
0000
0000
0000
0000
0100
0000
0000
0000
0000
0000
0000
0000
0000
0001
0000
0000
0000
0000
0000
0010
0000
0000
0000
0000
0000
,
0000
0100
0000
0000
1000
0000
0010
0000
0000
0100
0000
0000
0001
0000
0200
0000
,
0000
0000
0000
0000
0301
0010
0100
0000
0000
1000
0000
0000
0010
0000
0100
0000
,
0000
0001
0000
0000
1000
0000
0100
0000
0000
0010
0000
0000
0001
0000
2000
0000
,
0000
0000
0000
0000
3010
0100
0001
0000
0000
0010
0000
0000
0100
0000
1000
0000
,
0000
0010
0000
0000
0100
0000
0001
0000
0000
1000
0000
0000
0001
0000
0020
0000
,
0000
0000
0000
0000
0130
1000
0010
0000
0000
0100
0000
0000
0001
0000
1000
0000
,
0000
0000
0000
0010
0000
0000
0000
0000
0000
0000
0000
0000
0200
0000
0000
0000
0000
0000
0020
0000
0000
0000
0000
0000
0330
0000
0000
0000
0000
0000
1001
0000
0000
0000
0000
0000
0000
0000
0110
0000
0000
0000
0000
0000
0000
0000
0101
0000
,
0000
1010
0000
0100
0001
1000
0000
0010
,
1000
0000
0001
0000
0000
0000
0100
0000
0010
0000
1000
0000
0001
0010
0001
0010
,
0001
0010
0100
0000
0000
0000
1000
0000
0001
0000
0010
0000
0000
0000
0001
0000
,
1000
0000
0010
0000
0000
0000
1000
0000
0001
0000
0100
0000
0010
1000
0010
1000
,
0010
1000
0100
0000
0000
0000
0010
0000
0001
0000
1000
0000
0000
0000
0100
0000
,
0010
0001
0000
1000
0010
0100
0000
0001
,
1000
0000
0001
0010
0100
0000
0010
0100
1000
0000
0100
0010
0001
0000
1000
0000
,
0001
0000
0101
0000
0000
0110
0000
0000
1001
0000
0220
0000
0000
0000
0000
0000
,
0330
1001
0000
0001
0010
0100
0000
0010
,
0100
0000
1000
0000
0000
0000
0010
0000
0100
0000
0001
0000
1000
0001
1000
0001
,
1000
0001
0100
0000
0000
0000
0010
0000
1000
0000
0001
0000
0000
0000
0100
0000
,
0001
0000
1000
0000
0000
0000
0010
0000
0100
0000
0001
0000
0010
0100
1000
0100
,
0010
0000
0000
0001
0000
0010
0000
0100
0000
1000
0000
0100
0000
0010
0000
0001
0000
0010
0000
0100
0000
1000
0000
0010
,
0000
0000
0100
0000
0000
0000
0001
0000
0000
0000
1000
0000
0000
0000
0010
0000
0000
0000
1000
0000
0000
0000
0001
0000
0000
0000
0010
0000
0000
0000
0001
0000
0000
1000
0000
0000
0001
0000
0000
1000
0000
0000
0010
0000
0000
0100
0000
0000
,
0010
0100
0010
0000
1000
0000
0001
0000
0010
0000
0100
0000
1000
0000
0010
0000
,
1000
0001
0200
0000
0000
0320
0000
0000
1030
0000
0202
0000
0000
0000
0000
0000
,
0303
0000
2002
0000
3003
0000
0001
0000
1000
0010
0100
0000
0001
0000
0000
0000
,
0010
0000
0100
0000
1000
0000
0100
0000
0010
0001
1000
0000
0100
0000
1000
0000
,
0010
0000
0100
0001
1000
0000
0100
0000
0010
0001
1000
0000
0010
0000
0100
0001
,
1000
0000
0100
0000
0010
0001
1000
0000
0010
0000
0100
0010
1000
0010
1000
0100
,
0010
0001
1000
0000
0000
0000
0010
0000
0100
0010
1000
0000
0001
0000
0000
0000
,
1000
0000
0010
0000
0100
0000
0001
0100
0010
0000
1000
0000
0001
0000
0010
0000
,
0100
0000
1000
0100
0010
0000
0001
0000
0100
0010
1000
0000
0001
0000
1000
0010
,
0100
0000
0001
0010
0100
1000
0002
0000
0000
0000
0103
0000
0000
0000
0110
0000
,
0000
0000
0100
0000
0001
0000
1000
0000
0001
1000
0001
1000
0001
1000
0001
1000
,
0001
0000
0100
0000
0010
0000
0100
0000
0010
0100
0010
0100
0010
0100
0010
0100
,
0010
0000
1000
0000
0100
0000
0010
0000
0001
0100
0001
0100
0001
0100
0001
0100
,
0001
0000
0000
1000
0000
0010
0000
0100
0000
0001
0000
0010
0000
0001
0000
1000
0000
0100
0000
1000
0000
0010
0000
0100
,
0000
0000
0001
0000
0000
0000
0100
0000
0000
0000
0000
0000
0010
0000
0000
0000
0000
0000
1000
0000
0000
0000
0000
0000
0001
0000
0000
0010
0000
0000
0100
0000
0000
0000
0000
0000
0010
0000
0000
0100
0000
0000
1000
0000
0000
0100
0000
0000
,
0010
0000
0001
0000
1000
0000
0010
0000
1000
0000
0010
0100
0001
0000
1000
0010
,
0100
0010
1000
0000
0001
0000
0010
0000
0100
0000
1000
0000
0010
0000
0100
0000
,
0001
0000
0010
0100
1000
0000
0100
0010
0001
0000
1000
0010
0100
0000
0010
0000
,
1000
0000
0001
1000
0001
0000
0100
0000
0010
0100
0010
0000
1000
0000
0200
0000
,
0000
0000
0310
0000
0001
0000
1000
0100
1000
0000
0010
0000
0100
0001
0100
0000
,
0010
0000
2000
0000
0000
0000
3001
0000
0100
0000
0010
0001
0010
0000
1000
0000
,
0100
0010
0100
0000
0010
0000
0002
0000
0000
0000
1003
0000
0010
0000
0100
0001
,
0100
0000
0010
0000
1000
0001
1000
0000
0010
0000
0110
0000
0000
0000
0000
0000
;

//---------------dance-single - ----------------
#NOTEDATA:;
#CHARTNAME:;
#STEPSTYPE:dance-single;
#DESCRIPTION:;
#CHARTSTYLE:;
#DIFFICULTY:Challenge;
#METER:18;
#RADARVALUES:1.046804,1.232836,0.236885,0.521146,1.255488,928.000000,898.000000,30.000000,66.000000,0.000000,0.000000,0.000000,0.000000,0.000000,1.046804,1.232836,0.236885,0.521146,1.255488,928.000000,898.000000,30.000000,66.000000,0.000000,0.000000,0.000000,0.000000,0.000000;
#CREDIT:;
#NOTES:
// measure 0
0000
0000
0000
0000
,  // measure 1
0010
0000
0100
0000
0001
1000
0001
1000
0010
0000
0100
0010
0100
0010
1000
0000
,  // measure 2
0200
0000
0000
0000
0310
0000
0100
0000
1000
0100
1000
0100
0010
0000
0001
0010
,  // measure 3
0001
0010
0100
0000
2000
0000
0000
0000
3001
0000
0100
0000
0010
0100
0010
0100
,  // measure 4
0001
0000
1000
0001
1000
0001
0100
0000
0002
0000
0000
0000
1003
0000
0100
0000
,  // measure 5
0010
0001
0010
0001
1000
0000
0010
0100
0010
0100
0001
0000
2000
0000
0000
0000
,  // measure 6
0000
0000
3010
0100
0001
1000
0001
0010
0100
1000
0100
0000
0010
0000
0000
0000
,  // measure 7
2002
3003
0100
0010
1000
0001
0000
0100
,  // measure 8
1000
0000
0100
0000
0010
0000
1000
0001
0100
0000
0001
0000
0010
0000
0100
0000
,  // measure 9
1000
0000
0100
0000
0010
0000
0001
0000
1000
0010
0100
0001
0100
0000
0001
0000
,  // measure 10
1000
0000
0010
0000
0000
0000
0101
0000
0001
0010
0100
1000
0100
0010
0001
0000
,  // measure 11
0010
0000
0001
0010
0100
1000
0000
0100
,  // measure 12
0010
0000
0001
0000
1000
0010
0100
0010
0100
0000
0001
0000
0001
0000
1000
0000
,  // measure 13
0001
0100
0001
0100
0010
1000
0010
1000
0001
0100
0001
0000
2000
0000
0002
0000
,  // measure 14
3003
0000
0000
0000
0000
0000
0100
0000
0000
0000
0000
0000
0010
0000
0000
1000
0000
0000
0001
0000
0000
1000
0000
0000
0010
0000
0000
0000
0100
0000
0000
0000
0001
0000
0000
0000
0010
0000
0000
0000
0100
0000
0000
0000
1000
0000
0000
0000
,  // measure 15
0010
0000
1000
0010
0000
0100
0001
0000
0010
0100
0000
2000
0000
0000
0002
0000
,  // measure 16
3003
0000
0100
0001
0000
1000
0010
0000
1000
0001
0000
0200
0000
0000
0020
0000
,  // measure 17
0330
0000
1000
0100
0000
0010
0001
0000
0010
0100
0000
2000
0000
0000
0020
0000
,  // measure 18
3030
0000
0001
0010
0000
0100
0010
0000
1000
0001
0000
0200
0000
0000
0302
0000
,  // measure 19
2003
0000
0000
0000
3010
0000
0200
0000
0000
0000
0302
0000
0000
0000
1003
0010
,  // measure 20
0100
0001
1000
0200
0000
0320
0000
0031
,  // measure 21
2000
0000
3010
0200
0000
0302
0000
0013
,  // measure 22
0200
0000
0000
0000
2300
0000
0000
0000
3001
0100
0000
0100
0010
0000
1000
0001
,  // measure 23
0100
0000
0001
0100
0000
0010
1000
0000
0100
0010
0000
0002
0000
0000
2000
0000
,  // measure 24
3003
0000
0010
1000
0000
0001
0100
0000
0001
1000
0000
0020
0000
0000
0200
0000
,  // measure 25
0330
0000
0001
0010
0000
0100
1000
0000
0100
0010
0000
0002
0000
0000
0200
0000
,  // measure 26
0303
0000
1000
0100
0000
0010
0100
0000
0001
1000
0000
0020
0000
0000
2030
0000
,  // measure 27
3001
1000
0001
1000
0010
0100
0010
0100
0001
0010
0001
0010
0100
1000
0100
1000
,  // measure 28
0010
0100
0010
0100
0001
0010
0100
1000
0100
0010
0001
1000
0010
1000
0001
0100
,  // measure 29
0001
0000
1001
0110
0000
0101
0000
0110
,  // measure 30
1010
0000
0100
0001
1000
0010
0100
0001
0010
0100
1000
0010
0100
0001
0010
0100
,  // measure 31
1000
0100
0001
0100
1000
1000
0010
0100
,  // measure 32
0001
0100
0010
2010
0000
3001
0100
1000
,  // measure 33
0100
0001
0001
0010
0100
0010
0001
0010
,  // measure 34
0100
1000
1001
0001
0100
0010
1000
0001
,  // measure 35
0001
1000
0010
0100
1000
0100
0010
0220
,  // measure 36
0000
0000
0330
0100
0010
1000
0001
0010
,  // measure 37
0100
1000
0010
0100
0001
1000
0010
0100
,  // measure 38
0101
0000
0010
0000
0000
1000
0000
0000
0010
0000
0100
0000
0000
0001
0000
0000
,  // measure 39
1000
0000
0100
0000
0000
0010
0000
0000
0001
0000
1000
0000
0000
0010
0000
0000
,  // measure 40
1000
0000
0100
0000
0000
0010
0000
0000
0001
0000
0010
0000
0000
0100
0000
0000
,  // measure 41
1000
0000
0010
0000
0000
1000
0000
0000
0001
0000
0010
0000
0000
0100
0000
0000
,  // measure 42
1000
0000
0010
0100
0010
0100
0001
0000
0010
0100
1000
0100
0010
0000
0001
0010
,  // measure 43
0001
0010
0100
0000
1000
0100
0010
0100
1000
0000
0001
0100
0001
1000
0100
1000
,  // measure 44
0010
0100
0001
0010
0001
0010
0100
1000
0100
0010
0001
1000
0010
1000
0001
0100
,  // measure 45
0002
0000
0000
0000
1003
0000
0001
0000
0100
0000
0010
1000
0001
1000
0020
0000
,  // measure 46
0000
0000
0000
0000
0000
0000
1030
0000
0000
0000
0000
0000
0001
0000
0000
0100
0000
0000
0001
0000
0000
0000
1000
0000
0000
0000
0010
0000
0000
0000
0100
0000
0000
0000
0010
0000
0000
0000
1000
0000
0000
0000
0001
0000
0000
0000
0000
0000
,  // measure 47
0000
0000
1000
0000
0100
0000
0010
0000
0000
0000
0000
0000
0001
0000
0000
1000
0000
0000
0100
0000
0000
0000
0010
0000
0000
0000
0001
0000
0000
0000
1000
0000
0000
0000
0001
0000
0000
0000
0010
0000
0000
0000
0100
0000
0000
0000
0000
0000
,  // measure 48
0000
0000
1000
0000
0001
0000
1000
0000
0000
0000
0000
0000
0010
0000
0000
1000
0000
0000
0001
0000
0000
0000
0100
0000
0000
0000
0010
0000
0000
0000
1000
0000
0000
0000
0001
0000
0000
0000
0010
0000
0000
0000
0001
0000
0000
0000
0000
0000
,  // measure 49
0000
0000
0010
0000
0100
0000
1000
0000
0000
0000
0000
0000
0001
0000
0000
0100
0000
0000
0010
0000
0000
0000
1000
0000
0000
0000
0001
0000
0000
0000
1000
0000
0000
0000
0000
0000
0001
0000
0000
0000
0100
0000
0000
0000
0010
0000
0000
0000
,  // measure 50
1000
0000
0000
0000
0010
0000
0000
0000
0100
0000
0000
0000
0001
0000
0000
1000
0000
0000
0001
0000
0000
0000
0000
0000
0000
0000
0000
1000
0000
0000
0000
0000
0000
0000
0000
0000
0010
0000
0000
0000
0000
0000
1000
0000
0000
0000
0000
0000
,  // measure 51
0000
0001
0000
0000
1000
0000
0010
0000
0000
0100
0000
0000
0002
0000
0200
0000
,  // measure 52
0000
0000
0303
0000
0010
1000
0001
0000
0000
0010
0000
0000
0100
0000
1000
0000
,  // measure 53
0000
0100
0000
0000
0010
0000
0001
0000
0000
1000
0000
0000
0020
0000
0200
0000
,  // measure 54
0000
0000
0330
0000
0001
1000
0100
0000
0000
0010
0000
0000
0001
0000
1000
0000
,  // measure 55
0000
0010
0000
0000
0100
0000
0001
0000
0000
0100
0000
0000
0020
0000
2000
0000
,  // measure 56
0000
0000
3030
0000
0100
0010
0001
0000
0000
1000
0000
0000
0010
0000
0100
0000
,  // measure 57
0000
0000
0000
0001
0000
0000
0000
0000
0000
0000
0000
0000
2000
0000
0000
0000
0000
0000
0002
0000
0000
0000
0000
0000
0000
0000
0000
0000
3003
0000
2200
0000
0000
0000
0000
0000
3300
0000
0022
0000
0000
0000
0000
0000
0033
0000
2020
0000
,  // measure 58
0000
0000
0000
0000
3030
0000
0101
0000
0000
0000
0000
0000
0000
0000
0000
0010
0000
0000
1000
0000
0000
0000
0000
0000
0001
0000
0000
0000
0000
0000
1000
0000
0000
0000
0000
0000
0000
0000
0000
0100
0000
0000
0010
0000
0000
0000
0000
0000
,  // measure 59
0001
0000
1000
0000
0000
0001
0100
0000
0010
0000
1000
0000
0100
0010
0100
1000
,  // measure 60
0100
0010
0001
0000
0000
1000
0010
0000
0001
0000
0010
0000
0000
1000
0001
0000
,  // measure 61
0010
0000
0100
0000
0000
1000
0001
0000
0100
0000
0010
0000
1000
0010
0100
0010
,  // measure 62
1000
0100
0010
0000
0000
0001
0010
0000
0100
0000
1000
0000
0000
0010
0100
0000
,  // measure 63
0001
0000
1000
0000
0000
0001
0100
0000
0010
0000
1000
0000
0000
0100
0010
0000
,  // measure 64
0001
0000
1000
0010
1000
0010
0100
0001
0100
0001
1000
0100
1000
0100
0010
0000
,  // measure 65
1001
0000
0101
0000
0000
1010
0000
0000
1001
0000
0220
0000
0000
0000
0000
0000
,  // measure 66
0330
0000
1001
0000
0000
0100
0001
0000
1000
0000
0001
0000
0000
0010
0100
0000
,  // measure 67
1000
0000
0001
0000
0000
1000
0010
0000
0100
0000
0001
0000
0010
0100
0010
0001
,  // measure 68
0010
0100
1000
0000
0000
0001
0100
0000
1000
0000
0100
0000
0000
0001
1000
0000
,  // measure 69
0100
0000
0010
0000
0000
0001
1000
0000
0010
0000
0100
0000
0001
1000
0001
1000
,  // measure 70
0100
0000
0000
0010
0000
0001
0000
0100
0000
0010
0000
1000
0000
0100
0000
1000
0000
0001
0000
0010
0000
0001
0000
1000
,  // measure 71
0000
0000
0010
0000
0000
0000
0100
0000
0000
0000
0001
0000
0000
0000
0010
0000
0000
0000
1000
0000
0000
0000
0010
0000
0000
0000
0001
0000
0000
0000
1000
0000
0000
0010
0000
0000
0100
0000
0000
0001
0000
0000
0010
0000
0000
0100
0000
0000
,  // measure 72
1000
0001
1000
0010
1000
0001
0100
0001
0010
0100
0010
0001
1000
0100
1000
0010
,  // measure 73
0100
0010
0200
0000
0000
0302
0000
0000
1003
0000
0220
0000
0000
0000
0000
0000
,  // measure 74
0330
2002
3003
0010
0100
0001
1100
0000
,  // measure 75
0010
0000
1000
0000
0010
0000
0100
0000
0001
1000
0010
0000
1000
0000
0100
0000
,  // measure 76
0010
0000
0100
1000
0001
0000
0100
0000
0010
1000
0001
0000
0010
0000
0100
1000
,  // measure 77
0001
0000
0100
0000
0010
1000
0001
0000
0100
0000
0001
1000
0001
1000
0100
0010
,  // measure 78
0001
0100
0010
0000
0000
0000
1000
0000
0100
0000
0010
0000
1001
0000
0000
0000
,  // measure 79
1000
0000
0010
0000
1000
0000
0001
0100
0010
0100
0010
0000
1000
0000
0001
0000
,  // measure 80
1000
0000
0001
0100
0010
0000
1000
0000
0100
0010
0001
0000
1000
0000
0001
0100
,  // measure 81
0010
0000
1000
0001
1000
0010
2000
0000
0000
0000
0200
0000
3300
0000
0110
0000
,  // measure 82
0000
0000
0100
0010
0001
0010
0100
0010
0001
0010
0100
0010
0001
0010
0100
0010
,  // measure 83
0001
0010
0100
1000
0100
0010
0100
1000
0100
0010
0100
1000
0100
0010
0100
1000
,  // measure 84
0100
0010
0001
1000
0001
0100
0001
1000
0001
0100
0001
1000
0001
0100
0001
1000
,  // measure 85
0001
0000
0000
0100
0000
0001
0000
1000
0000
0010
0000
0100
0000
0001
0000
0100
0000
0010
0000
1000
0000
0001
0000
0100
,  // measure 86
0000
0000
0010
0000
0000
0000
1000
0000
0000
0000
0000
0000
0001
0000
0000
0000
0000
0000
0100
0000
0000
0000
0000
0000
0001
0000
0000
0010
0000
0000
0100
0000
0000
1000
0000
0000
0001
0000
0000
0100
0000
0000
1000
0000
0000
0100
0000
0000
,  // measure 87
0001
0010
0100
0000
1000
0000
0010
0000
0001
0000
0010
1000
0001
1000
0100
0010
,  // measure 88
0001
1000
0100
0010
0100
1000
0001
0100
1000
0100
0001
1000
0100
0001
0100
1000
,  // measure 89
0010
0100
0001
0100
0010
1000
0010
0100
0001
0010
0100
1000
0100
0010
0001
1000
,  // measure 90
0010
0000
1000
0001
1000
0001
0100
0000
0010
0100
0010
0100
0001
0000
0021
0000
,  // measure 91
0000
0000
0130
0000
0010
0000
0001
0010
0001
0010
0100
0000
1000
0100
1000
0100
,  // measure 92
0010
0000
1002
0000
0000
0000
1003
0000
0010
0000
0100
0010
0100
0010
1000
0000
,  // measure 93
0001
1000
0001
1000
0010
0000
2010
0000
0000
0000
3001
0000
0010
0000
0100
1000
,  // measure 94
0100
1000
0001
0000
0100
0010
0100
0010
1000
0000
1001
0000
0000
0000
0000
0000
;

//---------------dance-single - ----------------
#NOTEDATA:;
#CHARTNAME:;
#STEPSTYPE:dance-single;
#DESCRIPTION:;
#CHARTSTYLE:;
#DIFFICULTY:Medium;
#METER:13;
#RADARVALUES:0.632820,0.821891,0.118442,0.331638,0.090806,561.000000,546.000000,15.000000,42.000000,0.000000,0.000000,0.000000,0.000000,0.000000,0.632820,0.821891,0.118442,0.331638,0.090806,561.000000,546.000000,15.000000,42.000000,0.000000,0.000000,0.000000,0.000000,0.000000;
#CREDIT:;
#NOTES:
0000
0000
0000
0000
,
1000
0001
0100
0100
0001
0010
0010
0100
,
2000
0000
3001
0100
0010
0010
1000
0100
,
0100
0010
0002
0000
0103
0001
1000
1000
,
0001
0010
0010
0100
2000
0000
3010
1000
,
0100
0100
0010
0001
0001
1000
0002
0000
,
0000
0000
0000
1003
,
1001
0000
0100
0010
1000
0001
0000
1000
,
0010
0100
0001
0010
0010
0100
1000
0100
,
0010
0001
0100
0010
1000
1000
0001
0100
,
0001
1000
0000
0001
0010
0100
1000
0001
,
1000
0000
0001
0100
0010
0100
0000
0010
,
1000
0001
0100
0010
0100
0010
0010
1000
,
0002
0000
0000
0000
0000
0000
0103
0020
,
0000
0130
0001
1000
0200
0000
0000
0000
,
0000
0310
0000
0000
0010
0000
0000
0001
,
0000
1000
0000
0000
0100
0000
0000
0010
,
0000
0001
0000
0000
0010
0000
0000
0100
,
0000
1000
0000
0000
0010
0000
0000
0100
,
0001
0000
1000
0010
0000
0110
0000
0100
,
0010
1000
0001
1000
0000
0100
0000
0010
,
0001
0000
0010
0100
0000
1000
0000
0001
,
0100
1001
0001
0100
,
0010
1000
0000
0000
0010
0000
0000
0100
,
0000
0001
0000
0000
1000
0000
0000
0010
,
0000
0100
0000
0000
0001
0000
0000
0010
,
0000
0000
0100
0000
0000
1000
0000
0000
0100
0000
0000
0010
0000
0000
0001
0000
,
0010
0000
0100
1000
0000
0100
0000
1000
,
0010
1000
0001
0100
0000
0010
0000
1000
,
0001
0000
0001
0001
0000
1001
0000
1000
,
1000
0010
0100
0001
1000
0010
0100
0001
,
1000
1000
0010
0010
0100
0100
0001
0001
,
1000
1000
0001
0002
0000
0013
0010
0100
,
0100
1000
1000
0010
0010
0100
0100
0001
,
0001
1000
1001
0001
0001
0100
0100
0010
,
0010
1000
1000
0001
0001
0100
0100
0020
,
0000
0000
0000
1030
0001
1000
0001
0010
,
0100
0010
0100
1000
0010
1000
0010
0100
,
0101
0010
0000
0000
0100
0000
0000
0001
,
0000
0000
1000
0000
0000
0010
0000
0100
,
0000
0001
0000
0000
1000
0000
0000
0100
,
0000
0000
0010
0000
0000
0001
0000
0010
,
0000
0100
0000
0000
1000
0100
0010
0001
,
0010
0100
1000
0001
0010
0100
1000
0100
,
0010
0002
0000
2003
0000
3020
0000
0130
,
0002
0000
0000
0000
0013
0000
0010
0000
0100
0000
1000
0001
1000
0000
0100
0000
,
0000
0010
0000
0001
0000
1000
0000
0010
,
0000
0100
0000
0001
0000
1000
0000
0010
,
0000
0100
0000
0001
0000
0010
0000
0100
,
0000
1000
0000
0010
0000
0200
0000
0000
,
0000
0000
0300
0120
0000
0000
0000
2000
,
0000
0000
3000
0230
0000
0000
0000
0020
,
0000
0000
0030
0302
0000
0000
0000
0020
,
0000
0000
0030
2003
0000
0000
0000
0200
,
0000
0000
0300
3020
0000
0000
0000
2000
,
0000
0000
3000
0230
0000
0000
0000
0002
,
0000
0000
0003
0310
1000
0001
1000
0010
,
1000
0000
0000
0001
0000
0000
0200
0000
0000
0020
0000
0000
0330
0000
0000
1001
0000
0000
0000
0110
0000
0000
0000
1001
,
0000
0110
0000
0100
0001
1000
0000
0010
,
1000
0001
0000
0100
0010
1000
0001
0100
,
0001
0010
0000
0100
1000
0010
0000
0100
,
0001
1000
0000
0010
1000
0100
0010
0001
,
0010
0100
0000
0010
0001
1000
0000
0100
,
1000
0010
0000
0100
0001
1000
0000
0010
,
0100
0010
1000
0001
0100
0001
0010
0100
,
0010
0000
0001
0000
0000
1000
0000
0000
0010
0000
2020
0000
0000
0000
0000
0000
,
3030
0101
0000
0001
1000
0100
0000
0010
,
0001
1000
0000
0010
0100
0001
1000
0010
,
1000
0001
0000
1000
0010
0100
0000
0010
,
1000
0001
0000
0010
0100
1000
0100
0010
,
0100
0000
0000
1000
0000
0010
0000
0000
0000
0010
0000
0100
0000
0000
0000
0100
0000
0001
0000
0000
0000
0001
0000
0010
,
0000
0000
0000
0010
0000
0100
0000
0000
0000
0100
0000
1000
0000
0000
0000
1000
0000
0000
0001
0000
0000
0010
0000
0000
,
0100
1000
0100
0010
0001
1000
0010
1000
,
0100
0000
0010
0000
0000
0001
0000
0000
1000
0000
0020
0000
0000
0000
0000
0000
,
0000
0130
0000
0010
1000
0001
0010
0000
,
0100
1000
0001
0100
0001
1000
0100
1000
,
0010
0200
0000
0310
2000
0000
3001
0020
,
0000
0130
2000
0000
3100
0010
0001
0010
,
0100
1000
0000
0010
0100
0001
1000
0000
,
0001
0010
0001
1000
0010
0100
0001
0010
,
0100
2000
0000
3010
0200
0000
0301
0020
,
0000
0130
1000
0002
0000
1003
0000
1001
,
0000
1000
0001
0100
1000
0100
0001
0100
,
0010
1000
0100
0001
0100
1000
0100
0001
,
0100
1000
0010
0001
0010
1000
0010
0001
,
0010
0000
0000
1000
0000
0001
0000
0000
0000
0001
0000
0010
0000
0000
0000
0010
0000
0100
0000
0000
0000
0100
0000
1000
,
0000
0000
1000
0000
0010
0000
1000
0000
0001
0000
0100
0000
0001
0000
1000
0010
,
1000
0000
0100
0000
0010
0000
0001
0000
1000
0000
0010
0000
1000
0000
0001
0010
,
0001
1000
0001
0010
0100
1000
0010
0100
,
0001
1000
0001
0000
1000
0010
1000
0000
0100
0010
0100
0000
0010
0001
0010
0000
,
0100
1000
0010
0100
0010
0010
1000
0002
,
0000
1003
0010
0100
0100
0001
0010
0010
,
0100
2000
0000
3010
1000
0001
0001
1000
,
0100
0100
0010
0002
0000
0103
0001
0010
,
0010
0100
1000
1000
0001
0110
0000
0000
;

//---------------dance-single - ----------------
#NOTEDATA:;
#CHARTNAME:;
#STEPSTYPE:dance-single;
#DESCRIPTION:;
#CHARTSTYLE:;
#DIFFICULTY:Easy;
#METER:6;
#RADARVALUES:0.421880,0.597739,0.071065,0.268469,0.007896,374.000000,365.000000,9.000000,34.000000,0.000000,0.000000,0.000000,0.000000,0.000000,0.421880,0.597739,0.071065,0.268469,0.007896,374.000000,365.000000,9.000000,34.000000,0.000000,0.000000,0.000000,0.000000,0.000000;
#CREDIT:;
#NOTES:
0000
0000
0000
0000
,
1000
0010
0100
0000
0000
0001
0000
0000
,
2000
3000
0001
0100
0010
0000
0000
1000
,
0000
0000
0200
0300
0010
0001
0100
0000
,
0000
0001
0000
0000
2000
3000
0001
1000
,
0010
0000
0000
0100
0000
0000
0020
0000
,
0000
0000
0000
0130
,
1001
0000
0010
0000
1000
0100
0000
0000
,
0010
0001
0010
0100
,
1000
0010
0100
0001
,
0100
0010
0000
0000
1000
0000
0001
0000
,
0100
0000
0001
0000
1000
0010
0000
1000
,
0010
0100
0010
1000
,
0002
0000
0000
0000
0000
0000
1003
0200
,
0000
0000
0000
0000
,
1300
0010
0000
0000
0100
0000
0000
0001
,
0000
0010
0000
0000
0100
0000
0000
1000
,
0000
0010
0000
0000
0100
0000
0000
0001
,
0000
1000
0000
0000
0010
0000
0000
0100
,
0010
0000
1000
0001
0000
1001
0000
0100
,
0010
0000
0001
1000
0000
0100
0000
0010
,
0001
0000
0010
0100
0000
1000
0000
0001
,
0200
0000
0000
0300
,
0010
1000
0000
0000
0001
0000
0000
0010
,
0000
0100
0000
0000
1000
0000
0000
0001
,
0000
0010
0000
0000
0100
0000
0000
1000
,
0000
0010
0000
0000
0100
0000
0000
0001
,
0010
0000
0001
1000
0000
0010
0000
1000
,
0100
0000
0010
0001
0000
1000
0000
0010
,
0100
0000
0001
1000
0000
1001
0000
1000
,
0020
0000
0000
0000
,
1030
0001
0100
0001
,
0010
0000
0100
2000
0000
3010
0000
0100
,
0000
1000
0000
0010
0000
0100
0000
0001
,
0000
1000
0001
1000
0000
0100
0000
0010
,
0000
0001
0000
1000
0000
0010
0000
0200
,
0000
0000
0000
0301
0000
1000
0000
0010
,
0000
1000
0000
0001
0000
0010
0000
0100
,
1000
0010
0000
0000
0100
0000
0000
0001
,
0000
0000
1000
0000
0000
0010
0000
0100
,
0000
0001
0000
0000
1000
0000
0000
0100
,
0000
0000
0010
0000
0000
0001
0000
0010
,
0000
0100
0000
0000
1000
0100
0000
0010
,
0001
0000
1000
0010
0000
0100
0001
0000
,
1000
0002
0000
0000
0000
1003
0000
0010
,
0100
0000
0001
1000
0001
1000
0001
1000
,
0000
0010
0000
0100
0000
0001
0000
0010
,
0000
0100
0000
1000
0000
0010
0000
0100
,
0000
0001
0000
0010
0000
0100
0000
1000
,
0000
0010
0000
1000
0000
0002
0000
0000
,
0000
0000
0003
0200
0000
0000
0000
0001
,
0000
0000
0000
0320
0000
0000
0000
0100
,
0000
0000
0000
2030
0000
0000
0000
0100
,
0000
0000
0000
3002
0000
0000
0000
0010
,
0000
0000
0000
0203
0000
0000
0000
0001
,
0000
0000
0000
0320
0000
0000
0000
1000
,
0000
0000
0000
0130
0000
0001
0000
1000
,
0000
0000
0000
0010
0000
0000
0100
0000
0000
0010
0000
0000
0000
0000
0000
1001
0000
0000
0000
0100
0000
0000
0000
0100
,
0000
0110
0000
0010
0000
1000
0000
0010
,
0000
0100
0000
0001
0000
0010
0000
0100
,
0000
1000
0000
0010
0000
0100
0000
0001
,
0000
1000
0000
0100
0000
1000
0000
0010
,
0000
0100
0000
0010
0000
1000
0000
0001
,
0000
1000
0000
0010
0000
0100
0000
0001
,
0000
0010
0000
0100
0000
0010
0000
0001
,
0000
1000
0000
0010
0000
0200
0000
0000
,
0300
1001
0000
0001
0000
0100
0000
0010
,
0000
1000
0000
0010
0000
1000
0000
0100
,
0000
0010
0000
0001
0000
1000
0000
0100
,
0000
0010
0000
0100
0000
1000
0000
0010
,
0000
0200
0000
0302
0000
2003
0000
3200
,
0000
0320
0000
0032
0000
2003
0000
0000
,
0000
3010
0000
0100
0000
0001
0000
1000
,
0000
0100
0000
0000
0010
0002
0000
0000
,
0000
1003
0000
0010
0000
0100
0000
0000
,
0001
1000
0000
0010
0000
0100
0000
0001
,
0010
0100
0000
1000
0100
0000
1000
0010
,
0000
0100
0001
0000
1000
0001
0000
0100
,
0000
0110
0000
0010
0000
1000
0000
0000
,
0001
0010
0000
0100
0000
1000
0000
0010
,
1000
0001
0000
0100
0010
0000
0100
0001
,
0000
0100
0010
1000
0000
0001
0000
1001
,
0000
1000
0001
1000
0001
1000
0001
1000
,
0000
0010
0100
0010
0100
0010
0100
0010
,
0000
1000
0100
1000
0100
1000
0100
1000
,
0000
0002
0000
0023
0000
0230
0000
2300
,
0000
3001
0000
0100
0000
0010
0000
1000
,
0000
0100
0000
0010
0000
0001
0000
1000
,
0000
0010
0000
1000
0000
0100
0000
0010
,
0000
0001
0000
0100
0000
0010
0000
0100
,
0000
0001
0000
0000
1000
0000
0000
0020
,
0030
0100
0001
0100
0000
0000
0010
0000
,
0000
0200
0300
0001
1000
0001
0000
0000
,
0100
0000
0000
0020
0030
1000
0010
0100
,
0000
0010
0100
0000
0010
0110
0000
0000
;

//---------------dance-single - ----------------
#NOTEDATA:;
#CHARTNAME:;
#STEPSTYPE:dance-single;
#DESCRIPTION:;
#CHARTSTYLE:;
#DIFFICULTY:Beginner;
#METER:3;
#RADARVALUES:0.240269,0.298869,0.047377,0.236885,0.000000,213.000000,207.000000,6.000000,30.000000,0.000000,0.000000,0.000000,0.000000,0.000000,0.240269,0.298869,0.047377,0.236885,0.000000,213.000000,207.000000,6.000000,30.000000,0.000000,0.000000,0.000000,0.000000,0.000000;
#CREDIT:;
#NOTES:
0000
0000
0000
0000
,
0001
0000
0010
0000
0000
1000
0000
0000
,
0002
0003
1000
0000
0100
0000
0000
0001
,
0000
0000
0020
0030
0100
0000
0010
0000
,
0000
1000
0000
0000
0002
0003
1000
0000
,
0100
0000
0000
0010
0000
0000
0200
0000
,
0000
0000
0000
0310
,
0010
0100
0001
0000
,
0100
0000
0100
0000
,
0001
0000
0010
0000
,
0010
0000
0001
0000
,
0010
0000
0001
0000
,
0100
0000
0010
0000
,
2000
0000
0000
0000
0000
0000
3000
0020
,
0000
0000
0000
0000
,
0031
0000
0000
0000
0010
0000
0000
1000
,
0000
0100
0000
0000
0010
0000
0000
0001
,
0000
0100
0000
0000
0010
0000
0000
1000
,
0000
0001
0000
0000
0100
0000
0000
0010
,
0000
0000
0001
0000
0000
1000
0000
0010
,
0000
0000
1000
0000
0000
0010
0000
0000
,
1000
0000
0000
0010
0000
0000
0000
1000
,
0020
0000
0000
0030
,
0100
0000
0000
0000
1000
0000
0000
0100
,
0000
0010
0000
0000
0001
0000
0000
1000
,
0000
0100
0000
0000
0010
0000
0000
0001
,
0000
0100
0000
0000
0010
0000
0000
1000
,
0000
0000
1000
0000
0000
0100
0000
0001
,
0000
0000
0100
0000
0000
0001
0000
0100
,
0000
0000
1000
0000
0000
0001
0000
0000
,
0200
0000
0000
0000
,
0301
0000
0010
0000
,
0100
0000
0000
0002
0000
0103
0000
0000
,
0000
0001
0000
0000
0000
0010
0000
0000
,
0000
0000
1000
0001
0000
0000
0000
0100
,
0000
0000
0000
0001
0000
0000
0000
0020
,
0000
0000
0000
1030
0000
0000
0000
0100
,
0000
0000
0000
1000
0000
0000
0000
0010
,
0000
0100
0000
0000
0010
0000
0000
1000
,
0000
0000
0001
0000
0000
0100
0000
0000
,
0000
1000
0000
0000
0001
0000
0000
0010
,
0000
0000
0100
0000
0000
1000
0000
0000
,
0000
0010
0000
0000
0001
0000
0000
0100
,
0000
0000
0001
0000
0000
0010
0000
0000
,
0001
2000
0000
0000
0000
3000
0000
0100
,
0000
0000
0000
0000
0000
0000
0000
1001
,
0000
0100
0000
0000
0000
1000
0000
0000
,
0000
0010
0000
0000
0000
0100
0000
0000
,
0000
1000
0000
0000
0000
0010
0000
0000
,
0000
0100
0000
0000
0000
2000
0000
0000
,
0000
0000
3000
0020
0000
0000
0000
0000
,
0000
0000
0000
0230
0000
0000
0000
0000
,
0000
0000
0000
0302
0000
0000
0000
0000
,
0000
0000
0000
2003
0000
0000
0000
0000
,
0000
0000
0000
3002
0000
0000
0000
0000
,
0000
0000
0000
0203
0000
0000
0000
0000
,
0000
0000
0000
0320
0000
0000
0000
0000
,
0000
0000
0000
0130
0000
1001
0000
0000
,
0000
1001
0000
0000
0000
0100
0000
0000
,
0000
0001
0000
0000
0000
0010
0000
0000
,
0000
1000
0000
0000
0000
0100
0000
0000
,
0000
0010
0000
0000
0000
0001
0000
0000
,
0000
0100
0000
0000
0000
0010
0000
0000
,
0000
1000
0000
0000
0000
0001
0000
0000
,
0000
0100
0000
0000
0000
0010
0000
0000
,
0000
1000
0000
0000
0000
0020
0000
0000
,
0030
1001
0000
0000
0000
0010
0000
0000
,
0000
0001
0000
0000
0000
0001
0000
0000
,
0000
0100
0000
0000
0000
0001
0000
0000
,
0000
0100
0000
0000
0000
0001
0000
0000
,
0000
0020
0000
0030
0000
2000
0000
3000
,
0000
0020
0000
0030
0000
0200
0000
0000
,
0000
0301
0000
0000
0000
1000
0000
0000
,
0000
0001
0000
0000
0000
2000
0000
0000
,
0000
3001
0000
0000
0000
0010
0000
0000
,
0000
0001
0000
0000
0000
0010
0000
0000
,
0000
0010
0000
0000
0010
0000
0000
0100
,
0000
0000
1000
0000
0000
1000
0000
0000
,
0000
0010
0000
0000
0000
0001
0000
0000
,
0000
0100
0000
0000
0000
0001
0000
0000
,
0000
1000
0000
0000
0100
0000
0000
1000
,
0000
0000
0100
0000
0000
0000
0000
1001
,
0000
0100
0000
0000
0000
0010
0000
0000
,
0000
0100
0000
0000
0000
0100
0000
0000
,
0000
0001
0000
0000
0000
0001
0000
0000
,
0000
2000
0000
3000
0000
0002
0000
0003
,
0000
1000
0000
0000
0000
0100
0000
0000
,
0000
0010
0000
0000
0000
1000
0000
0000
,
0000
0100
0000
0000
0000
0010
0000
0000
,
0000
1000
0000
0000
0000
0100
0000
0000
,
0000
1000
0000
0000
0001
0000
0000
0200
,
0300
0010
0000
0100
0000
0000
0001
0000
,
0000
0020
0030
1000
0000
1000
0000
0000
,
0010
0000
0000
0200
0300
0001
0000
0010
,
0000
0000
0010
0000
0000
1001
0000
0000
;
