#TITLE:Primadonna;
#SUBTITLE:;
#ARTIST:Marina & The Diamonds;
#TITLETRANSLIT:;
#SUBTITLETRANSLIT:;
#ARTISTTRANSLIT:;
#CREDIT:;
#BANNER:PRIMADONNA-bn.PNG;
#BACKGROUND:PRIMADONNA-bg.png;
#LYRICSPATH:;
#CDTITLE:;
#MUSIC:Primadonna.mp3;
#OFFSET:0.000;
#SAMPLESTART:183.900;
#SAMPLELENGTH:12.000;
#SELECTABLE:YES;
#BPMS:0.000=128.000;
#STOPS:66.500=0.200
,226.000=0.240
;
#BGCHANGES:0.000=Primadonna.avi=1.000=1=1=0,
99999=-nosongbg-=1.000=0=0=0 // don't automatically add -songbackground-
;

//---------------dance-single - ----------------
#NOTES:
     dance-single:
     :
     Hard:
     13:
     0.659,0.739,0.437,0.464,0.102:
0000
1000
0001
0010
0100
1100
1000
0100
,
0010
0001
0010
0001
1001
1000
0010
0100
,
0001
1000
1000
0010
0010
2010
0000
0002
,
3000
0000
0020
0000
0003
0000
0130
0000
1000
0010
0100
0000
0001
0000
1000
0000
,
0010
0001
0010
1000
0100
0001
0100
1000
,
0010
0100
0001
0010
0001
1000
0100
1000
,
0010
0100
0001
1000
0001
1001
0000
0101
,
0000
0000
0110
0000
0000
0000
1001
0000
0001
0010
0100
0000
1000
0000
0010
0000
,
1000
0001
0100
0001
0010
0200
0000
0310
,
0200
0000
0000
1300
0002
0000
1003
0010
,
1000
0001
0010
0001
0100
0010
1000
0100
,
0010
0000
0001
0000
1000
0000
0100
0000
0010
0001
1000
0000
0010
0000
0100
0000
,
1000
0100
0001
0010
1000
0010
0001
1000
,
0100
0010
0001
1000
0100
0010
0100
1000
,
0010
0100
0001
1000
0010
0200
0000
0310
,
2000
0000
0000
0000
0000
0000
3001
0000
0100
0010
1000
0000
0010
0000
0100
0000
,
0010
1000
1000
0001
0001
1001
1000
0010
,
2010
0000
3001
0100
1010
0000
0100
0110
,
0020
0000
1030
0000
0110
0000
0001
0010
,
0100
0000
0100
0010
0001
0000
0001
1000
,
0000
1010
0010
0100
0101
0001
1000
0010
,
0200
0000
0301
1000
0200
0000
0310
0001
,
1000
0000
1001
1000
0010
0100
0001
0010
,
0012
2003
3010
1001
,
0101
0010
1010
0100
1001
0001
1000
0010
,
0200
0000
0310
1000
0101
0000
0001
2200
,
0000
3300
1100
0000
0110
0000
0010
0100
,
1100
0000
1001
0010
0100
0000
0001
2000
,
0000
3010
0010
0100
0110
1001
1000
0010
,
2000
0000
3010
0100
0002
0000
0013
0200
,
1000
0300
1100
1000
0100
0010
0001
1000
,
0200
0000
0320
0000
0031
0010
0100
0010
,
0002
0000
0100
0000
2003
0000
0000
0000
3020
0000
0000
0000
0000
0000
0130
0001
,
2000
0000
0000
0000
0000
0000
3010
0100
0002
0000
0000
0000
0013
0000
0210
0000
,
0000
0000
1300
0000
1002
0000
0000
0000
0203
0000
0000
0000
0000
0000
0310
0100
,
0002
0000
0000
0000
0000
0000
1003
0100
0020
0000
0000
0000
0031
0000
2001
0000
,
0000
0000
3010
0000
0210
0000
0000
0000
0302
0000
0000
0000
0000
0000
1003
0010
,
0200
0000
0000
0000
0000
0000
0301
1000
0020
0000
0000
0000
1030
0000
1002
0000
,
0000
0103
0120
0000
1030
1000
0001
0001
,
0100
0100
0220
0000
0330
1000
0001
0100
,
0001
1000
0100
0010
0011
0001
0010
0100
,
1000
0100
1000
1001
0001
0100
0010
1000
,
0001
0001
0100
0100
0102
0000
2000
0003
,
0200
0000
3000
0000
0310
0000
0001
0100
0010
0000
1000
0000
0001
0000
0100
0000
,
1000
0100
0001
0010
1000
0010
0001
0100
,
0010
1000
0100
1000
0001
0010
0001
0100
,
0010
1000
0001
1000
1001
0000
1010
0000
,
0110
0000
0000
0000
1001
0000
1000
0100
0010
0000
0001
0000
0100
0000
0001
0000
,
1000
0010
1000
0100
0020
0000
0130
0020
,
0000
0000
0031
2000
0000
3001
0100
0001
,
1000
0100
1000
0010
0100
0001
0010
0100
,
1000
0000
0001
0000
0010
0000
0100
1000
0001
0000
0100
0000
0010
0000
0001
0000
,
0010
1000
0100
0001
0100
1000
0001
0010
,
0100
1000
0001
0010
0100
0010
0001
0100
,
0010
1000
0001
0100
0020
0000
0130
0002
,
0000
0000
0000
0000
1003
0000
0010
0100
0001
0000
0100
0000
0010
0000
0100
0000
,
0001
0001
1000
1000
1001
0001
0100
0102
,
0000
0000
1003
0000
0001
0000
1010
0000
0000
0000
1000
0000
0101
0000
0010
0100
,
0001
1000
0100
0000
0010
0000
1001
0000
0000
0000
1000
0000
0100
0000
0010
0000
,
0000
0010
0100
1000
0000
1000
0001
0000
,
0101
0100
0010
1010
1000
0001
0100
0020
,
0000
0000
1030
0000
0001
0000
0020
0000
0000
0000
0130
0000
1000
0000
0001
0100
,
1000
0001
0010
0000
1010
0000
1000
0000
0001
0000
0100
0000
0010
0000
1000
0000
,
0001
0010
0001
0100
0020
0000
2030
0000
,
3002
0010
0003
1001
1000
0001
0100
0020
,
0000
0000
0130
0000
0001
0000
1010
0000
0000
0000
0001
0000
1000
0000
0010
0100
,
0001
1000
0010
0000
1000
0000
1100
0000
0000
0000
0100
0000
0010
0000
0011
0000
,
0000
1001
0010
1000
0000
1000
0002
0000
,
0103
0100
0010
0110
1001
0001
0100
0002
,
0000
0000
0103
0000
0010
0000
2000
0000
0000
0000
3100
0000
0010
0000
0001
1000
,
0001
0010
0100
0000
0001
0000
0100
0000
1000
0000
0010
0000
0001
0000
0020
0000
,
0000
0230
0000
0301
0100
0010
1000
2000
,
0001
0000
3002
0000
0000
0000
0203
0000
0000
0000
0000
0000
0310
1000
0002
0000
,
0000
0000
0000
0000
0103
0010
2000
0000
0000
0000
3100
0000
0110
0000
0010
0001
,
1000
0001
0010
0000
0001
0000
1002
0000
0000
0000
0000
0000
0103
0010
2000
0000
,
0000
0000
0000
0000
3001
0010
0200
0000
0000
0000
1300
0000
1002
0000
0000
0000
,
0103
0000
0120
0000
0000
0000
2030
0000
0000
0000
0000
0000
3001
0100
0020
0000
,
0000
0000
0000
0000
1030
0001
0200
0000
0000
0000
0301
0000
1001
0000
0010
1000
,
0001
0100
0010
0000
1000
0000
0010
0000
0010
0000
1000
0000
1000
0000
0010
0000
,
0010
0220
0000
0330
0001
1000
0010
1000
,
0001
0010
0100
1100
1000
0100
0010
0001
,
0010
0001
1001
1000
0010
0100
0001
1000
,
1000
0010
0010
2010
0000
0002
3000
0020
,
0003
0000
0130
0000
1000
0010
0100
0000
0001
0000
1000
0000
0010
0000
0001
0000
,
0010
1000
0100
0101
0001
1000
0010
0001
,
1000
0100
0001
1000
0010
0001
1000
0100
,
0001
0100
1000
1001
0000
0110
0000
1010
,
0000
0000
1001
0000
0001
0010
0100
0000
1000
0000
0010
0000
1000
0000
0001
0000
,
0100
0001
0010
1200
0000
0310
0200
0010
,
0000
1300
0002
0000
1003
0010
1000
0001
,
0010
0001
0100
0010
1000
0100
0010
0001
,
1000
0000
0100
0000
0010
0001
1000
0000
0010
0000
0100
0000
1000
0000
0100
0000
,
0001
0010
1000
0010
0001
1000
0100
0010
,
0001
1000
0100
0010
0100
1000
0010
0100
,
0001
1000
0010
0200
0000
0310
2000
0100
,
0000
0000
3001
0000
0100
0010
1000
0000
0010
0000
0100
0000
0020
0000
1000
0000
,
2030
0001
3002
0100
0203
0010
0310
1010
,
0101
0000
0011
0000
1100
0000
0010
0001
0010
0100
1000
0001
0100
0000
0110
0000
,
0010
1000
0100
1100
1000
0100
0010
0001
,
0010
0001
1001
1000
0010
0100
0001
1000
,
0010
0000
0100
0000
0001
1000
0001
0000
0000
0000
0102
0000
0000
0000
0020
0000
,
0003
0000
0130
0000
1000
0010
0100
0000
0001
0000
1000
0000
0010
0000
0011
0000
,
0010
1010
0010
1000
0100
1000
0010
0100
,
0001
0010
0001
1000
0010
0100
0001
0010
,
0100
1000
0001
1001
0000
0101
0000
0110
,
0000
0000
1001
0000
0001
0010
0100
0000
1000
0000
0010
0000
1000
0000
0001
0000
,
0100
0001
0010
2200
3000
0310
0220
0000
,
0030
0310
0002
0000
0103
0010
1000
0001
,
0010
0001
0100
1010
1000
0100
0010
0001
,
1000
0000
0100
0000
0010
0001
1000
0000
0010
0000
0100
0000
1000
0000
1100
0000
,
0100
0101
0001
0011
0100
1000
0100
0010
,
0001
0000
1000
0000
0100
0010
0001
0000
1000
0000
0010
0000
1000
0000
0001
0000
,
0100
1000
0100
0220
0030
0301
2002
0000
,
0003
0000
3001
0000
0100
0010
0100
0000
0001
0000
1000
0000
0100
0000
1000
0000
,
0010
0001
0100
2002
0000
0000
0000
0000
,
0000
0000
0000
0000
,
3003
0000
0000
0000
;

//---------------dance-single - Copied from----------------
#NOTES:
     dance-single:
     Copied from:
     Medium:
     10:
     0.516,0.607,0.232,0.528,0.000:
0000
0100
0001
1000
0010
0200
0000
0000
,
0000
0000
0002
0000
,
0300
1003
0010
0100
0001
2000
0000
3200
,
0000
0320
0000
0031
2000
0000
0000
0000
,
3010
0100
0001
0010
0100
0020
0000
0000
,
0000
0000
0000
0031
0200
0000
0000
0000
,
0310
1000
0001
0010
0100
1000
0000
1100
,
0000
0110
0000
0010
0001
2002
0000
0000
,
3003
0100
0001
1000
0010
0200
0000
0310
,
0020
0000
0000
1030
2000
0000
0000
0000
,
0000
3001
1000
0010
0001
0020
0000
0130
,
2000
0000
0000
3100
0002
0000
0000
0000
,
0000
0103
0001
0010
1000
0020
0000
0031
,
0020
0000
0000
0130
2000
0000
0000
0000
,
0000
3100
0100
0010
0010
0002
0000
1003
,
2000
0000
0000
3001
0100
0020
0000
0000
,
0000
1030
0001
0100
0010
0100
0001
0001
,
2000
0000
3010
0100
0001
0000
1000
0010
,
0100
0000
0010
0000
1001
0000
1000
0001
,
1000
0000
0010
0100
0010
0000
0100
0100
,
0000
0010
0010
0100
0100
0010
1000
0001
,
1000
0000
0100
0010
0001
0000
0010
0100
,
1000
0000
1001
0000
1000
0001
0100
0001
,
0020
0230
1300
1100
,
0100
0010
0001
0000
0101
0000
0100
0010
,
2000
0000
3010
1000
0001
0000
0002
2000
,
0000
3003
0100
0000
0110
0000
0010
0100
,
0010
0000
1000
0001
0010
0000
0100
2000
,
0000
3010
0010
0100
0100
0000
0001
0100
,
0010
0000
1000
0010
0100
0000
0001
1000
,
0010
0000
0010
1000
0010
1000
0001
0010
,
0200
0000
0320
0000
0031
0010
0100
0010
,
0002
0000
0203
0000
0320
0000
0000
1030
,
2000
0000
0000
3001
0002
0000
0013
0100
,
0000
0100
1000
0000
2200
0000
3300
0010
,
0002
0000
0000
0013
0020
0000
0031
2000
,
0000
3010
0200
0000
0302
0000
0000
0103
,
0200
0000
0000
0310
0020
0000
1030
0001
,
0000
0001
0100
0000
0100
0010
0100
0010
,
1000
0001
0200
0000
0000
0310
0010
1000
,
0001
0100
0001
0100
0020
0000
0000
0000
,
0000
0000
0000
2000
0000
0000
0000
0030
,
3001
0100
0010
1000
0002
0000
0023
0000
,
0230
0000
1300
0002
0000
0000
0000
0103
,
0010
1000
0100
0010
0200
0000
0000
0000
,
0000
0000
1300
0020
0000
0000
0000
0130
,
0001
1000
0100
0010
0001
0000
0011
0000
,
0110
0000
0100
1000
2002
0000
0000
3003
,
0010
1000
0001
0100
0020
0000
0130
0200
,
0000
0000
0301
0002
0000
0000
0000
0000
,
1003
0001
0100
1000
0200
0000
0310
0002
,
0000
0000
0013
2000
0000
0000
0000
0000
,
3010
1000
0100
0001
0200
0000
1300
0200
,
0000
0000
0310
0002
0000
0000
0000
0000
,
0013
0010
0100
0100
2000
0000
3001
0002
,
0000
0000
1003
0010
0200
0000
0000
0000
,
0301
1000
0010
1000
0001
0001
1000
0002
,
0000
0103
0010
1000
0000
0001
0100
0010
,
0000
0100
0000
1001
0000
0001
1000
0001
,
0000
0100
0010
0100
0000
0010
0010
0000
,
0100
0100
0010
0010
0100
0001
1000
0001
,
0000
0010
0100
1000
0000
0100
0010
0001
,
0000
1001
0000
0001
1000
0010
1000
0100
,
0010
0001
0010
0100
0000
1100
0000
0100
,
0010
0001
0000
1001
0000
0010
0100
0002
,
0000
0103
0001
1000
0000
2000
0002
0000
,
3003
0010
0000
0110
0000
0100
0010
0100
,
0000
0001
1000
0100
0000
0010
0002
0000
,
0103
0100
0010
0010
0000
1000
0010
0100
,
0000
0001
0100
0010
0000
1000
0001
0100
,
0000
0100
0001
0100
0001
1000
0100
0020
,
0000
0230
0000
1300
0100
0010
0100
2000
,
0000
3020
0000
0230
0000
0000
0301
0002
,
0000
0000
1003
2000
0000
3100
0010
0000
,
0010
0001
0000
0022
0000
0033
0100
2000
,
0000
0000
3100
0200
0000
1300
0002
0000
,
0103
0020
0000
2030
0000
0000
3010
0020
,
0000
0000
0130
0200
0000
0301
1000
0000
,
1000
0010
0000
0010
0100
0010
0100
0001
,
1000
0020
0000
0000
0130
0100
0001
1000
,
0001
0010
0100
1100
1000
0100
0010
0001
,
1000
0100
0010
0001
1000
0100
0010
0001
,
0010
0100
1000
0200
0000
0320
0000
0032
,
0000
1003
0010
1000
0010
1000
0001
0100
,
0001
0010
0100
1000
0010
0100
0010
0100
,
0010
0100
0001
1000
0001
0010
0001
1000
,
0001
0010
0001
1000
0000
0110
0000
1001
,
0000
0101
0001
1000
0020
0000
0000
0130
,
0010
1000
0001
0010
0000
0110
0000
1100
,
0000
1000
0001
1000
0000
1010
0000
0101
,
0001
0010
0100
1000
0000
1010
0000
0110
,
0000
0101
0001
1000
0010
1000
0001
0100
,
0001
1000
0100
0010
0000
0011
0000
0110
,
0000
1100
0000
0110
0000
1001
0000
0100
,
0001
1000
0010
0100
0000
1010
0000
0101
,
0000
1001
0000
1000
0001
0010
0100
1000
,
0100
0010
0001
0100
0100
0100
0100
0100
,
0100
0100
0100
0010
0010
0010
0010
1000
,
0001
1000
0100
2200
3300
0022
0033
2002
,
3003
0010
0100
0010
1000
0100
0010
0100
,
1000
0010
0100
0200
0000
0302
0000
2000
,
0003
3010
1000
0001
1000
0200
0010
0010
,
0010
0010
0310
0002
0000
2003
0000
3020
,
0000
0130
0010
1000
0000
1010
1000
0010
,
0100
0001
1000
1001
0000
0101
0000
0110
,
0000
1001
0001
0100
0000
0110
0000
0001
,
0100
0001
0010
0200
0000
1300
0020
0000
,
0030
0100
0001
1000
0000
1001
0000
0001
,
0001
0001
0001
2000
0000
3010
0200
0000
,
0301
1000
0001
1000
0000
1010
0000
0100
,
0100
0100
0010
0010
0000
0100
0200
0000
,
0000
0301
1000
0010
0000
1010
0000
0010
,
0100
0010
1000
0002
0000
1003
2000
0000
,
0000
3001
0100
0100
0000
0110
0000
0001
,
1000
0001
0100
2002
0000
0000
0000
0000
,
0000
0000
0000
0000
,
3003
0000
0000
0000
;

//---------------dance-single - Copied from Copied f----------------
#NOTES:
     dance-single:
     Copied from Copied f:
     Easy:
     6:
     0.419,0.449,0.191,0.569,0.000: // measure 1
0000
0010
0000
0010
0000
0200
0000
0000
,  // measure 2
0000
0000
0020
0000
,  // measure 3
0330
1000
0000
0001
0000
2000
0000
3002
,  // measure 4
0000
0203
0000
0301
2000
0000
0000
0000
,  // measure 5
0000
3010
0000
0100
0000
0020
0000
0000
,  // measure 6
0000
0000
0000
0130
0200
0000
0000
0000
,  // measure 7
0301
1000
0000
0010
0000
1000
0000
0100
,  // measure 8
0000
0010
0000
0002
1000
2003
0000
0000
,  // measure 9
3000
0010
0000
0100
0000
0020
0000
0130
,  // measure 10
0100
0000
0000
0010
0020
0000
0000
0000
,  // measure 11
0000
0130
0000
0001
0000
0020
0000
0130
,  // measure 12
2000
0000
0000
3100
0020
0000
0000
0000
,  // measure 13
0000
0031
0000
0010
0000
0200
0000
1300
,  // measure 14
0001
0000
0000
0001
2000
0000
0000
0000
,  // measure 15
0000
3100
0000
0100
0000
0020
0000
0031
,  // measure 16
2000
0000
0000
3001
0100
0020
0000
0000
,  // measure 17
0000
1030
1000
1000
1000
2000
3001
0000
,  // measure 18
0001
0000
0100
0010
0100
0000
0010
0000
,  // measure 19
0010
0100
1001
0010
,  // measure 20
0100
0000
0001
1000
0001
0000
0100
0000
,  // measure 21
0100
0000
0010
0000
0010
0000
1000
0001
,  // measure 22
1000
0000
0010
0000
0010
0000
0100
1000
,  // measure 23
0100
0110
0010
0001
,  // measure 24
0020
0230
1300
1100
,  // measure 25
0100
0110
1001
0100
,  // measure 26
0200
0000
0310
1000
0001
0000
0200
0000
,  // measure 27
0010
0300
0100
0000
0110
0000
0010
0100
,  // measure 28
0010
1000
0001
1000
,  // measure 29
0010
0100
1001
0001
,  // measure 30
1000
0000
0010
0000
0100
0000
0001
1000
,  // measure 31
0100
0010
0010
0100
,  // measure 32
0200
0320
0031
0010
,  // measure 33
0002
0000
0203
0000
0320
0000
0000
0130
,  // measure 34
0200
0000
0000
0301
0002
0000
1003
2000
,  // measure 35
0000
3010
0020
0000
2030
0000
0000
3001
,  // measure 36
0002
0000
0000
0103
0200
0000
0310
0020
,  // measure 37
0000
1030
2000
0000
3002
0000
0000
0013
,  // measure 38
0020
0000
0000
0130
0200
0000
1300
2000
,  // measure 39
0000
3001
0002
0000
0103
0000
0010
0000
,  // measure 40
1000
0000
0200
0000
0000
0300
0010
0000
,  // measure 41
0100
0100
0020
0000
,  // measure 42
0000
0000
0000
0200
0000
0000
0000
0330
,  // measure 43
0001
1000
0002
2003
,  // measure 44
3020
0000
1030
0002
0000
0000
0000
0000
,  // measure 45
0103
0010
0200
0000
,  // measure 46
0000
0000
0310
0020
0000
0000
0000
1030
,  // measure 47
0001
0100
0001
0010
,  // measure 48
0100
0000
2000
0001
3002
0000
0000
0003
,  // measure 49
0100
0000
0010
0000
0200
0000
0310
0010
,  // measure 50
0000
0000
0100
0200
0000
0000
0000
0000
,  // measure 51
0310
0000
1000
0000
0200
0000
0310
0002
,  // measure 52
0000
0000
0013
0200
0000
0000
0000
0000
,  // measure 53
1300
0000
0100
0000
0020
0000
0031
1000
,  // measure 54
0000
0000
1000
0002
0000
0000
0000
0000
,  // measure 55
0013
0000
0010
0000
0200
0000
1300
0002
,  // measure 56
0000
0000
1003
0010
0200
0000
0000
0000
,  // measure 57
0301
0001
0001
0001
0002
1003
0000
1000
,  // measure 58
0000
0010
0100
0010
0000
0100
0000
0100
,  // measure 59
0000
0010
0000
1001
0000
0100
0000
0010
,  // measure 60
0000
1000
0001
1000
0000
0010
0000
0010
,  // measure 61
0000
0100
0000
0100
0000
0001
1000
0001
,  // measure 62
0000
0100
0000
0100
0000
0010
0001
0010
,  // measure 63
0000
0110
0000
0100
0000
1000
0000
0200
,  // measure 64
0000
0320
0000
0031
0000
0011
0000
0010
,  // measure 65
0000
0110
0000
1001
0000
0010
0000
0020
,  // measure 66
0000
0130
0001
1000
0000
0020
0000
0100
,  // measure 67
0030
0010
0000
0110
0000
0100
0010
0100
,  // measure 68
0000
0001
0000
1000
0000
0001
0000
0100
,  // measure 69
0000
0010
0000
1001
0000
1000
0000
0001
,  // measure 70
0000
0100
0000
0010
0000
1000
0001
0010
,  // measure 71
0000
0100
0000
0100
0000
0010
0000
0020
,  // measure 72
0000
0230
0000
1300
0000
0100
0000
2000
,  // measure 73
0000
3020
0000
0230
0000
0000
0310
0020
,  // measure 74
0000
0000
1030
2000
0000
3001
0002
0000
,  // measure 75
0103
0200
0000
0302
0000
0000
1003
2000
,  // measure 76
0000
0000
3010
0020
0000
0130
0200
0000
,  // measure 77
0301
0002
0000
2003
0000
0000
3100
0200
,  // measure 78
0000
0000
0310
0020
0000
0031
0002
0000
,  // measure 79
1003
2000
0000
3010
0000
0100
0000
0001
,  // measure 80
0000
0020
0000
0000
0030
0100
0000
1000
,  // measure 81
0001
1000
0001
0200
0000
0010
0000
0010
,  // measure 82
0000
0010
0000
0010
0000
0010
0300
1000
,  // measure 83
0000
0001
0000
2000
0000
3002
0000
0203
,  // measure 84
0000
0301
2000
0010
0000
0010
0000
3010
,  // measure 85
0000
0100
0000
0020
0000
1000
0000
1000
,  // measure 86
0000
0130
0200
0000
0000
0000
0301
1000
,  // measure 87
0000
0010
0000
1000
0000
0100
0000
0010
,  // measure 88
0000
0002
1000
2003
0000
0000
3000
0010
,  // measure 89
0000
0100
0000
0020
0000
0130
0000
0100
,  // measure 90
0000
0010
0000
0010
0000
1001
0000
0100
,  // measure 91
0000
0101
0000
0020
0000
0130
0000
1000
,  // measure 92
0000
0100
0000
0010
0000
1010
0000
1000
,  // measure 93
0000
1001
0000
0200
0000
1300
0000
0001
,  // measure 94
0000
0001
0000
1000
0000
1000
0000
0010
,  // measure 95
0000
0100
0000
0110
0000
0001
0000
1001
,  // measure 96
0000
1000
0000
0020
0000
0000
0000
1030
,  // measure 97
1000
1000
1000
1000
0001
0001
0001
0001
,  // measure 98
0001
0001
0001
0100
0100
0100
0100
0010
,  // measure 99
1000
0001
0100
0220
0330
1001
0000
1001
,  // measure 100
0000
0110
0000
0110
0000
0010
0000
2000
,  // measure 101
0000
3002
0000
0203
0000
0302
0000
2000
,  // measure 102
0003
3010
0000
0100
0000
0010
0000
0010
,  // measure 103
0000
0220
0330
1001
0000
1010
0000
0101
,  // measure 104
0000
0100
0000
1000
0000
1010
0000
0010
,  // measure 105
0000
0100
0000
1001
0000
0101
0000
0110
,  // measure 106
0000
1001
0001
0100
0000
0110
0000
0002
,  // measure 107
0000
0023
0000
0230
0000
1300
2000
0000
,  // measure 108
0000
3001
0001
1000
0000
1001
0000
0110
,  // measure 109
0000
1010
0000
0200
0000
0301
0020
0000
,  // measure 110
0000
0130
0200
0000
0000
0000
0000
1300
,  // measure 111
0000
0100
0000
0010
0000
0001
2000
0000
,  // measure 112
0000
3001
0100
0010
0000
1001
0000
0010
,  // measure 113
0000
0010
0000
0220
0330
1000
2000
0000
,  // measure 114
0000
3001
0100
0100
0000
0110
0000
0010
,  // measure 115
1000
0001
1000
2002
0000
0000
0000
0000
,  // measure 116
0000
0000
0000
0000
,  // measure 117
3003
0000
0000
0000
;
