#TITLE:POSSESSION(Gowrock Remix);
#SUBTITLE:;
#ARTIST:Gowrock;
#TITLETRANSLIT:;
#SUBTITLETRANSLIT:;
#ARTISTTRANSLIT:;
#GENRE:;
#CREDIT:;
#BANNER:;
#BACKGROUND:;
#LYRICSPATH:;
#CDTITLE:;
#MUSIC:POSSESSION(Gowrock Remix).mp3;
#OFFSET:-0.100000;
#SAMPLESTART:45.918442;
#SAMPLELENGTH:12.000000;
#SELECTABLE:YES;
#BPMS:0.000000=158.000000
,167.500000=79.000000
,169.500000=158.000000
,199.500000=316.000000
,267.500000=158.000000
;
#STOPS:103.000000=0.200000,
274.500000=0.200000
;
#BGCHANGES:;
#KEYSOUNDS:;
#ATTACKS:;

//---------------dance-single - ----------------
#NOTES:
     dance-single:
     :
     Hard:
     17:
     1.113575,1.141400,0.277519,0.106110,1.730415,955.000000,921.000000,34.000000,13.000000,0.000000,0.000000,1.113575,1.141400,0.277519,0.106110,1.730415,955.000000,921.000000,34.000000,13.000000,0.000000,0.000000:
0000
0000
0000
0000
,
1000
0000
0001
0100
0000
0001
0100
0000
0010
0000
1000
0001
0000
1000
0001
0000
,
0100
0000
0010
0000
0000
0010
0000
0000
0010
0000
0000
0010
0000
0010
1000
0001
,
1000
0000
0010
0100
0000
0010
0100
0000
0001
0000
1000
0010
0000
1000
0010
0000
,
0100
0000
0001
0000
0000
0001
0000
0000
0001
0000
0000
0001
0000
0001
0010
0100
,
1000
0000
0001
0010
0000
0100
1000
0000
0010
0000
0100
0001
0000
1000
0010
0000
,
1000
0000
0100
0000
0000
0100
0000
0000
0100
0000
0000
0100
0000
0100
1000
0001
,
0010
0000
0001
0100
0000
0100
0001
0000
1000
0000
0001
0010
0000
0010
0001
0000
,
0100
0000
0010
0000
0000
1000
0000
0000
0001
0000
0000
0100
0000
0010
1000
0001
,
1000
0000
0010
0100
0000
0100
0010
0000
1000
0000
0001
0010
0000
0010
0100
0000
,
1000
0000
0001
0000
0000
0010
0000
0000
0100
0000
0000
1000
0000
0001
0010
0100
,
1000
0000
0001
0010
0000
0010
0100
0000
1000
0000
0001
1000
0000
1000
0010
0000
,
0100
0000
0000
0000
0000
0000
0001
0000
0000
0000
0000
0000
0000
0000
0000
0010
0000
0000
0000
0000
0000
0000
0000
0000
0001
0000
0000
0000
0010
0000
0000
0000
0100
0000
0000
0000
1000
0000
0000
0001
0000
0000
0100
0000
0000
0010
0000
0000
,
2002
0000
0000
0000
0000
0000
0000
3003
,
0100
0000
0010
0100
0000
0001
1000
0001
1000
0100
0000
0010
0000
0001
0010
0100
,
1000
0010
1000
0100
0000
0010
0100
1000
0100
1000
0000
0100
0000
0010
0001
0010
,
0001
0000
1000
0010
0000
0100
0010
1000
0001
1000
0000
0001
0000
0010
0100
1000
,
0100
0010
0001
1000
0000
0010
0100
0001
0010
0100
0010
0100
1000
0000
0001
0000
,
0001
0000
0100
0010
0000
1000
0001
1000
0001
0010
0000
0100
0000
1000
0100
0010
,
0001
0100
0001
0010
0000
0100
0010
0001
0010
0001
0000
0010
0000
0100
1000
0100
,
1000
0000
0001
0100
0000
0010
0100
0001
1000
0001
0000
1000
0000
0100
0010
0001
,
0010
0100
1000
0001
0000
0100
0010
1000
0100
0000
0100
0000
0100
0000
0010
0000
,
1001
1000
0100
0010
0110
0100
1000
0001
,
1001
1000
0010
0100
0110
0010
1000
0001
,
0101
1000
1100
0001
0101
1000
1100
0001
,
1000
0000
0000
0000
0000
0000
0000
0000
0000
0000
0000
0000
0001
0000
0000
0000
0000
0000
0000
0000
0000
0000
0000
0000
1000
0000
0000
0000
0000
0000
0000
0000
0000
0000
0000
0000
0001
0000
0000
0000
0000
0000
0000
0000
0000
0000
0000
0000
1000
0000
0000
0000
0000
0000
0000
0000
0000
0000
0000
0000
0001
0000
0000
0000
0000
0000
0000
0000
0000
0000
0000
0000
1000
0000
0000
0000
0000
0000
0000
0000
0000
0000
0000
0000
0100
0000
0000
0000
0000
0000
0000
0000
0000
0000
0000
0000
0010
0000
0000
0000
0000
0000
0000
0000
0000
0000
0000
0000
0000
0000
0000
0000
0001
0000
0000
0000
0000
0000
0000
0000
0000
0000
0000
0000
0000
0000
0000
0000
0100
0000
0000
0000
0000
0000
0000
0000
0000
0000
0000
0000
0000
0000
0000
0000
0020
0000
0000
0000
0000
0000
0030
0000
0000
0000
0000
0000
0000
0000
0000
0000
0000
0000
0000
0000
0000
0000
0000
0000
1001
0000
0000
0000
0000
0000
0000
0000
0000
0000
0000
0000
0000
0000
0000
0000
0000
0000
0000
0000
0000
0000
0000
0000
,
1000
0010
0000
1000
0001
1000
0001
0010
0000
0100
0000
1000
0100
0010
0001
0100
,
0001
0010
0000
0100
0010
0001
1000
0001
0000
0010
0000
0100
1000
0010
1000
0000
,
0001
0100
0000
0010
0100
0001
1000
0010
0000
1000
0000
0100
0010
0001
0010
0100
,
1000
0001
0000
0100
0010
1000
0100
0010
0100
1000
0001
0000
1000
0000
1001
0000
,
0001
1000
0000
0001
1000
0001
1000
0100
0000
0010
0000
0001
0010
0100
1000
0010
,
1000
0100
0000
0010
0100
1000
0100
1000
0000
0100
0000
0010
0001
0100
0001
0000
,
1000
0010
0000
0100
0010
1000
0001
1000
0000
0001
0000
0010
0100
1000
0100
0010
,
0001
1000
0000
0010
0100
0001
0010
0000
0010
0000
0010
0000
0001
0000
0100
1000
,
0100
0010
0100
1000
0100
0001
0010
0100
0010
0001
0010
0100
0010
0001
1000
0010
,
1000
0100
1000
0010
1000
0100
0010
1000
0010
0001
0010
1000
0010
0001
0100
1000
,
0100
0001
0100
1000
0100
0001
0010
0100
0010
0001
0010
0100
0010
0001
0100
0010
,
0100
0001
0100
0010
0100
0001
1000
0100
1000
0010
1000
0100
1000
0010
0100
0001
,
0100
0010
0100
0001
0100
0010
1000
0100
1000
0001
1000
0100
1000
0001
0010
0100
,
0010
0001
0010
0100
0010
0001
0100
0010
0100
1000
0100
0010
0100
1000
0100
0001
,
0010
1000
0010
0001
0010
0100
1000
0010
1000
0100
1000
0010
1000
0001
0100
1000
,
0100
0000
0000
0001
0000
0000
0100
0000
0000
1000
0000
0000
0100
0000
0000
0001
0000
0000
0100
0000
0000
0000
0010
0000
0000
0000
0100
0000
0000
0000
0010
0000
0000
0000
0000
0000
0000
0000
0000
0000
0000
0000
2000
0000
0000
3200
0000
0000
,
0320
0000
0000
0032
0000
0000
2003
0000
0000
3200
0000
0000
0320
0000
0000
0032
0000
0000
0103
0000
0000
0000
0010
0000
0000
0000
0100
0000
0000
0000
0001
0000
0000
0000
1000
0000
0000
0000
0001
0000
0000
0000
0010
0000
0000
0000
0100
0000
,
0000
0010
0000
0100
0000
1000
0000
0100
0000
0010
0000
0001
0000
0010
0000
0100
0000
1000
0000
0010
0000
0100
0000
0001
,
0000
0100
0000
0010
0000
1000
0000
0010
0000
0100
0000
0001
0000
1000
0000
0010
0000
0100
0000
0001
0000
0010
0000
0001
,
0000
1000
0000
0100
0000
1000
0000
0010
0000
0100
0000
0010
0000
1000
0000
0100
0000
1000
0000
0100
0000
0010
0000
0100
,
0000
0010
0000
0001
0000
0010
0000
0001
0000
1000
0000
0100
0000
0001
0000
1000
0000
0010
0000
0001
0000
0100
0000
0010
,
0000
0100
0000
0001
0000
0100
0000
0010
0000
1000
0000
0010
0000
0001
0000
1000
0000
0100
0000
0001
0000
1000
0000
0100
,
0000
1000
0000
0010
0000
1000
0000
0100
0000
0001
0000
0100
0000
1000
0000
0001
0000
0100
0000
1000
0000
0100
0000
0010
,
0000
0100
0000
1000
0000
0100
0000
0010
0000
1000
0000
0010
0000
0001
0000
1000
0000
0100
0000
0001
0000
0010
0000
0000
,
0100
0000
0000
0010
0000
0000
0001
0000
0000
1000
0000
0001
0000
1000
0000
0001
0000
1000
0000
0001
0000
1000
0000
0000
,
0010
0100
0010
1000
0100
1000
0001
0010
,
0100
0000
0000
0010
0000
0000
0001
0000
0000
1000
0000
0000
0010
0000
0000
0100
0000
0001
0000
0100
0000
0001
0000
0000
,
0010
0100
1000
0010
1000
0001
0100
0001
,
1000
0000
0000
0100
0000
0000
1000
0000
0000
0001
0000
0000
0010
0000
0000
0100
0000
1000
0000
0100
0000
1000
0000
0000
,
0001
0100
0001
1000
0100
0010
0001
0010
,
0100
0000
0000
1000
0000
0000
0001
0000
0000
1000
0000
0000
0001
0000
0000
0100
0000
0010
0000
0100
0000
0010
0000
0000
,
1000
0001
0010
0001
1000
0100
1000
0010
,
0100
0000
0000
0001
0000
0000
0010
0000
0000
0100
0000
0000
0010
0000
0000
0001
0000
0100
0000
0001
0000
0100
0000
0000
,
0010
1000
0010
0100
0001
0100
0001
0010
,
0100
0000
0000
0010
0000
0000
0001
0000
0000
1000
0000
0000
0100
0000
0000
1000
0000
0010
0000
1000
0000
0010
0000
0000
,
0100
0001
0100
0010
1000
0010
0100
0001
,
0010
0000
0000
0100
0000
0000
1000
0000
0000
0001
0000
0000
1000
0000
0000
0010
0000
0100
0000
0010
0000
0100
0000
0000
,
0001
0000
0000
1000
0000
0000
0100
0000
0000
0010
0000
0000
0001
0000
0000
0010
0000
0001
0000
0010
0000
0001
0000
0000
,
1000
0000
0000
0010
0000
0000
1000
0000
0000
0001
0000
0000
0100
0000
0000
0010
0000
1000
0000
0010
0000
1000
0000
0000
,
0001
0000
0000
0100
0000
0010
0000
0100
0000
0010
0000
0000
1000
0000
0000
0001
0000
0100
0000
0001
0000
0100
0000
0000
,
0010
0000
0000
1000
0000
0100
0000
1000
0000
0100
0000
0000
0010
0000
0000
0001
0000
1000
0000
0001
0000
0100
0000
0000
,
0010
0100
0000
0001
1000
0100
1000
0001
0000
0010
0000
0001
0010
0100
1000
0010
,
0100
0010
0000
0100
0001
1000
0100
0010
0000
0100
0000
0000
0010
0000
0001
0100
,
0000
0001
1000
0001
1000
0100
0000
0010
0000
0001
0010
0100
1000
0010
1000
0100
,
0000
0010
0100
1000
0001
1000
0000
0100
0000
0010
0001
0100
0001
0000
1000
0010
,
0000
0100
0010
1000
0001
0100
0000
0001
0000
0010
0100
1000
0100
0010
0001
1000
,
0000
0010
0100
0001
0010
0100
0010
0001
1000
0000
0001
0000
1001
0000
1000
0001
,
0000
1000
0001
1000
0001
0010
0000
0100
0000
1000
0100
0010
0001
0100
0001
0010
,
0000
0100
0010
0001
0010
0001
0000
0010
0000
0100
1000
0010
1000
0000
0001
0100
,
0000
0010
0100
0001
1000
0001
0000
1000
0000
0100
0010
0001
0010
0100
1000
0001
,
0000
0100
0010
1000
0001
0000
0001
0000
0001
0000
1000
0000
1010
0000
0000
1001
,
0000
0000
1100
0000
0000
0110
0000
0000
0011
0000
1100
0000
0011
0000
0000
1001
,
0000
0000
0101
0000
0000
0110
0000
0000
1010
0000
1001
0000
1100
0000
0000
0110
,
0000
0000
0011
0000
0000
1001
0000
0000
1100
0000
0011
0000
0101
0000
0000
0110
,
0000
0000
1010
0000
0000
1100
0000
0000
0100
1000
0100
0010
0001
1000
0001
0100
,
0001
1000
0001
0100
0010
1000
0010
0100
0010
1000
0010
0100
0001
0010
0001
0100
,
0001
1000
0001
0010
0100
1000
0100
0010
0100
1000
0100
0010
0001
0100
0001
0010
,
0001
0100
0001
1000
0010
0100
0010
1000
0010
0100
0010
1000
0100
0010
0100
1000
,
0100
0000
0000
0010
0000
0000
0100
0000
0000
1000
0000
0000
0001
0000
0000
0000
1000
0000
0000
0000
0002
0000
0000
0000
2000
0000
0000
0000
0000
0000
0000
0000
0000
0000
0000
0000
3003
0000
0000
0000
0000
0000
0000
0000
0000
0000
0000
0000
;

//---------------dance-single - ----------------
#NOTES:
     dance-single:
     :
     Medium:
     14:
     0.692632,0.795521,0.204058,0.081623,0.518308,594.000000,569.000000,25.000000,10.000000,0.000000,0.000000,0.692632,0.795521,0.204058,0.081623,0.518308,594.000000,569.000000,25.000000,10.000000,0.000000,0.000000:
0000
0000
0000
0000
,
1000
0000
0000
0100
0000
0000
0100
0000
0010
0000
0000
0001
0000
0000
0001
0000
,
0100
0000
0010
0000
0000
0010
0000
0000
1000
0000
0000
1000
0000
0000
0001
0000
,
0010
0000
0000
0100
0000
0000
0100
0000
1000
0000
0000
0001
0000
0000
0001
0000
,
0100
0000
0010
0000
0000
1000
0000
0000
1000
0000
0000
0001
0000
0000
0001
0000
,
0010
0000
0000
0100
0000
0000
0100
0000
0010
0000
0000
0001
0000
0000
0001
0000
,
1000
0000
0001
0000
0000
0100
0000
0000
0100
0000
0000
0010
0000
0000
0010
0000
,
1000
0000
0000
0100
0000
0000
0100
0000
1000
0000
0000
0001
0000
0000
0001
0000
,
1000
0000
0010
0000
0000
0010
0000
0000
0100
0000
0000
0100
0000
0000
0001
0000
,
1000
0000
0000
0100
0000
0000
0100
0000
0010
0000
0000
0001
0000
0000
0001
0000
,
1000
0000
0100
0000
0000
0100
0000
0000
1000
0000
0000
1000
0000
0000
0001
0000
,
0100
0000
0000
0010
0000
0000
0010
0000
1000
0000
0000
0100
0000
0000
0100
0000
,
0010
0000
0001
0000
0000
0001
0000
0000
2000
0000
0000
0000
3020
0000
0000
0000
,
0200
0000
0000
0000
0000
0000
0000
0330
,
0010
0000
0000
1000
0000
0000
1000
0000
0100
0000
0000
0010
0000
0000
0010
0000
,
0001
0000
0000
1000
0000
0000
1000
0000
0010
0000
0000
0100
0000
0000
0100
0000
,
0001
0000
0000
0010
0000
0000
0010
0000
0100
0000
0000
1000
0000
0000
1000
0000
,
0001
0000
0000
0100
0000
0000
0100
0000
0001
0000
0100
0000
1000
0000
0100
0000
,
0101
0000
0000
0001
0000
0000
0001
0000
0010
0000
0000
0100
0000
0000
0100
0000
,
1000
0000
0000
0001
0000
0000
0001
0000
0100
0000
0000
0010
0000
0000
0010
0000
,
1000
0000
0000
0100
0000
0000
0100
0000
0010
0000
0000
0001
0000
0000
0001
0000
,
1000
0000
0000
0010
0000
0000
0010
0000
1000
0000
0010
0000
0001
0000
0010
0000
,
1010
1000
0001
1000
1100
0100
0010
0001
,
0011
0010
0100
1000
1100
0100
0010
0001
,
1001
0010
1001
0100
1001
0010
1001
0100
,
0010
1000
0001
0010
0200
0000
1300
0100
,
1000
0001
0000
0000
0001
0000
0010
0000
0010
0100
0000
0000
0100
0000
1000
0000
,
1000
0001
0000
0000
0001
0000
0100
0000
0100
0010
0000
0000
0010
0000
1000
0000
,
1000
0100
0000
0000
0100
0000
0010
0000
0010
0001
0000
0000
0001
0000
1000
0000
,
1000
0010
0000
0000
0010
0000
1000
0000
0010
0000
0001
0000
0010
0000
1010
0000
,
0100
1000
0000
0000
1000
0000
0100
0000
0100
0010
0000
0000
0010
0000
0001
0000
,
0001
1000
0000
0000
1000
0000
0010
0000
0010
0100
0000
0000
0100
0000
0001
0000
,
0001
0010
0000
0000
0010
0000
0100
0000
0100
1000
0000
0000
1000
0000
0001
0000
,
0001
0100
0000
0000
0100
0000
0001
0000
0100
0000
1000
0000
0100
0000
0001
0000
,
0010
0000
0001
1000
0001
0000
0010
0000
0001
0000
0010
0100
0010
0000
0001
0000
,
0100
0000
0001
1000
0001
0000
0100
0000
0001
0000
0100
0010
0100
0000
0001
0000
,
0100
0000
0001
1000
0001
0000
0010
0000
0100
0000
0010
0001
0010
0000
0100
0000
,
1000
0000
0010
0100
0010
0000
1000
0000
0001
0000
1000
0100
1000
0000
0100
0000
,
1000
0000
0100
0010
0100
0000
0010
0000
0001
0000
0100
0001
0100
0000
0010
0000
,
1000
0000
0001
0100
0001
0000
0010
0000
0100
0000
0010
0001
0010
0000
0100
0000
,
0010
0000
0001
1000
0001
0000
0100
0000
0001
0000
0100
0010
0100
0000
0001
0000
,
0010
0000
0100
1000
0100
0000
0020
0000
0000
0000
0031
0000
0000
0000
2002
0000
,
0000
0000
0000
0000
0000
0000
3003
0000
0000
0100
0000
0000
0000
0000
0000
0001
0000
0000
0000
0000
0000
1000
0000
0010
,
0000
1000
0000
0010
0000
1000
0000
0010
0000
0100
0000
0000
0000
0000
0000
0001
0000
0000
0000
0000
0000
0010
0000
0100
,
0000
0010
0000
0100
0000
0010
0000
0100
0000
1000
0000
0000
0000
0000
0000
0010
0000
0000
0000
0000
0000
0100
0000
0001
,
0000
0100
0000
0001
0000
0100
0000
0001
0000
0010
0000
0000
0000
0000
0000
0100
0000
0000
0000
0000
0000
1000
0000
0100
,
0000
1000
0000
0100
0000
1000
0000
0100
0000
0010
0000
0000
0000
0000
0000
0001
0000
0000
0000
0000
0000
0100
0000
0010
,
0000
0100
0000
0010
0000
0100
0000
0010
0000
1000
0000
0000
0000
0000
0000
0001
0000
0000
0000
0000
0000
0100
0000
0001
,
0000
0100
0000
0001
0000
0100
0000
0001
0000
1000
0000
0000
0000
0000
0000
0100
0000
0000
0000
0000
0000
0010
0000
0001
,
0000
0010
0000
0001
0000
0010
0000
0001
0000
1000
0000
0000
0000
0000
0000
0010
0000
0000
0000
0000
0000
0200
0000
0000
,
0000
0000
0000
0000
0000
0000
0000
0310
,
0000
1000
0000
0001
0000
1000
0000
0100
,
0000
1000
0000
0010
0000
0100
0001
0100
,
0000
0010
0000
1000
0000
0100
0000
0010
,
0000
0001
0000
1000
0000
0001
1000
0001
,
0000
0010
0000
0100
0000
1000
0000
0010
,
0000
0100
0000
0001
0000
1000
0100
1000
,
0000
0100
0000
0010
0000
0001
0000
1000
,
0000
0010
0000
0100
0000
0001
0010
0001
,
0000
1000
0000
0100
0000
1000
0000
0010
,
0000
0100
0000
0001
0000
0100
0010
0100
,
0000
0010
0000
1000
0000
0100
0000
0010
,
0000
0001
0000
1000
0000
0001
1000
0001
,
0000
0100
0000
0010
0000
1000
0010
1000
,
0000
0001
0000
0010
0000
0100
1000
0100
,
0000
0010
0100
0010
0000
0001
0010
0001
,
0000
1000
0001
1000
0000
0001
1000
0010
,
0100
0001
0000
0000
0001
0000
0010
0000
0010
0100
0000
0000
0100
0000
1000
0000
,
1000
0001
0000
0000
0001
0000
0100
0000
0100
0010
0000
0000
0100
0000
0001
1000
,
0000
0000
1000
0000
0100
0000
0100
0010
0000
0000
0010
0000
0001
0000
0001
1000
,
0000
0000
1000
0000
0010
0000
0010
0100
0000
0000
0100
0000
0001
0000
0001
0010
,
0000
0000
0010
0000
0100
0000
0100
1000
0000
0000
1000
0000
0001
0000
0001
0100
,
0000
0000
0100
0000
0001
0000
1000
0000
0010
0000
0100
0000
1001
0000
0100
0001
,
0000
0000
0001
0000
0010
0000
0010
0100
0000
0000
0100
0000
1000
0000
1000
0001
,
0000
0000
0001
0000
0100
0000
0100
0010
0000
0000
0010
0000
1000
0000
1000
0100
,
0000
0000
0100
0000
0010
0000
0010
0001
0000
0000
0001
0000
1000
0000
1000
0010
,
0000
0000
0010
0000
1000
0000
0001
0000
0100
0000
0010
0000
0110
0000
0000
0101
,
0000
0000
0110
0000
0000
0101
0000
0000
0001
0000
0010
0000
0100
0000
0000
1100
,
0000
0000
0110
0000
0000
1100
0000
0000
0100
0000
0010
0000
0001
0000
0000
0101
,
0000
0000
1001
0000
0000
0101
0000
0000
0001
0000
1000
0000
0010
0000
0000
0110
,
0000
0000
0101
0000
0000
0110
0000
0000
0100
0000
0010
0000
1000
0000
0010
0000
,
1000
0001
1000
0000
0001
0000
0010
0000
0100
1000
0100
0000
0010
0000
0001
0000
,
1000
0010
1000
0000
0010
0000
0100
0000
0001
0100
0001
0000
0010
0000
0100
0000
,
1000
0100
1000
0000
0010
0000
1000
0000
0010
0100
0010
0000
0100
0000
0001
0000
,
1000
0001
1000
0000
0002
0000
0000
0000
2000
0000
0000
0000
3003
0000
0000
0000
;

//---------------dance-single - ----------------
#NOTES:
     dance-single:
     :
     Easy:
     6:
     0.420943,0.587994,0.163247,0.097948,0.000000,361.000000,341.000000,20.000000,12.000000,0.000000,0.000000,0.420943,0.587994,0.163247,0.097948,0.000000,361.000000,341.000000,20.000000,12.000000,0.000000,0.000000:
0000
0000
0000
0000
,
0001
1000
0001
0010
,
0100
1000
0100
0000
0010
0000
0001
0000
,
0100
0010
1000
0010
,
0100
0001
0100
0000
0010
0000
1000
0000
,
0010
0100
0001
0010
,
0100
1000
0100
0000
0010
0000
0001
0000
,
1000
0001
0100
0010
,
0100
0010
0100
0000
0001
0000
1000
0000
,
0001
1000
0100
1000
,
0001
0010
0001
0000
0010
0000
0100
0000
,
1000
0010
0100
0001
,
1000
0001
1000
0000
0001
0000
0200
0000
,
0020
0000
0000
0000
0000
0000
0000
0330
,
0100
0000
0000
0001
1000
0000
0000
1000
,
0001
0000
0000
0001
0010
0000
0000
0010
,
0100
0000
0000
0100
1000
0000
0000
1000
,
0100
0000
0000
0010
0001
0010
0001
0010
,
0001
0000
0000
0010
0100
0000
0000
0100
,
1000
0000
0000
1000
0100
0000
0000
0100
,
0010
0000
0000
0010
0001
0000
0000
0001
,
0100
0000
0000
0100
0010
0100
0010
0100
,
1001
0100
0110
0010
,
1001
0100
0110
0010
,
1001
1001
1001
1001
,
0010
0000
0001
0000
0200
0000
0310
0010
,
0000
1000
0000
0001
1000
0001
0000
0100
,
0000
0010
0000
0100
0010
0100
0000
0001
,
0000
1000
0000
0001
0010
0001
0000
0100
,
0000
0010
0000
1000
0001
1000
0001
1000
,
0000
0100
0000
0010
0100
0010
0000
0001
,
0000
1000
0000
0010
1000
0010
0000
0100
,
0000
0001
0000
1000
0001
1000
0000
0001
,
0000
0100
0000
0010
0100
0010
0100
0010
,
0000
1000
0000
0001
0100
0001
0000
0010
,
0000
0100
0000
1000
0100
1000
0000
0100
,
0000
0010
0000
0001
0100
0001
0000
1000
,
0000
0010
0000
1000
0001
1000
0000
0100
,
0000
0010
0000
0001
1000
0001
0000
0100
,
0000
0010
0000
0100
0010
0100
0000
0010
,
0000
1000
0000
0001
0100
0001
0000
1000
,
0000
0010
0000
0200
0000
0300
0000
2002
,
0000
0000
3003
0010
0000
1000
0000
0001
,
0000
0100
0000
0010
0000
1000
0000
0100
,
0000
0010
0000
0001
0000
0100
0000
0010
,
0000
1000
0000
0100
0000
0010
0000
0001
,
0000
0010
0000
0100
0000
1000
0000
0010
,
0000
0100
0000
0001
0000
1000
0000
0010
,
0000
1000
0000
0001
0000
0010
0000
0100
,
0000
1000
0000
0001
0000
0100
0000
0020
,
0000
0000
0000
0000
0000
0000
0000
0130
,
0000
0000
0000
0001
0000
0000
0000
1000
,
0000
0000
0000
0001
0000
0000
0000
0100
,
0000
0000
0000
0010
0000
0000
0000
1000
,
0000
0000
0000
0100
0000
0000
0000
0010
,
0000
0000
0000
0001
0000
0000
0000
1000
,
0000
0000
0000
0001
0000
0000
0000
0100
,
0000
0000
0000
0010
0000
0000
0000
1000
,
0000
0000
0000
0100
0000
0000
0000
0010
,
0000
0000
0000
0001
0000
0000
0000
0010
,
0000
0000
0000
0100
0000
0000
0000
1000
,
0000
0000
0000
0010
0000
0000
0000
0100
,
0000
0000
0000
0001
0000
0000
0000
1000
,
0000
0000
0000
0010
0000
0000
0000
1000
,
0000
0000
0000
0001
0000
0000
0000
0100
,
0000
0000
0000
0010
0000
0000
0000
1000
,
0000
0000
0000
0100
0000
0000
0000
0020
,
0000
0000
0000
0032
0000
0000
0000
2003
,
0000
0100
0000
0100
3100
0000
0010
0000
,
1000
0000
0100
0010
0100
0000
0010
0000
,
0001
0000
1000
0010
1000
0000
0001
0000
,
0100
0000
0010
1000
0010
0000
0100
0000
,
0001
0000
1000
0001
1000
0001
1000
0000
,
0010
0000
0100
0010
0100
0000
0001
0000
,
1000
0000
0100
0010
0100
0000
0010
0000
,
0001
0000
1000
0100
1000
0000
0010
0000
,
0100
0000
0001
1000
0001
0000
0110
0000
,
0000
0110
0000
0000
1001
0000
1001
0000
,
0000
0110
0000
0000
1010
0000
1010
0000
,
0000
1001
0000
0000
0101
0000
0101
0000
,
0000
0101
0000
0000
0100
0010
1000
0001
,
1000
0001
1000
0001
1000
0001
1000
0001
,
1000
0001
1000
0001
1000
0001
1000
0001
,
1000
0001
1000
0001
1000
0001
1000
0001
,
1000
0001
0200
0000
0020
0000
0330
0000
;

//---------------dance-single - ----------------
#NOTES:
     dance-single:
     :
     Beginner:
     3:
     0.194730,0.345879,0.073461,0.057136,0.000000,167.000000,158.000000,9.000000,7.000000,0.000000,0.000000,0.194730,0.345879,0.073461,0.057136,0.000000,167.000000,158.000000,9.000000,7.000000,0.000000,0.000000:
// measure 0
0000
0000
0000
0000
,  // measure 1
0001
0000
1000
0000
,  // measure 2
0010
0000
0100
0000
,  // measure 3
0010
0000
0001
0000
,  // measure 4
0010
0000
0100
0000
,  // measure 5
0100
0000
1000
0000
,  // measure 6
0010
0000
0100
0000
,  // measure 7
0001
0000
0010
0000
,  // measure 8
0010
0000
1000
0000
,  // measure 9
1000
0000
0010
0000
,  // measure 10
1000
0000
0100
0000
,  // measure 11
0001
0000
0010
0000
,  // measure 12
0001
0000
1000
0000
,  // measure 13
0200
0000
0000
0000
0000
0000
0000
0300
,  // measure 14
0010
0000
0001
0000
,  // measure 15
1000
0000
0100
0000
,  // measure 16
0010
0000
0001
0000
,  // measure 17
0010
0000
1000
1000
,  // measure 18
1000
0000
0010
0000
,  // measure 19
0001
0000
0010
0000
,  // measure 20
0100
0000
1000
0000
,  // measure 21
0010
0000
0100
0100
,  // measure 22
1001
0000
0110
0000
,  // measure 23
1001
0000
0110
0000
,  // measure 24
1000
1000
0001
0001
,  // measure 25
1000
0000
0020
0130
,  // measure 26
0000
0000
0000
1000
0000
0000
0000
0010
,  // measure 27
0000
0000
0000
0010
0000
0000
0000
1000
,  // measure 28
0000
0000
0000
1000
0000
0000
0000
0010
,  // measure 29
0000
0000
0000
0001
0000
0001
0000
0001
,  // measure 30
0000
0000
0000
0100
0000
0000
0000
1000
,  // measure 31
0000
0000
0000
0100
0000
0000
0000
0010
,  // measure 32
0000
0000
0000
0001
0000
0000
0000
1000
,  // measure 33
0000
0000
0000
0100
0000
0100
0000
0100
,  // measure 34
0000
0000
0000
1000
0000
0000
0000
0100
,  // measure 35
0000
0000
0000
0001
0000
0000
0000
0010
,  // measure 36
0000
0000
0000
1000
0000
0000
0000
0001
,  // measure 37
0000
0000
0000
0001
0000
0000
0000
0010
,  // measure 38
0000
0000
0000
1000
0000
0000
0000
0010
,  // measure 39
0000
0000
0000
0010
0000
0000
0000
0100
,  // measure 40
0000
0000
0000
1000
0000
0000
0000
0001
,  // measure 41
0000
0000
0000
0020
0000
0030
0000
2000
,  // measure 42
0000
0000
3000
0100
0000
0000
0000
1000
,  // measure 43
0000
0000
0000
0100
0000
0000
0000
0010
,  // measure 44
0000
0000
0000
1000
0000
0000
0000
0100
,  // measure 45
0000
0000
0000
0010
0000
0000
0000
1000
,  // measure 46
0000
0000
0000
0010
0000
0000
0000
0100
,  // measure 47
0000
0000
0000
1000
0000
0000
0000
0100
,  // measure 48
0000
0000
0000
1000
0000
0000
0000
0010
,  // measure 49
0000
0000
0000
1000
0000
0000
0000
0200
,  // measure 50
0000
0000
0000
0000
0000
0000
0000
0310
,  // measure 51
0000
0000
0000
0000
,  // measure 52
0000
0000
0000
0000
0000
0000
0000
0010
,  // measure 53
0000
0000
0000
0000
,  // measure 54
0000
0000
0000
0000
0000
0000
0000
0100
,  // measure 55
0000
0000
0000
0000
,  // measure 56
0000
0000
0000
0000
0000
0000
0000
0010
,  // measure 57
0000
0000
0000
0000
,  // measure 58
0000
0000
0000
0000
0000
0000
0000
0100
,  // measure 59
0000
0000
0000
0000
0000
0000
0000
0100
,  // measure 60
0000
0000
0000
0000
0000
0000
0000
0001
,  // measure 61
0000
0000
0000
0000
0000
0000
0000
0010
,  // measure 62
0000
0000
0000
0000
0000
0000
0000
0001
,  // measure 63
0000
0000
0000
0000
0000
0000
0000
0001
,  // measure 64
0000
0000
0000
0000
0000
0000
0000
0010
,  // measure 65
0000
0000
0000
0000
0000
0000
0000
0001
,  // measure 66
0000
0000
0000
0000
0000
0000
0000
0100
,  // measure 67
0000
0000
0000
1001
0000
0000
0000
0010
,  // measure 68
0000
0100
0000
0010
0000
0000
0100
0000
,  // measure 69
0000
0010
0000
0100
,  // measure 70
0000
0001
0000
1000
,  // measure 71
0000
0100
0000
0010
,  // measure 72
0000
0001
0001
0001
,  // measure 73
0000
0010
0000
1000
,  // measure 74
0000
0010
0000
0100
,  // measure 75
0000
0001
0000
0100
,  // measure 76
0000
1000
0000
0110
,  // measure 77
0000
0000
0000
1001
,  // measure 78
0000
0000
0000
0101
,  // measure 79
0000
0000
0000
1010
,  // measure 80
0000
0000
0000
0001
,  // measure 81
1000
0001
1000
0001
,  // measure 82
1000
0001
1000
0001
,  // measure 83
1000
0001
1000
0001
,  // measure 84
1000
0020
0200
0330
;
