#TITLE:OVER THE LIMIT!;
#SUBTITLE:;
#ARTIST:Kenji Ito;
#TITLETRANSLIT:;
#SUBTITLETRANSLIT:;
#ARTISTTRANSLIT:;
#CREDIT:;
#BANNER:OVER THE LIMIT!-bn.png;
#BACKGROUND:OVER THE LIMIT!-bg.png;
#LYRICSPATH:;
#CDTITLE:;
#MUSIC:OVER THE LIMIT!.mp3;
#OFFSET:0.000;
#SAMPLESTART:27.840;
#SAMPLELENGTH:12.000;
#SELECTABLE:YES;
#BPMS:0.000=120.480,36.000=150.000;
#STOPS:;
#BGCHANGES:0.000=OVER THE LIMIT!.avi=1.000=0=0=1,
99999=-nosongbg-=1.000=0=0=0 // don't automatically add -songbackground-
;

//---------------dance-single - Copied from----------------
#NOTES:
     dance-single:
     Copied from:
     Hard:
     14:
     0.626,0.766,0.279,0.311,0.515: // measure 1
0000
0000
0000
0002
,  // measure 2
0000
0000
2003
0000
0000
0010
0010
0000
,  // measure 3
3200
0000
0310
0001
1000
0100
0020
0000
,  // measure 4
0000
0000
0031
1000
0002
0000
0000
0000
0000
0000
0100
0000
0100
0000
0000
0000
,  // measure 5
0103
0000
0001
1000
0010
0100
0002
0000
,  // measure 6
0000
0000
0000
0000
2003
0000
0000
0100
0000
0000
0100
0000
0100
0000
0000
0000
,  // measure 7
3010
0000
1000
0100
0010
0001
0020
0000
,  // measure 8
0000
0000
0130
1000
0200
0000
0000
0000
0000
0000
0310
0001
0020
0000
0000
0000
,  // measure 9
0130
0000
0000
0000
0000
1100
0000
0000
0110
0000
0000
0110
0000
0000
2002
0000
,  // measure 10
0000
0000
0000
0000
,  // measure 11
0000
0003
0010
0000
0010
0000
0010
0000
,  // measure 12
3010
0000
0000
0000
1000
0100
1000
0100
1000
0000
0100
0010
0100
0010
0100
0000
,  // measure 13
0010
0001
0010
0000
0001
1000
0001
1000
0001
0000
1000
0010
1000
0010
1000
0000
,  // measure 14
0010
0100
0010
0000
0100
0001
0100
0001
0100
0000
0010
1000
0010
1000
0010
0000
,  // measure 15
0100
0010
0100
0000
1001
0000
0000
0110
0000
0000
1001
0000
1001
0000
0000
0000
,  // measure 16
0010
0100
0010
0100
0001
0000
0000
1000
0000
0000
0100
0000
0010
0000
0000
0001
,  // measure 17
0000
1000
0200
0000
0000
0320
0000
0000
,  // measure 18
0031
0000
0000
0000
1000
0000
0000
0100
0000
0000
0010
0000
0002
0000
0000
0000
,  // measure 19
0000
0000
0000
0000
0000
0000
0000
0000
0000
0000
0000
0000
1003
0000
0010
0100
,  // measure 20
0010
0000
1000
0000
0100
0000
0000
0010
0000
0000
0100
0000
1000
0000
0000
0001
,  // measure 21
0000
0100
0010
0000
0100
0002
0000
0003
,  // measure 22
1000
0000
0000
0000
0100
0000
0000
0001
0000
0000
0100
0000
2000
0000
0000
0000
,  // measure 23
0000
0000
0000
0000
0000
0000
3001
0010
,  // measure 24
0100
0000
1000
0000
0200
0000
0000
0000
0000
0000
0310
0001
0010
0000
0000
0100
,  // measure 25
0000
0000
1000
0000
0001
0000
0000
0000
0000
0000
0100
0010
0100
0000
0000
0001
,  // measure 26
0000
0000
1000
0000
0010
0000
0000
0100
0000
0000
0001
0000
1000
0000
0000
0000
,  // measure 27
0020
0000
0200
0000
0000
0030
0301
1000
,  // measure 28
0010
0000
0100
0000
0001
0000
0000
1000
0000
0000
0100
0000
0010
0000
0000
0001
,  // measure 29
0000
0000
1000
0000
0001
0000
0000
0100
0000
0000
0010
0000
1000
0000
0000
0001
,  // measure 30
0000
0100
0020
0000
0000
2000
0000
0030
,  // measure 31
3000
0000
0000
0000
0001
0010
0100
1000
0001
0010
0100
1000
0010
0100
0001
1000
,  // measure 32
0010
0100
0001
1000
0002
0000
0000
0000
0013
0000
0100
0000
0000
0000
1000
0000
,  // measure 33
0000
0000
0010
0000
1000
0000
0100
0000
0010
0001
0010
0000
0000
0000
0001
0010
,  // measure 34
0100
1000
0010
0100
0002
0000
0000
0000
2003
0000
0020
0000
0000
0000
0000
0000
,  // measure 35
0030
0000
3010
0100
0001
0100
0001
1000
0100
1000
0010
0100
0010
0000
0000
0000
,  // measure 36
0000
0000
0000
0000
0100
0001
0100
0001
1000
0100
1000
0010
0100
0001
1000
0010
,  // measure 37
0100
0001
1000
0100
1000
0010
0100
0010
0100
0001
0010
0100
1000
0100
0010
0000
,  // measure 38
0000
0000
0000
0000
0001
0000
0000
1000
0000
0000
0010
0000
0100
0000
0000
0101
,  // measure 39
0000
0001
2000
0000
0000
3010
0100
0010
,  // measure 40
0001
0010
1000
0000
1000
0001
0000
0001
,  // measure 41
1000
0000
0010
0100
0001
1000
0000
0100
,  // measure 42
0010
0000
0001
0000
1000
0000
0000
0000
0000
0000
0100
0010
0001
0000
0000
1000
,  // measure 43
0000
0001
0100
0001
1000
0100
0000
0010
,  // measure 44
0001
0000
0010
0000
0100
0000
0000
1100
0000
0000
1000
0000
0002
0000
0000
0000
,  // measure 45
0000
0000
0000
0000
1003
0000
0000
1001
0000
0000
0001
0000
0100
0000
0000
0110
,  // measure 46
0000
0010
1000
0000
0000
1000
0001
0000
,  // measure 47
0100
0010
1000
0001
0100
0000
0000
0110
0000
0000
0101
0000
1001
0000
0000
0101
,  // measure 48
0000
0110
2010
0000
0000
3001
0010
0100
,  // measure 49
1000
0100
0010
0001
0010
0100
1000
0100
,  // measure 50
0010
0000
0001
0000
1000
0100
1000
0100
1000
0000
0100
0010
0100
0010
0100
0000
,  // measure 51
0010
0001
0010
0000
0001
1000
0001
1000
0001
0000
1000
0010
1000
0010
1000
0000
,  // measure 52
0010
0100
0010
0000
1010
0000
0000
0110
0000
0000
0101
0000
1001
0000
0000
0101
,  // measure 53
0000
0000
0110
0000
0010
1000
0001
0100
0010
1000
0001
0000
1001
0000
1001
0000
;

//---------------dance-single - Copied from Copied f----------------
#NOTES:
     dance-single:
     Copied from Copied f:
     Medium:
     11:
     0.407,0.483,0.054,0.376,0.032:
0000
0000
0000
2000
,
0000
3002
0000
0000
,
0023
0000
0130
1000
0001
1000
0200
0000
,
0000
1300
2000
0000
0000
0000
0000
0000
,
3002
0000
1003
0001
1000
0001
0200
0000
,
0000
0302
0000
0000
,
2003
0000
3001
0010
0100
1000
0200
0000
,
0000
0310
0020
0000
0000
0031
0002
0000
,
2003
0000
0000
0000
0000
0010
0000
0000
0010
0000
0000
3010
0000
0000
2002
0000
,
0000
0000
0000
0000
,
0000
0000
0000
0000
,
3003
0000
1000
0001
1000
0010
0100
0010
,
0100
0001
0100
0010
1000
0001
1000
0010
,
0100
0010
0100
0001
0100
0010
1000
0010
,
0100
0000
0010
0000
1000
0000
0000
0010
0000
0000
0100
0000
1001
0000
0000
0000
,
0000
0000
0001
1000
0001
0000
0010
0001
,
1000
0010
0200
0000
0000
0320
0000
0000
,
1030
0000
0100
0000
0100
0010
0200
0000
,
0000
0000
0000
0000
0000
0000
1300
0001
,
1000
0000
0010
0100
0010
0000
1000
0001
,
0100
0000
0010
0000
0100
0002
0000
0000
,
2003
3002
0203
0320
,
0000
0000
0000
0000
0000
0000
1030
0001
,
1000
0001
0200
0000
0000
0310
0010
0000
,
0000
0100
0100
0000
0000
0001
0001
0000
,
0000
1000
1000
0000
0000
0010
0010
0000
,
0100
0000
0200
0000
0000
0000
0301
1000
,
0001
0100
0001
0000
0000
1000
1000
0000
,
0000
0001
0001
0000
0000
0100
0100
0000
,
0000
0010
0020
0000
0000
0200
0000
0330
,
0000
0000
0001
0000
1000
0000
0010
0100
,
0001
1000
0002
0000
0013
0000
0100
0000
,
1000
0000
0001
0100
0010
1000
0000
0001
,
0100
0010
2000
0000
0002
0000
0000
0000
,
3000
0103
0001
1000
0010
0100
0010
0000
,
0000
0100
0001
1000
,
0100
0000
0010
0001
0010
0100
1000
0100
,
0000
0000
1000
0000
0000
0010
0010
0000
,
0000
0100
0100
0000
0000
0010
0100
0010
,
0100
0010
0100
0000
0000
0001
0000
0000
,
1000
0000
0010
0000
1000
0001
0000
0000
,
0100
0000
0001
0000
1000
0001
0001
0000
,
0000
0000
1000
0000
0001
0100
0000
0000
,
0010
0000
1000
0000
0010
0000
0000
0100
0000
0000
0100
0000
0100
0000
0000
0000
,
0000
0000
0010
0000
1000
0001
0100
0000
,
0001
1000
0001
0000
0000
0100
0010
0000
,
0000
0000
0000
0000
0200
0000
0000
0010
0000
0000
0010
0000
0010
0000
0000
0010
,
0000
0310
0020
0000
0000
2000
0000
0000
,
0000
0000
0000
0000
,
0000
3000
1030
0001
1000
0010
0100
0010
,
0100
0001
0100
0010
1000
0001
1000
0010
,
0100
0010
0100
0000
0000
0010
0100
0000
,
0000
0220
0000
0000
0330
0000
1001
1001
;

//---------------dance-single - Copied from Copied f----------------
#NOTES:
     dance-single:
     Copied from Copied f:
     Easy:
     5:
     0.299,0.312,0.054,0.311,0.000:
0000
0000
0000
0001
,
0000
1000
0000
0000
,
0100
0000
1000
0000
0001
0100
0200
0000
,
0000
0310
0020
0000
0000
0000
0000
0000
,
1030
0000
0001
0000
1000
0010
0020
0000
,
0000
2030
0000
0000
,
3001
0000
1000
0000
0001
0100
0100
0000
,
0000
0010
0010
0000
0000
1000
1000
0000
,
0020
0000
0000
0000
0000
0000
0030
2002
,
0000
0000
0000
0000
,
0000
0000
0000
0000
,
3003
0001
1000
0001
,
0100
0010
1000
0001
,
0100
0010
0100
0001
,
1000
0000
0001
0000
0000
1000
1000
0000
,
0000
0001
1000
0010
,
0100
0000
0020
0000
0000
0230
0000
0000
,
0301
1000
0001
0200
,
0000
0000
0000
0301
,
1000
0001
0100
0001
,
1000
0000
0100
0000
0010
0010
0000
0000
,
0002
2003
3020
0230
,
0000
0000
0000
0301
,
1000
0000
0020
0000
0000
0130
0100
0000
,
0000
0000
0010
0000
0000
1000
1000
0000
,
0000
0000
0001
0000
0000
0100
0100
0000
,
0010
0020
0000
1030
,
1000
0000
1000
0000
0000
0001
0001
0000
,
0000
1000
1000
0000
0000
0010
0010
0000
,
0000
0100
0020
0000
0000
0200
0000
0330
,
0000
1000
0001
0100
,
0001
2000
3002
0203
,
0320
1030
0001
0000
,
1000
0001
2000
0000
,
0000
3000
1000
0000
0001
0000
1000
0000
,
0000
0010
1000
0001
,
0010
0100
1000
0100
,
0000
0000
0010
0000
0000
0001
0001
0000
,
0000
0010
0010
0000
0000
0100
0010
0100
,
0010
0100
0010
0000
0000
1000
0000
0000
,
0001
0000
0100
0000
0001
1000
0000
0000
,
0010
0000
1000
0000
0000
0001
0001
0000
,
0000
0000
0100
0000
0010
0010
0000
0000
,
0100
0000
0100
0000
0000
0010
0010
0000
,
0000
0100
0001
0010
,
0001
0000
1000
0000
0000
0010
0010
0000
,
0000
0220
0000
0000
,
0330
0000
2000
0000
0000
0002
0000
0000
,
0000
0000
0000
0000
,
0000
3003
0001
0000
1000
0000
0001
0000
,
0100
0010
1000
0100
,
0010
0001
0000
0000
,
0000
0220
0000
0000
0330
0000
1001
1001
;

//---------------dance-single - Copied from Copied f----------------
#NOTES:
     dance-single:
     Copied from Copied f:
     Beginner:
     2:
     0.199,0.227,0.054,0.247,0.000:
0000
0000
0000
0001
,
0000
1000
0000
0000
,
0000
1000
0001
0100
,
0000
0220
0000
0000
,
0330
0001
1000
0002
,
0000
2003
0000
0000
,
3000
0001
0001
0100
,
0000
0010
0000
1000
,
0020
0000
0000
0000
0030
0000
0000
2002
,
0000
0000
0000
0000
,
0000
0000
0000
0000
,
3003
0010
0000
0100
,
0000
0010
0000
1000
,
0000
0001
0000
1000
,
0000
0000
0001
0000
0000
0100
0100
0000
,
0000
0001
0000
1000
,
0000
0000
0020
0000
0000
0130
0000
0000
,
0010
0000
0100
0200
,
0000
0000
0000
0301
,
0000
1000
0000
0001
,
0000
0000
2000
0000
0000
3010
0000
0000
,
0200
0300
0002
0003
,
0200
0300
0000
0001
,
1000
0010
0000
0000
,
0000
0010
0000
1000
,
0000
0001
0000
0100
,
0000
0020
0000
1030
,
0000
1000
0000
0001
,
0000
1000
0000
0010
,
0000
0000
0220
0000
0000
0000
0000
0330
,
0000
1000
0000
0001
,
0000
2000
3000
0002
,
0003
1000
0001
0000
,
1000
0001
2000
0000
,
0000
3000
1000
0000
0000
0000
0001
0000
,
0000
0010
0000
0100
,
0000
0010
0000
0001
,
0000
1000
0000
0001
,
0000
0010
0000
0100
,
0100
0000
0100
0000
0000
1000
0000
0000
,
0001
0000
0100
0000
0000
1000
0000
0000
,
0010
1000
0000
0001
,
0000
0000
0100
0000
0000
0010
0000
0000
,
0100
0100
0000
0010
,
0000
0100
0000
0010
,
0000
1000
0000
0001
,
0000
0220
0000
0000
,
0330
0000
2000
0000
0000
0002
0000
0000
,
0000
0000
0000
0000
,
0000
3003
0010
0000
0000
0000
0100
0000
,
0000
0001
0000
1000
,
0000
0010
0000
0000
,
0000
0100
0000
0000
0000
0000
0000
1001
;
