#VERSION:0.81;
#TITLE:No Tears;
#SUBTITLE:;
#ARTIST:RoughSketch feat. Aikapin;
#TITLETRANSLIT:;
#SUBTITLETRANSLIT:;
#ARTISTTRANSLIT:;
#GENRE:;
#ORIGIN:;
#CREDIT:;
#BANNER:No Tears-bn.png;
#BACKGROUND:No Tears-bg.png;
#PREVIEWVID:;
#JACKET:No Tears-jacket.png;
#CDIMAGE:;
#DISCIMAGE:;
#LYRICSPATH:;
#CDTITLE:;
#MUSIC:No Tears.mp3;
#OFFSET:-0.200000;
#SAMPLESTART:27.319977;
#SAMPLELENGTH:12.000000;
#SELECTABLE:YES;
#BPMS:0.000=170.000;
#STOPS:;
#DELAYS:;
#WARPS:;
#TIMESIGNATURES:0.000=4=4;
#TICKCOUNTS:0.000=4;
#COMBOS:0.000=1;
#SPEEDS:0.000=1.000=0.000=0;
#SCROLLS:0.000=1.000;
#FAKES:;
#LABELS:0.000=Song Start;
#BGCHANGES:;
#KEYSOUNDS:;
#ATTACKS:
;

//---------------dance-single - ----------------
#NOTEDATA:;
#CHARTNAME:;
#STEPSTYPE:dance-single;
#DESCRIPTION:;
#CHARTSTYLE:;
#DIFFICULTY:Hard;
#METER:14;
#RADARVALUES:0.782536,0.940727,0.408670,0.275066,0.353657,610.000000,52.000000,35.000000,0.000000,0.000000,0.000000,0.000000,0.000000,0.782536,0.940727,0.408670,0.275066,0.353657,610.000000,52.000000,35.000000,0.000000,0.000000,0.000000,0.000000,0.000000;
#CREDIT:;
#NOTES:
0000
0000
0000
0000
,
0000
0000
0000
0000
1002
0000
0000
2000
0000
0000
0000
0000
0000
0000
0000
0000
,
0000
0000
0000
0000
0000
0000
3003
0001
,
1000
0010
0000
0100
0000
0001
0000
1000
,
0000
0010
0100
0010
0000
1000
0000
0001
,
1000
0010
1000
0000
0100
0000
0010
0000
,
0001
0010
0100
0000
1000
0000
0001
1100
,
1000
0000
0101
0000
0010
0000
0000
1000
0000
0000
0001
0000
0000
0000
1000
0000
,
0001
0100
0001
0000
0100
0000
0100
0000
0010
1000
0010
0000
0100
0000
0001
0000
,
1000
0000
0010
0000
0010
0000
0000
1000
0000
0000
0001
0000
0000
0000
0100
0000
,
0001
1000
0001
0000
0100
0000
0000
0010
0000
0000
0100
0000
0000
0000
0000
0000
,
0000
0000
1001
0000
0010
0000
0000
1000
0000
0000
0001
0000
0000
0000
0100
0000
,
0001
1000
0100
0000
0010
0000
0000
0001
0000
0000
1000
0000
0000
1010
0000
0000
,
0110
0000
0010
1000
0001
0100
0010
1000
,
0100
0010
0100
0000
0010
0000
0001
0000
1000
0000
0010
0000
1000
0000
0001
0000
,
0010
0001
1000
0100
1000
0001
0100
0001
,
1000
0010
1000
0000
0020
0000
0000
0000
0000
0000
0000
0000
0000
0000
0000
0000
,
0130
0000
0100
0000
0010
0000
1000
0000
0010
0000
0000
0000
0100
0000
0010
0100
,
0010
0000
1000
0000
0000
0000
0001
0000
1000
0000
0100
1000
0100
0000
0010
0000
,
0001
0000
1000
0000
1010
0000
0000
0000
0001
0000
0100
0000
0010
0000
1000
0001
,
1000
0000
0010
0000
0000
0000
1000
0000
0001
0000
0100
0010
0100
0000
0000
0000
,
1001
0000
0000
0000
1000
0000
0010
0000
0100
0000
0000
0000
0001
0000
1000
0100
,
1000
0000
0010
0000
0200
0000
0000
0302
0000
0000
2003
0000
0000
3020
0000
0000
,
0130
0000
0001
0000
1000
0001
1000
0001
1000
0000
0100
0000
0010
0000
0000
0000
,
0001
0000
0010
0000
0100
1000
0100
0000
1000
0000
0010
0000
0100
0000
0000
0000
,
0110
0000
0000
0000
0010
0000
1000
0010
1000
0000
0001
0000
0100
0000
0001
0010
,
0001
0000
1000
0000
0002
0000
0000
2003
0000
0000
3200
0000
0000
0320
0000
0000
,
0031
0001
1000
0100
1000
0010
0100
0010
,
0100
0000
0001
0000
1000
0000
0000
0000
1000
0000
0001
1000
0001
0000
0100
0000
,
0010
1000
0100
0000
0100
0010
0001
0100
,
0000
0000
1001
0000
0000
0000
0110
0000
0110
0000
0001
1000
0100
0000
0010
0000
,
0001
0100
0001
0100
0001
0000
1000
0000
0100
0000
1000
0000
0010
0000
0100
0000
,
0010
0000
0100
0000
0001
0000
0000
0000
1000
0000
0100
1000
0100
0000
0010
0000
,
0001
1000
0010
1000
0010
0110
0000
0101
,
0000
1001
0000
0010
0100
0010
0100
0010
,
1000
0001
1000
0000
0010
0100
0010
0000
,
1000
0001
0100
0001
1000
0010
1000
0000
,
1010
0000
0101
0000
0010
0100
0010
0000
,
1000
0001
1000
0010
0100
0010
1000
0000
,
0010
0100
0001
0010
0001
1000
0100
1000
,
0010
0100
0000
0010
0000
0010
1000
0000
,
1001
0000
0001
1000
0010
0100
0000
1001
,
0000
1001
0000
0010
0010
1000
0001
0100
,
0100
0000
0010
0000
1000
0100
1000
0100
0010
0001
0010
0001
1000
0010
1000
0001
,
0100
0000
0010
0000
1000
0000
0000
0002
0000
0000
0000
0000
0000
0000
0000
0000
,
0000
0000
1000
0000
0000
0000
0000
1003
,
0001
0100
0100
0001
0000
1000
0000
0001
,
0000
0000
0100
0000
0010
0000
0100
0000
0000
0000
0001
0000
1000
0001
0100
0001
,
1000
0010
0010
0000
0010
0000
1000
0000
,
1000
0000
0010
0100
0010
0000
0100
0000
,
0100
0001
0000
0101
0001
0001
0000
1000
,
1000
1010
0100
0010
0100
0010
0100
0001
,
1000
0100
0010
0100
1000
0010
0100
0010
,
1000
0001
0010
0001
1000
0100
1000
0010
,
0100
0010
0100
1000
0100
0001
0010
0100
,
1000
0100
0010
0001
1000
0100
1000
0010
,
1000
0001
1000
0001
1000
0000
0000
0000
0000
0000
1001
0000
0000
0000
0110
0000
,
1000
0001
0000
0100
0010
1000
0100
0010
,
0001
1000
0100
0001
0100
1000
0010
0001
,
0010
0000
1000
0000
0100
0010
0001
0010
0100
0000
1000
0000
0010
0000
0100
0000
,
0001
0000
0100
0000
0010
0000
0000
1000
0000
0000
0001
0000
0000
0000
0100
0000
,
0001
1000
0001
0000
0100
0000
0000
0010
0000
0000
0100
0000
0000
0000
0000
0000
,
0000
0000
1001
0000
0010
0000
0000
1000
0000
0000
0001
0000
0000
0000
0100
0000
,
0001
1000
0100
0000
0110
0000
0000
0011
0000
0000
1001
0000
0000
1010
0000
0000
,
2002
3003
0100
0001
1000
0010
0100
0010
,
1000
0001
1000
0000
0010
0000
0100
0000
0001
0000
0010
0000
0001
0000
1000
0000
,
0100
1001
0100
0001
1000
0001
0100
0010
,
1000
0001
0010
0000
0200
0000
0000
2000
0300
0000
0002
3000
0000
0200
0303
0000
,
2002
0000
3003
0000
0010
0000
0100
0000
0010
0000
1000
0000
0001
0100
0010
1000
,
0001
1000
0100
0000
0010
0000
0001
0000
0010
0000
0100
0000
1000
0100
0001
0100
,
1000
0000
0010
0000
0100
0000
0001
0000
0001
0000
1000
0000
0010
0100
0010
1000
,
0001
0100
0010
0000
1000
0000
0100
0000
0010
0000
1000
0000
0010
0000
0001
0000
,
0100
0000
0010
0000
1000
0000
0001
0000
0100
0000
0010
0000
1000
0001
0100
0001
,
0100
0010
1000
0000
0100
0000
0010
0000
0100
0000
1000
0000
0001
0010
0100
1000
,
0001
0000
0010
0000
0100
0000
1000
0000
0001
0000
0100
0010
0100
0000
0001
0000
,
1000
0010
1000
0000
0001
0100
0000
0100
0010
0000
0010
1000
0000
1000
0001
0000
,
0100
0000
0100
0000
0110
0000
0000
1010
0000
0000
0101
0000
0010
0000
0100
0000
,
0001
1000
0001
0000
0100
0000
0100
0000
1001
0000
0010
0000
1000
0000
0100
0000
,
0010
0000
0001
0000
0110
0000
0000
1100
0000
0000
1001
0000
0010
0000
0100
0000
,
0001
1000
0100
0000
0110
0000
0000
0011
0000
0000
1100
0000
0000
1001
0000
0000
,
0110
0100
0001
0001
1001
0100
0010
1000
,
0100
0010
0100
0000
0010
0000
0010
0000
0101
0000
0010
0000
1000
0000
0001
0000
,
0010
0000
0100
1000
0100
0000
0010
0000
0001
0000
1000
0010
1000
0000
0001
0000
,
0100
0000
0010
0000
0220
0330
0000
0202
0303
0000
2020
3030
0000
0220
0330
0000
,
2002
0000
3003
0000
0200
0000
0000
0302
0000
0000
2003
0000
0000
3020
0000
0000
,
0230
0000
0000
0000
0310
1000
0001
1000
1001
0000
0000
0000
0000
0000
0000
0000
;

//---------------dance-single - ----------------
#NOTEDATA:;
#CHARTNAME:;
#STEPSTYPE:dance-single;
#DESCRIPTION:;
#CHARTSTYLE:;
#DIFFICULTY:Medium;
#METER:12;
#RADARVALUES:0.561360,0.604753,0.157181,0.117886,0.110027,465.000000,20.000000,15.000000,0.000000,0.000000,0.000000,0.000000,0.000000,0.561360,0.604753,0.157181,0.117886,0.110027,465.000000,20.000000,15.000000,0.000000,0.000000,0.000000,0.000000,0.000000;
#CREDIT:;
#NOTES:
0000
0000
0000
0000
,
0000
2002
0000
0000
,
0000
0000
0000
0000
0000
0000
3003
1000
,
0001
1000
0000
0010
0000
0100
0000
0001
,
0000
1000
0010
1000
0000
0001
0000
0100
,
0010
0100
0001
0000
1000
0000
0100
0000
,
0010
0001
0010
0000
0100
0000
1000
1000
,
0001
0000
0001
0000
0100
0000
0000
0100
0000
0000
0001
0000
0000
0000
1000
0000
,
0001
1000
0100
0010
0001
0010
0100
1000
,
0001
0000
0100
0000
0001
0000
0000
1000
0000
0000
0001
0000
0000
0000
1000
0000
,
0001
0000
1000
0000
0001
0000
0000
0100
0000
0000
0010
0000
0000
0000
0000
0000
,
0000
0000
1000
0000
0001
0000
0000
0010
0000
0000
0010
0000
0000
0000
0100
0000
,
1000
0000
0100
0000
1000
0000
0000
0001
0000
0000
0001
0000
0000
1000
0000
0000
,
1000
0000
0001
0010
0001
1000
0100
1000
,
0010
0100
0010
1000
0001
1000
0010
0100
,
0001
0010
0001
1000
0100
1000
0010
0100
,
0001
1000
0002
0000
0000
0000
0000
0000
,
1003
1000
0001
0100
0001
0000
0100
0000
,
0010
1000
0000
0001
1000
0100
0010
0001
,
0010
0100
1000
0000
0001
1000
0001
0100
,
0100
0010
0000
1000
0100
0010
0010
0000
,
0011
0000
0001
0010
0100
0000
1000
0000
,
0001
0000
1000
0000
0001
0000
0000
0001
0000
0000
1000
0000
0000
1000
0000
0000
,
0010
0100
0001
1000
0001
1000
0001
0000
,
0100
0010
0100
0010
1000
0001
0010
0000
,
0011
0000
0001
1000
0100
0010
0001
0000
,
1000
0000
0001
0000
0100
0000
0000
0100
0000
0000
0010
0000
0000
0010
0000
0000
,
1000
0001
1000
0000
0001
1000
0001
0100
,
0010
0100
0010
0000
0000
0000
0000
0000
,
0100
0010
0100
0000
0001
1000
0001
1000
,
0000
1001
0000
0010
0110
0000
0000
0000
,
0001
0100
0001
0000
1000
0010
1000
0001
,
1000
0010
0100
0000
0000
0000
0000
0000
,
0010
0100
0010
1000
0001
1001
0000
0110
,
0000
1001
0000
0000
0000
0000
1000
0001
,
0100
0001
0100
0000
0000
0010
0100
0000
,
0100
0001
0000
0001
1000
0000
0001
0000
,
0101
0000
1010
0000
0000
0100
0001
0000
,
0001
0100
0000
0100
0010
0000
1000
0000
,
0010
1000
0010
0100
0001
0010
0001
1000
,
0000
0010
0000
0010
0000
0010
1000
0000
,
1001
0000
0001
0000
0001
1000
0000
1010
,
0000
0101
0000
0001
0001
0010
0100
1000
,
1000
0000
1000
0100
0010
0001
0010
0100
,
1000
0000
0100
0000
0010
0000
0000
2002
0000
0000
0000
0000
0000
0000
0000
0000
,
0000
0000
0000
0000
0000
0000
3003
1000
,
0001
1000
0000
0010
0000
1000
0000
0001
,
0000
1000
0100
1000
0000
0100
0000
0010
,
0001
0010
0001
0000
0010
0000
1000
0000
,
0010
0000
0001
1000
0001
0000
0100
0000
,
0100
0001
0000
0001
0100
0100
0000
0010
,
1000
1000
0000
0000
0000
0000
0000
0000
,
0000
0001
1000
0100
,
0010
0001
0010
0000
0100
0000
1000
0000
,
0100
0010
0100
0000
0010
0000
0001
0000
,
1000
0010
1000
0000
0010
0000
0100
0001
,
0100
0001
1000
0000
0000
1001
0000
0001
,
0010
0011
0000
0001
1000
0000
0100
0000
,
0010
0000
0001
0010
0100
1000
0001
0010
,
0100
1000
0001
1000
0001
1000
0010
0100
,
0010
0000
0100
0000
0001
0000
0000
1000
0000
0000
0001
0000
0000
0000
1000
0000
,
0001
0000
1000
0000
0001
0000
0000
0100
0000
0000
0010
0000
0000
0000
0000
0000
,
0000
0000
1000
0000
0001
0000
0000
0010
0000
0000
0010
0000
0000
0000
0100
0000
,
1000
0000
0100
0000
1000
0000
0000
0010
0000
0000
0010
0000
0000
0100
0000
0000
,
0100
0000
0001
0010
0001
1000
0100
1000
,
0001
0100
0001
1000
0010
1000
0010
0100
,
0001
0100
0010
1000
0001
0100
0010
0100
,
0001
0000
0010
0000
0100
0000
0000
0100
0000
0000
1000
0000
0000
1000
0000
0000
,
1001
0000
0010
0100
0010
0000
1000
0000
,
0001
0000
0010
0001
0010
0000
0100
0000
,
1000
0000
0100
0010
0001
0000
0010
0000
,
0001
1000
0010
0000
1000
0000
0010
0000
,
0100
1000
0100
1000
,
0001
1000
0100
0000
0010
0000
0001
0010
,
0001
0010
0100
1000
0100
0010
0010
0001
,
1000
0000
1000
0000
0001
0000
0000
0100
0000
0000
0010
0000
0000
1000
0000
0000
,
0001
0000
0100
0000
0110
0000
0000
0010
0000
0000
0010
0000
0000
0000
0010
0000
,
0100
0000
0001
1000
0001
0000
1000
0000
,
0010
0000
0000
0000
1000
0000
0000
1000
0000
0000
1000
0000
0001
0000
0100
0000
,
0001
0000
0100
0000
0001
0000
0000
0001
0000
0000
1000
0000
0000
1000
0000
0000
,
1010
0000
0001
1000
0001
0000
0100
0000
,
0010
0000
0100
0001
1000
0000
0001
0000
,
1000
0100
0100
0010
0001
1000
1000
0001
,
0100
0000
0010
0000
0200
0000
0300
0002
0000
0003
2000
0000
3000
0020
0000
0030
,
0200
0000
0000
0000
0302
0000
0000
0203
0000
0300
2000
0000
3000
0200
0000
0300
,
0020
0000
0130
0100
1001
0000
0000
0000
;

//---------------dance-single - ----------------
#NOTEDATA:;
#CHARTNAME:;
#STEPSTYPE:dance-single;
#DESCRIPTION:;
#CHARTSTYLE:;
#DIFFICULTY:Easy;
#METER:4;
#RADARVALUES:0.390707,0.503961,0.117886,0.204335,0.015718,307.000000,15.000000,26.000000,0.000000,0.000000,0.000000,0.000000,0.000000,0.390707,0.503961,0.117886,0.204335,0.015718,307.000000,15.000000,26.000000,0.000000,0.000000,0.000000,0.000000,0.000000;
#CREDIT:;
#NOTES:
0000
0000
0000
0000
,
0000
0000
0000
0000
,
0000
0000
0000
0000
,
0000
0000
0000
0000
,
0000
0000
0000
0000
,
0000
0001
1000
0001
,
0100
0010
0100
0000
0010
0000
2000
0000
,
3002
0103
0010
1000
,
0001
0100
0001
1000
,
0001
0000
0200
0000
0000
0310
0000
0000
,
0100
0000
0100
0000
0000
0010
0000
0000
,
0000
0000
0001
0000
0000
0010
0000
0000
,
1000
0000
0001
0000
0000
1000
0000
0000
,
1000
0001
0001
0100
,
0100
0010
0010
1000
,
1000
0001
0001
0100
,
0100
0002
0000
0000
,
2003
0000
0002
3003
0100
0000
0010
0000
,
0010
1000
0000
0100
0000
0100
0000
0010
,
0001
0001
1000
0001
,
0100
0010
0100
0001
,
1001
1000
0010
0100
,
0001
0000
0002
0000
0000
2003
0000
0000
,
3010
0100
0001
1000
,
0100
0010
0001
1000
,
1010
0010
0100
0001
,
0010
0000
0002
0000
0000
2003
0000
0000
,
3010
0100
0001
1000
,
0001
0100
0000
0000
,
0010
0100
0001
1000
,
0000
1001
0000
0010
0100
0000
0000
0000
,
0002
0013
0100
1000
,
0100
0010
0000
0000
,
0001
0000
1000
0000
0001
0010
0000
0100
,
0000
1100
0000
0000
0000
0000
1000
0000
,
0010
0000
0100
0000
0000
0010
0100
0000
,
0001
1000
0000
0010
1000
0000
0001
0000
,
1001
0000
1001
0000
0000
0100
0001
0000
,
0010
1000
0000
0001
0100
0000
0010
0000
,
0100
0000
0010
0000
1000
0000
0010
0100
,
0000
0010
0000
0010
0000
0010
0100
0000
,
1001
0000
0001
0000
0000
1000
0000
0010
,
0000
0100
0000
0001
0000
1000
0020
0000
,
0130
0000
0000
0000
,
0000
2002
0000
0000
,
0000
0000
0000
3003
,
0001
0000
1000
0010
0000
1000
0000
0001
,
0000
1000
0000
1000
0000
0010
0000
0100
,
0010
0100
0010
0000
0010
0000
1000
0000
,
1000
0000
0001
1000
0001
0000
0100
0000
,
0100
0001
0000
1000
0010
1000
0000
0001
,
1000
0001
0000
0000
0000
0000
0000
0000
,
0000
0001
1000
0100
,
0010
0010
0100
1000
,
0100
0010
0100
0000
0010
0000
0001
0000
,
1000
1000
0010
0100
,
0001
1000
0001
0000
0000
1001
0000
0010
,
0100
0001
0000
0000
1000
0000
0100
0000
,
0010
0001
0010
0100
,
1000
0002
2003
3020
,
0230
0000
0301
0000
0000
0001
0000
0000
,
1000
0000
0010
0000
0000
0010
0000
0000
,
0000
1000
0001
0000
0000
0100
0000
0000
,
0010
0000
2000
0000
0000
3002
0000
0000
,
0103
0000
0001
0000
0000
1000
0000
0000
,
0100
0000
0100
0000
0000
0010
0000
0000
,
0000
0000
0001
0000
0000
1000
0000
0000
,
0001
0000
0100
0000
0000
0100
0000
0000
,
1001
0000
0010
0010
0010
0000
1000
0000
,
0001
0010
0100
1000
,
0010
0000
0100
0100
0100
0000
0010
0000
,
1000
1000
1000
0000
0001
0000
0100
0000
,
0001
0010
0001
0100
,
0010
0010
0010
0000
0010
0000
0001
0000
,
0001
0000
0100
0100
0100
0000
0010
0010
,
0010
2002
0000
0000
,
0000
3003
0110
0000
0010
0000
0010
0000
,
0100
0000
0001
1000
0001
0000
1000
0000
,
0010
1000
0100
0010
,
0001
0010
0001
1000
,
1100
0000
0100
0010
0100
0000
0010
0000
,
0001
0000
1000
0100
1000
0000
0010
0000
,
0100
0100
0100
0020
0000
1030
1000
0002
,
0000
0000
0103
0000
0200
0000
0300
0001
0000
0000
0001
0000
0000
1000
0000
0000
,
1000
0000
0000
0000
1001
0000
0000
0001
0000
0000
0100
0000
0000
0100
0000
0000
,
0020
0000
0000
0030
1001
0000
0000
0000
;

//---------------dance-single - ----------------
#NOTEDATA:;
#CHARTNAME:;
#STEPSTYPE:dance-single;
#DESCRIPTION:;
#CHARTSTYLE:;
#DIFFICULTY:Beginner;
#METER:2;
#RADARVALUES:0.231280,0.268779,0.070731,0.125745,0.000000,181.000000,9.000000,16.000000,0.000000,0.000000,0.000000,0.000000,0.000000,0.231280,0.268779,0.070731,0.125745,0.000000,181.000000,9.000000,16.000000,0.000000,0.000000,0.000000,0.000000,0.000000;
#CREDIT:;
#NOTES:
// measure 0
0000
0000
0000
0000
,  // measure 1
0000
0000
0000
0000
,  // measure 2
0000
0000
0000
0000
,  // measure 3
0000
0000
0000
0000
,  // measure 4
0000
0000
0000
0000
,  // measure 5
0000
1000
0000
1000
,  // measure 6
0010
0000
0100
0001
,  // measure 7
2000
3010
0000
0001
,  // measure 8
0000
0010
0000
0001
,  // measure 9
0000
0000
0020
0000
0000
0130
0000
0000
,  // measure 10
0010
0000
0000
0000
0000
0100
0000
0000
,  // measure 11
0000
0000
1000
0000
0000
0100
0000
0000
,  // measure 12
0001
0000
1000
0000
0000
0001
0000
0000
,  // measure 13
0001
0000
1000
0000
,  // measure 14
0010
0000
0100
0000
,  // measure 15
0001
0000
1000
0000
,  // measure 16
0010
2000
0000
0000
,  // measure 17
3020
0130
0010
0000
,  // measure 18
0100
0000
0000
0010
0000
0000
0000
0100
,  // measure 19
0000
1000
0000
1000
,  // measure 20
0000
0100
0000
1000
,  // measure 21
0000
0001
0000
0010
,  // measure 22
0000
0000
2000
0000
0000
3002
0000
0000
,  // measure 23
0103
0000
1000
0000
,  // measure 24
0010
0000
1000
0000
,  // measure 25
1001
0000
0010
0000
,  // measure 26
0100
0000
2000
0000
0000
3002
0000
0000
,  // measure 27
0103
0000
1000
0000
,  // measure 28
1000
0000
0000
0000
,  // measure 29
0100
0000
1000
0000
,  // measure 30
0000
1001
0000
0000
0010
0000
0000
0000
,  // measure 31
1000
0000
0010
0000
,  // measure 32
0010
0000
0000
0000
,  // measure 33
1000
0000
0000
0000
1000
0000
0000
0010
,  // measure 34
0000
0001
0000
0000
0000
0000
0001
0000
,  // measure 35
0000
0010
0000
0010
,  // measure 36
1000
0000
0000
0100
0000
0000
1000
0000
,  // measure 37
0000
0000
1001
0000
0000
0010
0000
0000
,  // measure 38
0100
0000
0000
0010
0000
0000
0100
0000
,  // measure 39
0000
0000
0100
0000
0000
0000
0000
0010
,  // measure 40
0000
0000
0000
0100
0000
0000
0010
0000
,  // measure 41
1001
0000
0000
0000
0000
0001
0000
0000
,  // measure 42
0000
0010
0000
0000
0000
0001
0000
0000
,  // measure 43
0010
0000
0000
0000
,  // measure 44
0000
2002
0000
0000
,  // measure 45
0000
0000
0000
3003
,  // measure 46
1000
0000
0001
0000
0000
0001
0000
0000
,  // measure 47
0000
0001
0000
0000
0000
0100
0000
0000
,  // measure 48
0100
0000
0100
0000
,  // measure 49
0001
0000
0000
0001
0000
0000
0010
0000
,  // measure 50
0000
1000
0000
0000
0001
0000
0000
1000
,  // measure 51
0000
0000
0000
0000
,  // measure 52
0000
1000
0000
0010
,  // measure 53
0000
0100
0000
0001
,  // measure 54
0000
0010
0000
1000
,  // measure 55
0000
0001
0000
0010
,  // measure 56
0000
0000
1000
0000
0000
1001
0000
0000
,  // measure 57
0010
0000
0001
0000
,  // measure 58
0100
0000
0100
0000
,  // measure 59
0001
0000
0001
0000
,  // measure 60
0100
0000
0010
0000
0000
1000
0000
0000
,  // measure 61
0001
0000
0000
0000
0000
0100
0000
0000
,  // measure 62
0000
0001
0000
0000
0000
0010
0000
0000
,  // measure 63
0100
0000
0001
0000
0000
2000
0000
0000
,  // measure 64
3010
0000
1000
0000
0000
0001
0000
0000
,  // measure 65
0010
0000
0010
0000
0000
0100
0000
0000
,  // measure 66
0000
0000
1000
0000
0000
0001
0000
0000
,  // measure 67
1000
0000
0010
0000
0000
0010
0000
0000
,  // measure 68
1001
0100
0100
0000
,  // measure 69
1000
0000
0010
0000
,  // measure 70
0100
0010
0010
0000
,  // measure 71
0001
0001
0000
0010
,  // measure 72
0000
0100
0000
0010
,  // measure 73
0100
0100
0000
1000
,  // measure 74
0000
0010
0010
0100
,  // measure 75
0100
2002
0000
0000
,  // measure 76
0000
3003
0100
0000
0000
0000
0100
0000
,  // measure 77
0000
1000
1000
0000
,  // measure 78
0100
0000
0010
0000
,  // measure 79
1000
0000
1000
0000
,  // measure 80
0001
0010
0010
0000
,  // measure 81
1000
0001
0001
0000
,  // measure 82
0100
0000
0100
0000
0000
0000
0001
2000
,  // measure 83
0000
3000
0020
0030
0000
1000
0000
0000
,  // measure 84
0001
0000
1000
0000
0000
0010
0000
0000
,  // measure 85
0200
0000
0000
0300
1001
0000
0000
0000
;
