#TITLE:New York EVOLVED Ver.B;
#SUBTITLE:;
#ARTIST:NC underground;
#TITLETRANSLIT:;
#SUBTITLETRANSLIT:;
#ARTISTTRANSLIT:;
#CREDIT:;
#BANNER:New York EVOLVED Ver.B.png;
#BACKGROUND:New York EVOLVED Ver.B-bg.png;
#LYRICSPATH:;
#CDTITLE:./CDTITLES/DanceDanceRevolution 2010.png;
#MUSIC:New York EVOLVED Ver.B.mp3;
#OFFSET:1.189;
#SAMPLESTART:16.500;
#SAMPLELENGTH:15.000;
#SELECTABLE:YES;
#BPMS:0.000=190.000,117.000=95.000,125.000=190.000,206.000=47.500,214.000=95.000,250.000=190.000;
#STOPS:39.000=0.316
,42.000=0.316
,53.000=0.316
,140.000=0.316
,204.000=0.632
,232.000=1.263
,234.000=1.263
,250.000=1.263
,253.000=0.316
;
#BGCHANGES:;

//---------------dance-single - ----------------
#NOTES:
     dance-single:
     :
     Hard:
     10:
     0.678,0.833,0.376,0.158,0.342:
0000
0000
0000
0000
,
0000
0000
0000
0000
,
0000
0000
0000
0000
,
0000
0000
0000
0000
,
0000
0000
0000
0000
,
0010
0001
1000
0010
,
0200
0000
0010
0301
,
0010
1000
0001
0010
,
0110
0000
0000
0101
0000
0000
1010
0000
,
0001
0101
0000
0000
0021
0000
0130
1100
,
0000
0000
0210
0000
1300
0000
0000
0001
,
0110
0000
1000
0110
0000
0001
0110
0000
,
1000
0000
0010
0000
0001
0000
0010
0000
1000
0000
0010
0100
0001
1000
0100
0000
,
0020
0000
0130
1000
0100
0010
0100
0010
,
0100
0000
0010
1000
0001
0100
0010
0001
,
0100
0000
0100
0010
0001
1000
0100
0001
,
0100
0000
1000
0100
0010
0001
0000
0110
,
0000
0110
0000
0001
0100
0010
0100
0010
,
0100
0000
0010
0001
1000
0100
0010
1000
,
0100
0000
0100
0010
1000
0001
0100
1000
,
0100
0000
0000
0000
0001
0000
0100
0000
0010
0000
1000
0000
0001
0100
0000
1000
,
0100
0000
0000
0000
0010
0000
0001
0000
0100
0000
0001
0000
0010
0001
0010
0001
,
0100
0010
1000
0100
0010
0001
0100
1000
,
0100
0010
0100
0000
0010
0000
1000
0000
0100
0000
1000
0000
0010
1000
0010
1000
,
0100
0000
0010
0000
0001
0000
0010
0000
0100
0000
1000
0000
0001
0100
0001
0100
,
0010
1000
0010
1000
0010
0000
1000
0000
0100
0000
1000
0000
0010
1000
0010
1000
,
0100
0010
0001
0100
0010
1000
0100
0001
,
0100
0010
0100
0000
0010
0000
0001
0000
0100
0000
0001
0000
0010
0001
0010
0001
,
0100
0000
0010
0000
1000
0000
0000
0001
0100
0000
0001
1000
0100
0010
0100
0010
,
0001
0000
1000
0100
0020
0000
0000
0000
0000
0000
0000
0000
0032
0000
0000
0000
,
0100
2003
0010
3200
,
0301
0011
0000
0000
,
0000
1010
0000
0000
,
0000
0000
0000
0000
1100
1100
1001
0000
,
0101
0101
0110
0000
1001
0000
0110
0000
,
1001
0000
0100
0010
0000
1000
0100
0001
,
0000
1000
0020
0001
0130
0010
0100
0010
,
0000
1000
0100
0010
0000
0001
0100
1000
,
0000
0001
0020
1000
0230
0000
0010
0310
,
1010
1000
0100
0010
0000
0001
0100
1000
,
0100
0001
0020
1000
0130
0010
0100
0010
,
0000
0001
0100
0010
1010
1000
0100
0001
,
1001
0000
1000
0000
0010
0000
0000
0000
1000
0000
0001
0100
0010
0000
0100
0000
,
0000
0001
0100
0010
0001
1000
0100
0001
,
0100
1000
0020
0001
0130
0010
0100
0010
,
0000
1000
0100
0010
1000
0001
0100
1000
,
0100
0001
0020
1000
0230
0000
0010
0310
,
1010
1000
0100
0010
0100
0001
0100
1000
,
0100
0001
0020
1000
0130
0010
0100
0010
,
0000
0001
0100
0010
1010
1000
0100
0001
,
0100
0000
0001
0000
0010
0100
1000
0000
0001
0100
0001
0100
0010
0100
0010
0100
,
0002
0003
0010
0001
,
0100
0000
1000
0000
0010
1000
0001
0010
,
1000
0100
0010
0001
1000
0010
0100
0001
2000
0000
0000
0000
0010
0000
0000
0000
,
0100
0000
0001
0001
3020
0000
0100
0000
,
0001
0000
1000
1000
0130
0001
0010
0100
,
1000
0000
0001
0000
0100
0000
1000
0000
0010
0000
0001
0000
1000
0000
0100
0100
,
0001
0010
0001
1000
0010
1000
0100
0000
1001
0100
1000
0000
0010
0000
0100
0010
,
0000
0100
0001
0000
0010
0000
0100
0010
0000
0100
1000
0000
0010
0000
0100
0010
,
0011
0100
0001
0000
0010
0000
0100
0010
1010
0100
1000
0000
0010
0000
0100
0010
,
0011
0100
0001
0000
0010
0000
0100
0010
1010
0000
0000
0100
0101
0000
0000
1000
,
1100
0000
0000
0001
0011
0000
0000
0100
0010
0100
0010
0100
0001
1000
0001
1000
,
0100
0010
0001
0100
0010
1000
0100
0010
0001
0000
0000
0000
0000
0000
0110
0000
,
0000
0000
1001
0000
0100
0001
1000
0100
,
0001
0100
1000
0000
0010
0001
0010
0000
1000
0000
0001
0100
0010
0000
0100
0000
,
1001
0000
0000
0000
1000
0000
0001
0000
0100
0000
0010
0000
1000
0100
0020
0000
,
1000
0000
0000
0000
0130
0000
0001
0000
0001
0000
0100
0000
0001
0010
0100
1000
,
0001
0000
0000
0000
0110
0000
0010
0000
0001
0000
1000
0000
0010
0100
0001
0100
,
0010
0000
0000
0000
1001
0000
1000
0000
0100
0000
0001
0000
1000
0001
0010
0001
,
0100
0000
1100
0000
0010
0001
0101
0000
,
1010
0000
0000
0000
1000
0000
0010
0000
0100
0000
0001
0010
0000
0001
0100
0010
,
1000
0100
0010
0100
0010
0000
0001
0000
0100
0000
1000
0000
0001
0000
0100
0000
,
1000
0100
0001
0000
0010
1000
0010
0000
0001
0000
1000
0100
0010
0000
0100
0000
,
1001
0000
0000
0000
0001
0000
1000
0000
0100
0000
0010
0000
0001
0100
0020
0000
,
0001
0000
0000
0000
0130
0000
1000
0000
1000
0000
0100
0000
1000
0010
0100
0001
,
1000
0000
0000
0000
0110
0000
0010
0000
1000
0000
0001
0000
0010
0100
1000
0100
,
0010
0000
0000
0000
1001
0000
0001
0000
0100
0000
1000
0000
0001
1000
0010
1000
,
0100
0001
1100
0000
0010
0001
0101
0000
,
1010
0000
0100
0000
0001
0000
0010
0000
0100
0000
1000
0010
0100
0001
1000
0100
,
0010
0001
0100
1000
0000
0000
0000
0000
0000
0000
0000
0000
0000
0000
0000
0000
;

//---------------dance-single - ----------------
#NOTES:
     dance-single:
     :
     Beginner:
     4:
     0.152,0.208,0.045,0.075,0.000:
0000
0000
0000
0000
,
0000
0000
0000
0000
,
0000
0000
0000
0000
,
0000
0000
0000
0000
,
0000
0000
0000
0000
,
0001
0000
0000
0000
,
1000
0000
0000
0000
,
0001
0000
0000
0000
,
1000
0000
0001
0000
,
1001
0000
0000
0000
,
0000
0110
0000
0000
,
0000
1000
0000
0000
,
0001
0000
0100
0000
,
0100
0000
0000
0001
,
0000
0000
0000
1000
,
0000
0000
0000
0001
,
0000
0010
0010
0010
,
0000
0000
0000
0001
,
0000
0000
0000
1000
,
0000
0000
0000
0001
,
0000
0010
0000
0000
,
0000
1000
0000
1000
,
0000
1000
0000
1000
,
0000
0001
0000
0001
,
0000
0100
0000
0100
,
0000
1000
0000
1000
,
0000
1000
0000
1000
,
0000
0001
0000
0001
,
0000
0100
0000
0010
,
0000
0020
0000
0000
,
0000
0000
0000
0000
,
0030
0110
0000
0000
,
0000
1001
0000
0000
,
0000
0000
1000
0000
,
0001
0000
1000
0000
,
0000
0000
0010
0000
,
1000
0000
1000
0000
,
1000
0000
0010
0000
,
0002
0000
0003
0000
,
1000
0000
0010
0000
,
0001
0000
0001
0000
,
0001
0000
0010
0000
,
0020
0000
0030
0000
,
1000
0000
0010
0000
,
1000
0000
1000
0000
,
1000
0000
0010
0000
,
0002
0000
0003
0000
,
1000
0000
0010
0000
,
0001
0000
0001
0000
,
0001
0000
0010
0000
,
0020
0000
0030
0000
,
0002
0003
1000
0000
,
0001
0000
0010
0000
,
0100
0000
2000
0000
,
0000
3000
0020
0000
,
0000
0030
0200
0000
,
0000
0300
0002
0000
,
0000
0003
0000
0100
,
0000
0100
0000
0100
,
0000
0100
0000
0100
,
0000
0100
0000
1001
,
0000
1001
0000
0100
,
0010
0000
0000
0000
,
0000
0000
0000
1000
,
0000
0010
0000
0001
,
0000
1000
0000
1000
,
0000
0001
0000
0010
,
0000
0001
0000
0001
,
0000
0100
0000
0100
,
0000
0010
0000
1000
,
0000
0010
0010
0010
,
0000
1000
0000
1000
,
0000
0001
0001
0001
,
0000
1000
0000
1000
,
0000
0100
0100
0100
,
0000
0001
0000
0001
,
0000
0100
0000
0100
,
0000
0010
0000
1000
,
0000
0010
0010
0010
,
0010
0010
0000
0000
;

//---------------dance-single - ----------------
#NOTES:
     dance-single:
     :
     Easy:
     7:
     0.329,0.476,0.225,0.128,0.000:
0000
0000
0000
0000
,
0000
0000
0000
0000
,
0000
0000
0000
0000
,
0000
0000
0000
0000
,
0000
0000
0000
0000
,
1000
1000
0001
0001
,
0010
0010
0100
0000
,
1000
1000
0001
0001
,
1000
0010
0100
0000
,
0000
1001
0000
0000
1001
0000
0000
0000
,
0000
0000
0110
0000
0000
0000
0000
1000
,
0000
0000
0001
0000
0000
1000
0000
0000
,
0001
0100
0100
0220
,
0000
0330
1000
0100
,
0010
0100
0010
0001
,
0100
0000
0001
0100
,
0010
0100
0010
0010
,
0010
0000
1000
0100
,
0010
0100
0010
0001
,
0100
0000
0001
0100
,
0010
1010
0000
0011
,
0000
1000
0010
0001
,
0010
0001
0100
0001
,
0000
0001
0010
1000
,
0010
0001
0100
1000
,
0000
0001
0010
1000
,
0010
1000
0100
1000
,
0000
1000
0010
0001
,
0010
1000
0100
0001
,
0010
0200
0000
0010
,
0000
1000
0000
0001
,
0300
0110
0000
0000
,
0000
1001
0000
0000
,
0000
0000
0101
0000
,
1100
0000
1001
2002
,
3003
0100
0010
1000
,
0100
1000
0001
0010
,
0000
0100
0010
1000
,
0100
0010
0012
0013
,
0000
0100
0010
1000
,
0100
1000
0001
0010
,
0000
0100
0010
1000
,
0100
0010
0100
1100
,
0000
0100
0010
0001
,
0100
0001
1000
0010
,
0000
0100
0010
0001
,
0100
0010
2010
3010
,
0000
0100
0010
0001
,
0100
0001
1000
0010
,
0000
0100
0010
0001
,
0100
0010
0100
0101
,
0020
0030
1000
0010
,
0100
0001
0010
0100
,
1000
0001
0200
0000
,
0002
0300
0020
0003
,
2000
3030
0010
0100
,
1000
1000
0010
0100
,
0001
1000
0010
0100
0010
0000
1000
0000
,
1010
0010
0011
0100
,
1010
0100
0011
0100
,
1010
0100
0011
0101
,
1010
0000
1100
0000
0010
0001
0010
0001
,
1000
0010
1000
0010
0100
0000
0000
0010
,
0000
1001
0000
0010
,
0001
0000
0010
0000
0001
0000
0100
0010
,
0100
0002
0013
2000
,
3100
0000
0010
0000
1000
0000
0001
1000
,
0001
0100
0100
0010
,
1000
1000
0100
0010
,
0000
1001
0000
0110
,
0000
0000
1000
0000
0001
0000
1000
0001
,
1000
0001
0200
0000
0000
0000
0310
0000
,
1000
0000
0010
0000
1000
0000
0100
0010
,
0100
2000
3010
0002
,
0103
0000
0010
0000
0001
0000
1000
0001
,
1000
0100
0100
0010
,
0001
0001
0100
0010
,
0000
1001
0000
0110
,
0000
0000
0001
0000
1000
0000
0001
1000
,
0001
1000
0001
0000
0000
0000
0000
0000
;

//---------------dance-single - ----------------
#NOTES:
     dance-single:
     :
     Medium:
     9:
     0.521,0.566,0.286,0.128,0.075:
0000
0000
0000
0000
,
0000
0000
0000
0000
,
0000
0000
0000
0000
,
0000
0000
0000
0000
,
0000
0000
0000
0000
,
1000
0010
0100
0001
,
0010
0000
0010
0000
0100
0010
0100
0000
,
0001
0010
0100
1000
,
1100
0000
0000
0011
0000
0000
1010
0000
,
0001
1000
0000
0000
1100
0000
0000
0010
,
0000
0000
0201
0000
0300
0000
0000
1000
,
0100
0000
0001
0010
0000
1000
0010
0000
,
0100
0000
0010
0000
0100
0000
0010
0000
1000
0000
0001
0000
1000
0000
0001
1000
,
0020
0000
0130
0000
0001
0000
0100
0010
,
1000
0010
0100
0000
0010
0000
1000
0100
,
0001
0100
1000
0000
1000
0000
0100
0010
,
0001
0010
0100
1000
0000
0010
0000
1001
,
0000
1001
0000
0000
0001
0000
0100
0010
,
1000
0010
0100
0000
0010
0000
1000
0100
,
0001
0100
1000
0000
1000
0000
0100
0010
,
0001
0010
0100
1000
0010
0000
0110
0000
,
0000
0000
0001
0010
0001
0100
0010
0100
,
0001
0010
0001
0100
0010
1000
0100
0001
,
1000
0000
1000
0010
1000
0100
0010
0100
,
1000
0010
0100
0001
0100
1000
0001
0010
,
1000
0000
0001
0010
0001
0100
0010
0100
,
0001
0010
0001
0100
0010
1000
0100
0001
,
1000
0000
1000
0010
1000
0100
0010
0100
,
1000
0010
0100
0001
0101
0000
0010
1000
,
0100
0010
0002
0000
0000
0000
0200
0000
,
0300
2003
0000
0020
,
3030
1001
0000
0000
,
0000
0110
0000
0000
,
0000
0000
0000
0000
0011
0011
0000
0000
,
1100
1100
0000
0000
1001
0000
0110
0000
,
1001
0000
0100
0000
0010
1000
0010
1000
,
0100
0000
0100
0000
0001
0010
1000
0010
,
0000
0000
0100
0000
0010
0001
0010
0001
,
0100
0000
0100
0010
1000
0000
0001
1000
,
0100
0000
0100
0000
0010
1000
0010
1000
,
0100
0000
0100
0000
0001
0010
1000
0010
,
1000
0000
0100
0000
0010
0001
0010
0001
,
0100
0000
0100
0010
0100
0000
1000
0100
,
0000
0000
0100
0000
0010
0001
0010
0001
,
0100
0000
0100
0000
1000
0010
0001
0010
,
0000
0000
0100
0000
0010
1000
0010
1000
,
0100
0000
0100
0010
0001
0000
1000
0001
,
0100
0000
0100
0000
0010
0001
0010
0001
,
0100
0000
0100
0000
1000
0010
0001
0010
,
0011
0000
0100
0000
0010
1000
0010
1000
,
0100
0000
0010
0000
1001
0000
0000
0000
1000
0000
0001
0000
0010
0000
0100
0010
,
0200
0000
1300
0010
,
0001
0100
0001
0010
,
0001
0100
0010
1000
0200
0000
0010
0000
,
1000
0001
0320
0001
,
0100
0000
1000
0000
0031
0100
0001
0010
,
0010
1000
0100
1000
0010
0100
0001
1000
,
0010
0100
0010
0000
0100
0001
1000
0000
0002
0000
0000
0000
0013
0000
0100
0010
,
0000
0000
0000
0000
0010
0000
0100
0010
0000
0000
0000
0000
0010
0000
0100
0010
,
2000
0000
0000
0000
3010
0000
0100
0010
0002
0000
0000
0000
0013
0000
0100
0010
,
2000
0000
0000
0000
3010
0000
0100
0010
0001
0000
0000
0100
1000
0000
0000
0100
,
0001
0000
0000
0100
1000
0000
0000
0100
0001
0000
0010
0000
1000
0000
0100
0000
,
0010
0100
0010
0100
0010
0100
0010
0100
0010
0000
0000
0000
0000
0000
0110
0000
,
0000
0000
1001
0000
0100
0000
0010
0001
,
0100
0000
1010
0000
1100
0000
0010
0100
,
0001
0000
1000
0100
0002
0000
1003
0010
,
0002
0000
1003
0010
0001
1000
0100
0001
,
1000
0000
0101
0000
1000
0100
0001
0100
,
1000
0000
0101
0000
1000
0010
0001
0010
,
1000
0000
0011
0000
0010
1000
1010
0000
,
0101
0000
1000
0100
0010
0100
0001
0100
,
1000
0000
0010
0100
0001
0000
0000
0000
1100
0000
0000
0000
0010
0000
1000
0000
,
0100
0000
0011
0000
0101
0000
0010
0100
,
1100
0000
0001
0100
2000
0001
3001
0010
,
2000
0001
3001
0010
1000
0001
0100
1000
,
0001
0000
1100
0000
0001
0100
1000
0010
,
0001
0000
1100
0000
0001
0010
1000
0100
,
0001
0000
1010
0000
0010
0001
0011
0000
,
1100
0000
0001
0100
0010
0100
1000
0100
,
0001
0000
0010
0100
1000
0000
0000
0000
0000
0000
0000
0000
0000
0000
0000
0000
;

//---------------dance-single - Copied from----------------
#NOTES:
     dance-single:
     Copied from:
     Challenge:
     10:
     0.882,1.000,0.398,0.556,0.695: // measure 1
0000
0000
0000
0000
,  // measure 2
1010
0010
0100
0001
0000
1001
0000
1010
,  // measure 3
0000
0100
0001
0100
0010
0000
0110
0000
,  // measure 4
0100
0001
0010
0200
0000
2300
0000
3200
,  // measure 5
0000
0310
0001
1000
0020
0000
0130
0001
,  // measure 6
0000
0001
1000
0020
0000
0230
0000
0320
,  // measure 7
0000
1030
0001
0000
1001
0000
1010
0000
,  // measure 8
0010
0100
0001
1000
0000
0020
0000
0130
,  // measure 9
0120
0000
1030
1002
0000
0103
0102
0000
,  // measure 10
1003
1010
0000
0000
1002
0000
0103
0110
,  // measure 11
0000
0000
0210
0000
0301
0000
0000
0202
,  // measure 12
0000
0303
2020
0000
3030
0202
0000
0303
,  // measure 13
2000
0000
0000
0000
3002
0000
0000
0000
1003
0000
0001
0000
0100
0010
1000
0001
,  // measure 14
0200
0000
0310
1000
0001
0010
1000
0001
,  // measure 15
0100
1000
0010
0100
0001
0100
0101
0000
,  // measure 16
1001
0000
1000
0010
0001
1000
0100
0001
,  // measure 17
0010
0100
0000
1000
0001
0100
0010
0000
,  // measure 18
1001
1001
0000
0001
1000
0010
0100
0001
,  // measure 19
0010
0100
1000
0100
0010
0001
1001
0000
,  // measure 20
0101
0000
0100
0010
1000
0001
0100
2000
,  // measure 21
0000
0000
3200
0000
0000
0000
0301
0000
0020
0000
0000
0000
0130
1000
0000
1000
,  // measure 22
0100
0000
0010
0000
0001
0010
0100
1000
0100
0000
0010
0000
0001
0010
0100
1000
,  // measure 23
0001
0000
0100
0000
0010
1000
0001
0100
0010
0000
1000
0000
0001
0010
0001
1000
,  // measure 24
0010
0000
0100
0000
0001
1000
0010
0100
0010
0000
1000
0000
0001
0010
0001
0100
,  // measure 25
0010
0000
1000
0000
0100
0010
0001
0010
0100
0000
1000
0000
0001
0010
0001
1000
,  // measure 26
0100
1000
0010
0100
0001
1000
0001
0010
0100
0000
1000
0000
0001
1000
0010
0100
,  // measure 27
0001
0000
1000
0000
0010
0100
0010
1000
0001
0000
0100
0000
0001
0010
0100
1000
,  // measure 28
0100
0000
0010
0000
0001
0010
0100
0010
0001
0000
0100
0000
0010
0100
0010
1000
,  // measure 29
0100
0000
0010
0000
0001
0000
0000
0001
1000
0000
0001
1000
0100
0010
0100
1000
,  // measure 30
0001
0000
0100
0010
0200
0000
0000
0000
0000
0000
0000
0000
0010
0000
0000
0000
,  // measure 31
0000
1000
0000
0010
,  // measure 32
0300
0000
1001
0010
0100
0010
1000
0001
,  // measure 33
0100
0010
0101
0010
1000
0001
0010
0100
,  // measure 34
1000
0010
0100
0002
1003
1020
0000
0230
,  // measure 35
0301
0101
0220
0330
0202
0303
2020
3030
,  // measure 36
1001
0001
0100
0020
0000
1030
0010
0002
,  // measure 37
0000
0013
0100
1000
0001
0010
1000
0200
,  // measure 38
0000
1300
0100
0020
0000
1030
0010
0002
,  // measure 39
0000
0013
1000
0001
0200
0000
1000
1300
,  // measure 40
1001
0001
0100
0020
0000
1030
0010
0002
,  // measure 41
0000
0013
1000
0010
0001
1000
0100
0002
,  // measure 42
0000
1003
0010
2000
0000
3001
0100
0020
,  // measure 43
0000
0000
0130
0000
0001
0000
2000
0000
0000
0000
3001
0100
0001
0000
0020
0000
,  // measure 44
0000
0031
0100
0002
0000
1003
0010
0200
,  // measure 45
0000
0301
0100
1000
0001
0010
1000
0200
,  // measure 46
0000
1300
0100
0020
0000
1030
0010
0002
,  // measure 47
0000
0013
1000
0001
0200
0000
1000
1300
,  // measure 48
1010
0010
0100
0002
0000
1003
0010
0002
,  // measure 49
0000
0013
1000
0010
0001
1000
0100
0020
,  // measure 50
0000
1030
0010
0200
0000
0301
1000
0020
,  // measure 51
0000
0000
0130
0000
0001
0000
1000
0000
0010
1000
0001
0010
0100
1000
0010
0100
,  // measure 52
0002
0000
0000
0000
0000
0000
0000
0000
0003
0000
0000
0000
0000
0000
0000
0000
0010
1000
0010
0100
0010
1000
0001
0100
0001
1000
0001
0010
0100
1000
0100
0010
,  // measure 53
0100
1000
0001
0100
0010
0100
0001
1000
0010
0100
0001
1000
0100
0010
0100
1000
0001
0100
0010
0001
0010
1000
0100
0001
0100
1000
0001
0010
0100
1000
0010
0100
,  // measure 54
0001
0010
0100
1000
0010
0100
0001
0100
0010
1000
0001
1000
0010
0100
0001
1000
1001
0000
0001
0000
0100
0000
0010
0000
1000
0000
0001
0000
0100
0000
0010
0000
,  // measure 55
1000
0001
0010
0100
0010
0001
1000
0010
0100
0001
0010
0001
1000
0100
1000
0010
,  // measure 56
0100
0010
1000
0001
0100
0010
0100
0001
0010
0001
1000
0010
0100
0001
0010
0100
,  // measure 57
1000
0010
0100
1000
0100
0001
0010
1000
0010
0001
0100
1000
0100
0001
1000
0010
,  // measure 58
0001
0010
1000
0001
0100
0001
0010
0100
1000
0010
0100
0010
1000
0001
0010
0002
,  // measure 59
0000
0103
0001
0000
0010
0000
0100
0020
0000
0130
1000
0000
0010
0000
0100
0010
,  // measure 60
1010
1000
0001
0000
0100
0000
0010
1000
1001
0001
1000
0000
0010
0000
0100
0010
,  // measure 61
0110
0100
0001
0000
0010
0000
0100
1000
1001
0000
0000
0001
0101
0000
0000
0100
,  // measure 62
0110
0000
0000
0010
1010
0000
0000
1000
0010
0100
0010
0100
0001
1000
0001
1000
,  // measure 63
0100
0000
0010
0000
0001
0000
0100
0000
0010
0100
0001
1000
0010
0100
0001
1000
0010
0000
1001
0000
0000
0000
0000
0000
0000
0000
0000
0000
0110
0000
0000
0000
,  // measure 64
0000
0000
0000
0000
2002
3003
0000
0000
1000
0000
0010
0000
1000
0000
0100
0000
,  // measure 65
0010
0001
0010
0000
0100
1000
0100
0000
0010
0000
0001
0100
0001
0000
1000
0000
,  // measure 66
1002
0000
0000
0000
0013
0000
0100
0000
1000
0000
0010
0000
0100
0010
0100
0000
,  // measure 67
0001
0000
1000
0000
0010
0000
0100
0000
0010
0000
0001
0000
0010
1000
0001
1000
,  // measure 68
0010
0000
0100
0000
0120
0000
0000
0000
1030
0000
0001
0000
0010
0100
1000
0100
,  // measure 69
0010
0000
0001
0000
2001
0000
0000
0000
3100
0000
0010
0000
0001
0010
0100
1000
,  // measure 70
0100
0010
0012
0000
1003
0100
0110
0000
,  // measure 71
0010
0000
0001
0000
1000
0000
0010
0000
0100
0000
0001
1000
0000
0001
0100
0010
,  // measure 72
1000
0100
0010
0001
0010
0000
0100
0000
1000
0000
0100
0000
0001
0000
0100
0000
,  // measure 73
1000
0100
1000
0000
0001
0010
0001
0000
0100
0000
1000
0100
0010
0000
0100
0000
,  // measure 74
0102
0000
0000
0000
1003
0000
0010
0000
0100
0000
0001
0000
1000
0010
2000
0000
,  // measure 75
0000
0000
0000
0000
3001
0000
1000
0000
0010
0000
0100
0000
0001
0010
0100
1000
,  // measure 76
0001
0000
0100
0000
0120
0000
0000
0000
1030
0000
0001
0000
0010
0100
1000
0100
,  // measure 77
0010
0000
0001
0000
0021
0000
0000
0000
0130
0000
1000
0000
0010
1000
0001
1000
,  // measure 78
0010
0100
0120
0000
1030
0001
1001
0000
,  // measure 79
1000
0000
0010
0000
0100
0000
0001
0000
0010
0000
0100
1000
0100
0010
0001
1000
,  // measure 80
0010
1000
0001
0100
0020
0000
0000
0000
0000
0000
0000
0000
0000
0000
0000
0000
,  // measure 81
0030
0000
0000
0000
;
