#TITLE:NO CRIME;
#SUBTITLE:;
#ARTIST:SHANADOO;
#TITLETRANSLIT:;
#SUBTITLETRANSLIT:;
#ARTISTTRANSLIT:;
#CREDIT:;
#BANNER:NO CRIME.png;
#BACKGROUND:NO CRIME-bg.png;
#LYRICSPATH:;
#CDTITLE:./CDTITLES/DanceDanceRevolution Full-Full Party.png;
#MUSIC:NO CRIME.mp3;
#OFFSET:1.404;
#SAMPLESTART:48.047;
#SAMPLELENGTH:15.000;
#SELECTABLE:YES;
#BPMS:0.000=160.000;
#STOPS:;
#BGCHANGES:;

//---------------dance-single - ----------------
#NOTES:
     dance-single:
     :
     Beginner:
     2:
     0.160,0.228,0.089,0.000,0.000:
0000
0000
0000
0000
,
0000
0000
0000
0000
,
0000
0000
0000
0000
,
0000
0000
0000
0000
,
0000
0000
0000
0000
,
1000
0000
0000
0000
,
0001
0000
0000
0000
,
1000
0000
0000
0000
,
1001
0000
0000
0000
,
0010
0000
0010
0000
,
0001
0000
0000
0000
,
1000
0000
0100
0000
,
0001
0000
0100
0000
,
0100
0000
0010
0000
,
1000
0000
0000
0000
,
0100
0000
0001
0000
,
1000
0000
0000
0000
,
0100
0000
0100
0000
,
1000
0000
0000
0000
,
0001
0000
0010
0000
,
1000
0000
0010
0000
,
0001
0000
0001
0000
,
1000
0001
1000
0000
,
0001
0000
1000
0000
,
0000
0000
1001
0000
,
0001
0001
0001
0000
,
1000
0000
0010
0000
,
1000
1000
1000
0000
,
0001
0000
0100
0000
,
1000
0000
0000
0000
,
0001
0000
0000
0000
,
0001
0001
0000
1000
,
1000
0000
0010
0010
,
0000
0000
0000
0000
,
1000
0000
0010
0000
,
0100
0000
0000
0000
,
0100
0000
1000
0000
,
0001
0000
0000
0000
,
0001
0000
0100
0000
,
0010
0000
0000
0000
,
0010
0000
0001
0000
,
1000
0000
0000
0000
,
1001
0000
0100
0000
,
1001
0000
0000
0000
,
1001
0000
0000
0000
,
0010
0000
0100
0000
,
1001
0000
0000
0000
,
1000
0000
0001
0000
,
1001
0000
0000
0000
,
0000
0000
0000
0000
,
1000
1000
0000
0010
,
0010
0000
0001
0000
,
0001
0000
0010
0000
,
0100
0000
1000
0000
,
0001
0000
1000
1000
,
1000
0000
0001
0001
,
0001
0000
0000
0000
,
1001
0000
0000
0000
,
0001
0001
0000
0100
,
0100
0000
1000
0000
,
1000
0000
0100
0000
,
0010
0000
0001
0000
,
0001
0000
0100
0000
,
0010
0000
1000
0000
,
0001
0000
0000
0000
,
1000
0000
0000
0000
,
1001
0000
0000
0000
;

//---------------dance-single - ----------------
#NOTES:
     dance-single:
     :
     Easy:
     4:
     0.251,0.455,0.197,0.099,0.000:
0000
0000
0000
0000
,
0000
0000
0000
0000
,
0000
0000
0000
0000
,
0000
0000
0000
0000
,
0000
0000
0000
0000
,
1000
0000
0000
0000
,
0001
0000
0000
0000
,
1000
0000
0000
0000
,
1000
0000
0001
0000
,
0001
0100
0001
0000
,
0001
0000
1000
1000
,
0001
0000
0001
0000
,
0100
0000
0000
0000
,
1000
0100
0010
0000
,
1000
0000
0100
0100
,
0001
0000
1000
0000
,
0001
1000
0001
0000
,
1000
0010
1000
0000
,
1000
0000
0001
0001
,
1000
0000
1000
0000
,
0010
0000
0000
0000
,
0001
0000
0010
0000
,
1000
1000
0001
0000
,
1000
0100
0010
0000
,
0110
0000
1001
0000
,
0100
0100
0001
0001
,
1000
0000
0001
0000
,
0100
0100
1000
1000
,
0001
0000
1001
0000
,
0100
0000
0100
0000
,
0010
0000
0010
0000
,
0001
1000
0010
1000
,
0001
0100
0010
0000
,
0000
0000
0000
0000
,
1000
0001
1000
0001
,
1000
0000
1001
0000
,
0001
0100
0001
0000
,
1000
0000
0110
0000
,
0001
1000
0001
1000
,
0001
0000
1001
0000
,
1000
0100
1000
0000
,
0001
0000
0110
0000
,
1001
0000
0110
0000
,
2001
3000
0010
0000
,
1002
0003
0100
0000
,
2002
3003
0220
0330
,
2002
0000
3003
0000
,
0010
0000
1000
0001
,
2002
0000
0000
3003
,
0000
0000
0000
0000
,
0001
1000
0000
0100
,
0001
0001
0100
0000
,
1000
0001
0010
0000
,
1000
0100
0001
0000
,
1000
0001
0001
1000
,
0001
0010
0100
1000
,
0001
0000
0110
0000
,
1001
0000
0000
0000
,
1000
0001
0000
0100
,
1000
1000
0100
0000
,
0001
1000
0010
0000
,
0001
0100
1000
0000
,
1000
1000
0000
0100
,
0100
0100
0010
0001
,
1000
0000
0000
0000
,
1001
0000
0110
0000
,
1001
0000
0000
0000
;

//---------------dance-single - ----------------
#NOTES:
     dance-single:
     :
     Medium:
     6:
     0.397,0.520,0.266,0.099,0.000:
0000
0000
0000
0000
,
0000
0000
0000
0000
,
0000
0000
0000
0000
,
0000
0000
0000
0000
,
0000
0000
0000
0000
,
1000
0000
0000
0000
,
0100
0000
0000
0000
,
0001
0000
0000
0000
,
0001
1000
0001
1000
,
0010
0100
0001
1000
,
0001
1000
0100
0010
,
0001
0000
0010
0000
1000
0000
0100
1000
,
0000
0010
0000
0100
0000
0010
0000
1000
,
0010
0100
1000
0000
,
1000
0001
0100
0000
,
0100
1000
0001
0100
,
0001
0100
0000
1000
0000
0100
0000
0001
,
0010
0001
0100
0000
0001
0000
1000
0100
,
0001
1000
0100
1010
,
0001
1000
0010
0000
1000
0000
0100
1000
,
0000
0010
0000
0101
0000
0010
0000
1000
,
0010
1000
0100
0000
0010
0000
0001
0100
,
1000
0001
0010
1001
,
0100
0010
0001
0000
0100
0000
0010
0000
,
1000
1100
0010
0011
,
0100
0001
0100
0000
0100
1000
0100
0000
,
0001
1100
0010
0100
,
0010
0001
0010
0000
0010
1000
0010
0000
,
1000
0000
0010
0100
,
1000
0100
0010
0000
0001
0000
0010
0000
,
0001
0100
0010
0000
1000
0000
0010
0000
,
0001
0010
1000
0100
,
0010
0100
0110
0000
,
0000
0000
0000
0000
,
0100
0010
0001
0000
0010
0100
0001
0000
,
1001
0001
1000
1001
,
0100
1000
0001
1000
,
0100
0010
0110
0100
,
0010
0100
1000
0000
0100
0010
1000
0000
,
1001
0001
1000
1001
,
0010
0001
1000
0001
,
0010
0100
0110
0010
,
1200
0310
0201
0310
,
2001
0010
3100
0010
,
1002
0100
0013
0100
,
0020
1030
0200
0301
,
2002
0000
3003
0100
,
0010
1000
0001
2000
,
0002
0000
0000
3003
,
0000
0000
0100
1010
,
0001
0000
1000
0100
1000
0000
1000
0000
,
0100
0000
0100
1000
0001
0000
0010
0000
,
1000
0001
0010
0100
,
0010
0001
0010
0100
,
1000
0100
0010
0000
0010
0100
1000
0000
,
0100
0011
0100
1000
,
0001
0100
1000
0100
,
0010
0000
0010
0101
,
1000
0000
0001
0100
0001
0000
0001
0000
,
0100
0000
0100
0001
1000
0000
0010
0000
,
0001
1000
0010
0100
,
0010
1000
0010
0100
,
1000
0001
1000
0000
0001
1000
0001
0000
,
0010
1100
0110
0011
,
1001
1000
0001
0010
,
0100
0000
1010
0000
,
0101
0000
0000
0000
;

//---------------dance-single - ----------------
#NOTES:
     dance-single:
     :
     Hard:
     8:
     0.602,0.683,0.266,0.256,0.034:
0000
0000
0000
0000
,
0000
0000
0000
0000
,
0000
0000
0000
0000
,
0000
0000
0000
0000
,
0000
0000
0000
0000
,
1000
0000
0000
0000
,
0010
0000
0100
0000
,
0001
0000
0000
0000
,
2001
3100
1002
0103
,
1000
0000
0001
0000
0100
0000
0010
0001
,
1000
0000
0010
0100
0000
0000
0010
1000
,
0100
0000
0001
0000
0010
0000
0001
1000
,
0000
0100
0000
0001
0000
0010
0000
0100
,
0010
0100
0001
1000
,
0010
0000
1000
0001
0000
0001
0010
0000
,
0001
0000
0100
0000
1000
0000
0100
0010
,
0110
0000
0100
0000
0011
0000
1000
0001
,
1000
0010
0001
0010
0100
0000
0010
0001
,
1000
0100
0010
0100
0001
0000
0010
1000
,
0100
0010
0001
0100
0010
0000
0001
1000
,
0010
0100
0000
0011
0000
0010
0000
0100
,
0010
0001
0100
0001
0010
0000
0100
1000
,
0001
0010
0100
0010
1000
0000
0101
0000
,
1000
0010
0001
0010
0100
0000
0010
0001
,
1000
0000
0000
0100
0000
0000
0010
0000
0001
0000
0010
0000
1000
0000
0100
0000
,
1000
0001
0100
0010
0000
0010
0001
0100
,
1000
0100
0001
0010
0001
1000
0100
0001
,
1000
0001
0010
0100
0000
0100
0001
0010
,
0001
0010
1000
0000
1100
0000
0011
0000
,
0100
0010
1000
0100
0010
0100
1000
0010
,
0100
0010
0001
0100
0010
0100
0001
0010
,
0100
1000
0100
0001
0010
1000
0010
0100
,
0010
0001
1000
0010
0100
0001
1000
0001
,
0100
0000
1000
0001
,
0210
0000
1300
0010
0201
0000
0301
0010
,
1000
0100
1000
0000
0100
0001
0100
0010
,
0200
0000
1300
0010
0200
0000
0301
0010
,
0001
0010
0001
0000
0010
1000
0010
0100
,
0120
0000
1030
0100
0021
0000
0031
0100
,
1000
0010
1000
0000
0010
0001
0010
0100
,
0020
0000
1030
0100
0020
0000
0031
0100
,
0001
0100
0001
0000
0100
1000
0100
0010
,
2100
0000
3010
0000
0102
0000
0013
0100
,
0120
0000
0031
0100
1020
0000
0130
1000
,
0210
0000
1300
0010
0201
0000
0310
0001
,
2000
0000
0000
0100
0000
0000
3010
0000
0002
0000
0000
0100
0000
0000
0013
0000
,
1000
0000
0001
1000
0010
0000
0100
1000
,
0001
0000
0010
0000
0100
0000
1000
0001
,
0100
0000
0000
0001
1001
0000
0000
1000
,
1100
0000
0011
0000
1010
0000
0100
0001
,
1000
0000
0010
0000
1000
0000
0100
0000
0010
0001
0000
0000
0001
0100
0000
0000
,
1000
0100
1000
0010
0100
0001
0100
0001
,
1000
0100
1000
0010
0100
0000
0001
0100
,
1000
0010
1000
0100
0010
0001
0010
0100
,
1000
0200
0310
0002
0103
0010
1000
0010
,
0200
0010
0301
0000
0002
0010
0103
0000
,
0100
0002
0010
0103
1000
0200
0010
1300
,
0001
1000
1001
0000
0101
0000
0010
1000
,
0001
0000
0100
0000
0001
0000
0010
0000
0100
1000
0000
0000
1000
0010
0000
0000
,
0001
0010
0001
0100
0010
1000
0010
0100
,
0001
0010
0001
0100
0010
0000
1000
0010
,
0001
0100
0001
0010
0100
1000
0100
0010
,
0001
0010
1000
0010
0001
0100
1000
0100
,
0020
0000
0130
0001
2000
0000
3100
0010
,
0001
0010
0001
0010
0100
0001
0100
1000
,
1100
0000
0001
1000
0110
0000
1000
0010
,
0101
0000
0000
0000
;

//---------------dance-single - Copied from----------------
#NOTES:
     dance-single:
     Copied from:
     Challenge:
     9:
     0.807,0.888,0.631,0.542,0.305: // measure 1
0000
0000
0000
0000
,  // measure 2
1001
1000
0010
0100
1000
0100
0001
0010
,  // measure 3
0100
1000
0100
0010
0000
0000
0000
0000
,  // measure 4
0011
0001
0010
0100
1000
0010
0001
1000
,  // measure 5
0100
0001
1000
0010
0000
0000
0000
0000
,  // measure 6
1010
1000
0001
0100
1000
0100
0001
0010
,  // measure 7
0100
1000
0010
0001
0000
0000
0000
0000
,  // measure 8
0011
0010
1000
0100
0010
0001
0010
0100
,  // measure 9
1001
1000
0010
0100
0101
0001
1000
0010
,  // measure 10
1001
0000
0001
0000
1000
0000
0010
0000
0100
0000
0000
0010
0000
0000
0010
0000
,  // measure 11
0000
0000
1000
0000
0001
0000
0010
0000
0100
0000
0000
1000
0000
0000
1000
0000
,  // measure 12
0000
0000
1000
0000
0001
0000
0010
0000
0100
0000
0000
1000
0000
0000
1001
0000
,  // measure 13
0000
0011
0000
0110
0000
1100
0000
0100
,  // measure 14
0010
0000
0001
0000
0100
0000
0010
0000
1000
0000
0000
0020
0000
0000
0200
0000
,  // measure 15
0000
0300
1030
0001
0100
0001
0010
0100
,  // measure 16
1000
0000
0010
0000
0100
0000
0001
0000
1000
0000
0000
0100
0000
0000
0010
0000
,  // measure 17
0110
0000
0000
0000
0100
0000
0000
0000
0011
0000
0000
0000
1000
0000
0010
1000
,  // measure 18
0001
0000
0100
0000
0001
0000
0010
0000
0100
0000
0000
1010
0000
0000
0101
0000
,  // measure 19
0000
0000
0100
0000
0010
0000
0100
0000
0001
0000
0000
0101
0000
0000
1001
0000
,  // measure 20
0000
0000
1000
0000
0001
0000
0100
0000
0010
0000
0000
0110
0000
0000
0101
0000
,  // measure 21
0000
0100
0001
1000
0010
0001
1000
0100
,  // measure 22
0010
1000
0100
0020
0000
0000
0130
1000
,  // measure 23
0001
0010
0100
0020
0000
0031
0100
0010
,  // measure 24
1000
0100
0010
0002
0000
0000
0103
0001
,  // measure 25
1100
0000
0000
0110
0000
0000
0010
0000
0001
0000
0010
0000
0100
1000
0100
1000
,  // measure 26
0100
0010
1000
0001
0100
1000
0001
0100
,  // measure 27
1000
0001
0010
1000
0100
1000
0010
0001
,  // measure 28
1000
0000
0001
0000
0010
0000
1000
0000
0100
0000
0000
0110
0000
0000
0010
0000
,  // measure 29
0001
0000
0000
1001
0000
0000
0100
0000
0110
0000
0000
0000
0011
0000
0000
0000
,  // measure 30
0100
0010
1000
0100
0010
0100
1000
0010
,  // measure 31
0100
0001
1000
0100
0010
0100
1000
0001
,  // measure 32
0010
1000
0010
0001
1000
0010
0100
0001
,  // measure 33
1000
0010
0100
0001
1000
0010
0001
1000
,  // measure 34
0100
0010
1000
0100
0010
0001
0010
0100
1000
0000
0000
0000
0001
0000
1000
0000
,  // measure 35
0210
0000
0000
0001
0300
0000
0010
0000
1200
0000
0000
0010
0300
0000
0001
0000
,  // measure 36
1000
0000
0000
0100
0000
0000
0110
0000
1001
0000
0000
0000
0000
0000
0100
0000
,  // measure 37
0012
0000
0000
1000
0003
0000
0001
0000
2010
0000
0000
0001
3000
0000
0100
0000
,  // measure 38
0010
0000
0000
0100
0000
0000
0011
0000
1001
0000
0000
0000
0110
0000
0000
0000
,  // measure 39
0120
0000
0000
1000
0030
0000
0100
0000
0021
0000
0000
0100
0030
0000
1000
0000
,  // measure 40
0001
0000
0000
0110
0000
0000
1001
0000
0101
0000
0000
0000
0000
0000
0100
0000
,  // measure 41
0120
0000
0000
1000
0030
0000
0100
0000
0021
0000
0000
0100
0030
0000
1000
0000
,  // measure 42
0001
0000
0100
0000
0001
0000
0010
0000
0100
0000
1000
0000
0100
0010
0001
0010
,  // measure 43
0200
2300
3002
2003
,  // measure 44
3010
0000
0100
0000
0000
1001
0000
0000
0220
0000
0000
0000
0000
0000
0330
0000
,  // measure 45
1000
0000
0000
1001
0000
0000
0001
0000
0202
0000
0000
0000
0303
0000
0000
0000
,  // measure 46
2001
0000
0000
3002
0000
0000
0023
0000
0032
0000
0000
0203
0000
0000
0310
0000
,  // measure 47
1020
0000
0000
2030
0000
0000
3020
0000
0230
0000
0000
0302
0000
0000
0013
0000
,  // measure 48
0120
0000
0000
0230
0000
0000
0320
0000
0230
0000
0000
2300
0000
0000
3001
0000
,  // measure 49
1002
0000
0000
2003
0000
0000
3010
0000
1020
0000
0000
2030
0000
0000
3001
0000
,  // measure 50
0011
0000
0010
0000
0110
0000
0100
0000
1100
0000
2000
0000
0002
3000
0200
0003
,  // measure 51
0310
0100
0010
0000
1000
0010
1000
0000
0100
1000
0100
0000
0010
0001
0010
0000
,  // measure 52
0001
1000
0001
0000
0100
0010
0100
0000
0010
0000
1000
0000
0001
0000
0100
0000
,  // measure 53
0001
0000
0000
0010
0000
0000
0100
0000
1001
0000
0000
0000
0001
0000
0100
0000
,  // measure 54
1000
0100
0001
0010
1000
0010
0001
0100
,  // measure 55
1000
0000
0100
0000
0001
0010
0001
0000
0100
0010
0100
0000
0001
1000
0001
0000
,  // measure 56
0201
0302
2003
3200
,  // measure 57
0320
0001
0000
0001
2030
0100
0000
3010
,  // measure 58
1001
0000
0001
1000
0010
0100
0001
1000
,  // measure 59
0010
0100
0010
0000
1000
0001
1000
0000
0100
1000
0100
0000
1000
0010
1000
0000
,  // measure 60
0001
1000
0001
0000
0100
0010
0100
0000
0001
0000
1000
0000
0010
0000
0100
0000
,  // measure 61
0001
0000
0000
1000
0000
0000
0010
0000
1001
0000
0000
0000
0100
0000
0001
0000
,  // measure 62
1000
0100
0001
1000
0010
0001
0100
0010
,  // measure 63
1000
0000
0001
0000
1000
0010
1000
0000
0001
0100
0001
0000
1000
0001
1000
0000
,  // measure 64
0020
0000
0000
0000
0000
0000
1030
0000
1010
0000
0000
0110
0000
0000
1001
0000
,  // measure 65
1000
0010
0100
0001
0010
0100
1000
0010
,  // measure 66
2002
3003
0001
1000
0220
0330
0000
1001
,  // measure 67
0001
1000
0010
0100
0020
0030
1001
0000
;
