#TITLE:NINE PIECE;
#SUBTITLE:;
#ARTIST:SOUND HOLIC;
#TITLETRANSLIT:;
#SUBTITLETRANSLIT:;
#ARTISTTRANSLIT:;
#GENRE:;
#CREDIT:;
#BANNER:NINE PIECE-bn.png;
#BACKGROUND:;
#LYRICSPATH:;
#CDTITLE:;
#MUSIC:NINE PIECE.mp3;
#OFFSET:0.020000;
#SAMPLESTART:56.899963;
#SAMPLELENGTH:12.000000;
#SELECTABLE:YES;
#BPMS:0.000000=168.000000
,100.000000=160.000000
,221.750000=168.000000
,297.500000=140.000000
;
#STOPS:
;
#BGCHANGES:;
#KEYSOUNDS:;
#ATTACKS:;

//---------------dance-single - ----------------
#NOTES:
     dance-single:
     :
     Hard:
     17:
     1.000000,1.000000,0.730162,0.234695,1.000000,697.000000,84.000000,27.000000,0.000000,0.000000,0.000000,1.000000,1.000000,0.730162,0.234695,1.000000,697.000000,84.000000,27.000000,0.000000,0.000000,0.000000:
// measure 0
0000
0000
0000
0000
0000
0000
0001
1000
,  // measure 1
0010
0100
0010
0000
1000
0000
0001
0000
0100
0010
0100
0000
0001
0100
0001
0100
,  // measure 2
0000
0000
0000
0010
0000
0000
1000
0000
0000
0010
0000
0000
0000
0000
0000
0100
0000
0000
0010
0000
0000
0100
0000
0000
0010
0000
0000
1000
0000
0000
0001
0000
0000
1000
0000
0000
0001
0000
0000
0000
0010
0000
0000
0000
0100
0000
0000
0000
,  // measure 3
0010
0001
1000
0010
1000
0001
0100
0000
0000
0101
0000
0000
,  // measure 4
1010
1100
0101
0110
,  // measure 5
1100
0000
0110
0000
0011
0000
0001
0100
,  // measure 6
1000
0100
0001
0010
1000
0010
0001
0100
,  // measure 7
1000
0000
0100
0000
0001
0000
0010
0000
1000
0000
0010
0000
0001
1000
0001
0000
,  // measure 8
0100
0010
0100
0000
0001
1000
0100
0000
0010
0001
1000
0000
0100
1000
0000
0100
,  // measure 9
1000
0000
0100
1000
0000
0100
0010
0000
0100
0010
0000
0000
0012
0000
0000
0103
,  // measure 10
0000
0000
0001
1000
0100
0000
0010
0000
0120
0000
0000
0031
0000
0000
1000
0010
,  // measure 11
0100
0000
0001
0000
0201
0000
0000
0310
0000
0000
1000
0001
1000
0000
0001
0000
,  // measure 12
0021
0000
0000
0130
0000
0000
1000
0100
0010
0000
0100
0000
0120
0000
0000
0031
,  // measure 13
0000
0000
0100
0010
0100
0000
0001
0000
2001
0000
0000
3100
0000
0000
0010
0001
,  // measure 14
0010
0000
0001
0000
0201
0000
0000
0310
0000
0000
1000
0010
1000
0000
0010
0000
,  // measure 15
0220
0000
0000
0330
0100
0001
1000
0010
0100
0001
1000
0100
1000
0001
0010
0100
,  // measure 16
0010
0001
1000
0010
1000
0001
0100
0001
1000
0100
0010
0100
1000
0001
0100
0001
,  // measure 17
0100
0000
0000
0110
0000
0000
0010
0000
1000
0000
0010
0100
0000
0000
0101
0000
,  // measure 18
0110
0000
0000
0101
0000
0000
1010
0000
1100
0000
0000
0010
0000
0000
0001
0000
,  // measure 19
1000
0000
0000
1100
0000
0000
0010
0000
0001
0000
0100
0010
0000
0000
1010
0000
,  // measure 20
1001
0000
0000
0110
0000
0000
0101
0000
1010
0000
0000
1000
0010
0100
0010
0100
,  // measure 21
0001
0000
0000
0011
0000
0000
0100
0000
1000
0000
0010
0100
0000
0000
0101
0000
,  // measure 22
1001
0000
0000
0110
0000
0000
1010
0000
2002
0000
0000
0000
0000
0000
3003
0000
,  // measure 23
0100
0000
0000
0010
0000
0000
1000
0000
0001
0000
0000
0100
0000
0000
0001
0000
,  // measure 24
1000
0000
0000
0100
0000
0000
0010
0000
0001
0000
0000
1000
0000
0000
0010
0000
,  // measure 25
0210
0000
0000
0000
0000
0000
0301
0010
0100
1000
0010
0100
,  // measure 26
1000
0100
0010
1000
0100
0010
0001
0000
0000
0000
0000
0000
,  // measure 27
1001
0000
0000
0000
0001
0010
0100
0000
0010
0100
1000
0000
0001
0010
0100
0000
,  // measure 28
1100
0000
0000
0000
1000
0010
0100
0000
0010
0100
0001
0000
1000
0010
0100
0000
,  // measure 29
0101
0000
0000
0000
1000
0010
0001
0000
1000
0100
0001
0000
0100
0010
0100
0000
,  // measure 30
1001
0000
0002
0000
0000
0203
0000
0000
0320
0000
0000
2030
0000
0000
3001
0000
,  // measure 31
0100
0000
0010
0000
1000
0010
0000
0010
0100
0000
0100
0001
0000
0001
0010
0000
,  // measure 32
0100
0000
1000
0000
0100
0010
0000
0010
0001
0000
0001
1000
0000
1000
0010
0000
,  // measure 33
0100
0000
0001
0100
0001
0100
0000
0001
0010
0000
0100
1000
0000
0001
0100
0000
,  // measure 34
0020
0000
0100
0000
0000
0130
0000
0000
0110
0000
0000
1010
0000
0000
0101
0000
,  // measure 35
0010
0000
1000
0000
0001
0010
0100
0010
0001
0100
0001
0100
0010
1000
0010
0100
,  // measure 36
0010
0000
0100
0010
0100
0010
0100
0001
1000
0010
1000
0100
0010
0001
0010
0100
,  // measure 37
1000
0010
1000
0001
0100
0000
0010
0000
1000
0001
1000
0001
0100
0010
0100
0000
,  // measure 38
0001
0100
1000
0100
0001
0010
1000
0010
0001
0100
1000
0100
0001
0000
0000
0000
,  // measure 39
0110
0000
0000
0000
0001
0000
1000
0100
1000
0100
1000
0100
0010
0000
0001
1000
,  // measure 40
0001
0100
0010
0100
1000
0100
0000
0000
0001
0010
0100
0010
0001
1000
0010
1000
,  // measure 41
0010
0100
0001
0100
0010
1000
0100
0001
0100
1000
0100
0000
0010
0001
0010
0100
,  // measure 42
1000
0010
1000
0010
0100
0001
0100
0001
0010
0100
0010
0100
1000
0100
0010
0001
,  // measure 43
2000
0000
0000
0000
3010
0000
0000
0101
0000
0000
0000
0000
0010
0000
1000
0000
,  // measure 44
0002
0000
0000
0000
0103
0000
0000
0010
1000
0000
1000
0001
0000
0001
0010
0000
,  // measure 45
0100
1000
0100
1000
0001
0100
0001
0100
0010
1000
0010
0100
0001
0010
0001
1000
,  // measure 46
0010
0000
0100
0010
0100
0010
0100
0000
0001
1000
0000
1000
0010
0000
0000
0000
,  // measure 47
0100
0001
1000
0001
0100
0000
0000
0000
0010
0000
0000
0000
1000
0000
0010
0000
,  // measure 48
0110
0110
0100
0101
0101
0010
1010
0110
,  // measure 49
0100
0101
0011
1100
1001
0110
0011
1010
,  // measure 50
0100
0000
0210
0000
0000
0000
0000
0000
0000
0000
0000
0000
0301
0100
0020
0000
,  // measure 51
1000
0000
1000
0000
1000
0000
1000
0000
1030
0000
0001
0010
0100
1000
0001
0100
,  // measure 52
0001
0010
0100
1000
0010
1000
0100
0010
0001
0100
0010
1000
0010
0100
0001
0010
,  // measure 53
0001
1000
0100
1000
0010
0100
0001
1000
0100
0010
0100
1000
0010
0100
0001
0100
,  // measure 54
0020
0000
0000
0000
0000
0000
0000
0000
0130
0000
0000
1001
0000
0000
0010
0000
,  // measure 55
0000
1100
0000
0000
0100
0000
0000
1001
0000
0000
0000
0000
0010
1000
0000
0010
,  // measure 56
0100
0000
0001
0100
0001
0000
1000
0000
0001
0000
0100
0000
0010
0000
1000
0000
,  // measure 57
0010
0100
0000
0001
1000
0000
0000
0000
0100
0000
0000
0000
0100
0000
0000
0000
,  // measure 58
0100
0000
0000
0000
0010
0001
0010
0100
1000
0000
0000
1010
0000
0000
0100
0000
,  // measure 59
0001
0000
0100
0010
0000
0000
1010
0000
0110
0000
0000
1010
0000
0000
0101
0000
,  // measure 60
0011
0000
0000
0100
0000
0000
1000
0000
0001
0000
0000
0011
0000
0000
0100
0000
,  // measure 61
1000
0000
0010
0100
0000
0000
0101
0000
1001
0000
0000
0110
0000
0000
1010
0000
,  // measure 62
0101
0000
0000
0001
0010
0100
0010
0100
1000
0000
0000
1100
0000
0000
0010
0000
,  // measure 63
0001
0000
0100
0010
0000
0000
1010
0000
1001
0000
0000
0110
0000
0000
0101
0000
,  // measure 64
2002
0000
0000
0000
0000
0000
3003
0000
0010
0000
0000
0100
0000
0000
0001
0000
,  // measure 65
1000
0000
0000
0010
0000
0000
1000
0000
0001
0000
0000
0010
0000
0000
0100
0000
,  // measure 66
1000
0000
0000
0001
0000
0000
0100
0000
0220
0000
0000
0000
0000
0000
0330
0000
,  // measure 67
1000
0010
0100
0010
0100
0000
0000
0000
0010
0000
0000
0101
0000
0000
0010
0000
,  // measure 68
1000
0100
1000
0100
0010
0001
0010
0100
2000
0000
0000
0000
0000
0000
0000
0000
,  // measure 69
3010
0100
0010
0100
0001
1000
0100
0010
0100
0000
0000
1001
0000
0000
0100
0000
,  // measure 70
0010
0100
0001
1000
0010
0100
0001
0010
0001
0010
0100
1000
0100
1000
0010
0100
,  // measure 71
0010
1000
0001
0010
0001
0100
1000
0100
0010
1000
0100
0001
0100
1000
0010
0001
,  // measure 72
1000
0100
0001
1000
0100
0001
0100
1000
0001
0010
0001
0100
0010
1000
0010
0100
,  // measure 73
0001
1000
0100
0010
0001
0100
0010
0100
0001
0010
0100
0000
1000
0010
0100
0000
,  // measure 74
0001
0000
0000
0010
0000
0000
0100
0000
0000
1000
0000
0000
0001
0000
0000
0000
0000
0000
0110
0000
0000
0000
0000
0000
0000
0000
0000
0000
0000
0000
0000
0000
0000
0000
0000
0000
0010
0000
0000
0000
0010
0000
0000
0000
0010
0000
0000
0000
,  // measure 75
1000
0001
1001
0000
0000
0000
0000
0000
0000
0000
0000
0000
;

//---------------dance-single - ----------------
#NOTES:
     dance-single:
     :
     Medium:
     14:
     0.728920,0.784055,0.260772,0.269464,0.595430,526.000000,30.000000,31.000000,0.000000,0.000000,0.000000,0.728920,0.784055,0.260772,0.269464,0.595430,526.000000,30.000000,31.000000,0.000000,0.000000,0.000000:
0000
0000
0000
0000
0000
0000
1000
0001
,
1000
0100
1000
0000
0001
0000
1000
0000
0001
0100
0001
0000
0100
0010
0100
0010
,
0000
1000
0000
0001
0000
1000
0010
1000
0010
0100
0001
0100
0002
0000
0000
0000
,
2003
3020
0130
0110
,
1001
0110
0101
1010
,
0110
0000
0101
0000
0011
0000
0001
0010
,
0100
1000
0010
0100
0001
0010
0100
1000
,
0010
0000
0100
0000
0001
0000
0010
0000
0100
0000
1000
0000
0001
0100
0001
0000
,
1000
0010
1000
0000
0001
0010
0001
0000
1000
0100
1000
0000
0010
0100
0000
0010
,
0100
0000
0001
1000
0000
0001
1000
0000
0010
0100
0000
0000
1002
0000
0000
0103
,
0000
0000
0010
0000
1000
0000
0010
0000
0200
0000
0000
0301
0000
0000
1000
0000
,
0100
0000
0010
0000
0002
0000
0000
0103
0000
0000
0010
0000
1000
0000
0001
0000
,
0200
0000
0000
0310
0000
0000
1000
0000
0001
0000
0100
0000
0020
0000
0000
1030
,
0000
0000
0100
0000
0010
0000
0001
0000
2000
0000
0000
3100
0000
0000
0010
0000
,
0001
0000
1000
0000
0020
0000
0000
0130
0000
0000
0001
0000
1000
0000
0010
0000
,
0110
0000
0100
0001
0010
0001
1000
0010
,
1000
0000
0001
0000
0100
0000
0010
0000
0100
0000
1000
0000
0100
0010
0100
0010
,
0100
0000
0000
1001
0000
0000
0001
0000
1000
0000
0000
0100
0000
0000
0010
0000
,
0001
0000
0000
1000
0000
0000
0010
0000
0100
0000
0000
0010
0000
0000
0100
0000
,
0001
0000
0000
1010
0000
0000
0100
0000
0001
0000
0000
1000
0000
0000
0001
0000
,
0010
0000
0000
0100
0000
0000
1000
0000
0010
0000
0000
1000
0000
0000
0001
0000
,
0100
0000
0000
0001
0000
0000
0100
0000
0001
0000
0000
0010
0000
0000
0100
0000
,
1000
0000
0000
1100
0000
0000
0100
0000
2002
0000
0000
0000
0000
0000
3003
0000
,
0100
0000
0000
0100
0000
0000
0100
0000
0001
0000
0000
0001
0000
0000
0001
0000
,
1000
0000
0000
1000
0000
0000
1000
0000
0010
0000
0000
0010
0000
0000
0010
0000
,
2000
0000
0000
0000
0000
0000
3001
0010
0001
0010
0001
0010
,
0001
1000
0100
1000
0100
1000
0010
0000
0000
0000
0000
0000
,
1001
0000
0000
0000
0001
1000
0001
0000
1000
0001
1000
0000
0010
0100
0010
0000
,
1001
0000
0000
0000
0100
0010
0100
0000
0010
0100
0010
0000
1000
0001
1000
0000
,
0110
0000
0000
0000
1000
0001
1000
0000
0001
1000
0001
0000
0100
0010
0100
0000
,
2002
0000
0000
0000
0000
0000
0000
3003
,
1000
0000
0001
0000
0100
0000
0000
0000
0010
0000
0000
0100
0000
0000
0020
0000
,
0000
0000
1030
0000
0100
0000
0010
0000
0100
0000
0000
0010
0000
0000
0002
0000
,
0000
0000
0103
0000
0010
0000
1000
0000
0001
0000
0000
0100
0000
0000
0020
0000
,
0000
0000
1030
0000
0000
1000
0000
0000
0101
0000
0000
0101
0000
0000
0101
0000
,
0000
0010
1000
0100
0010
0100
1000
0010
,
0100
0010
0100
0100
0001
0001
0100
0100
,
0010
0020
2000
0000
0000
0030
3000
0000
,
0001
0010
0100
1000
0010
0001
0010
0000
,
1000
0000
0000
0000
0010
0000
0100
0010
0100
0010
0100
0010
0100
0000
0001
0000
,
1000
0000
0001
0100
0001
0100
0000
0000
0001
0000
0100
0000
0001
0000
1000
0000
,
0010
0100
0010
0000
1000
0100
1000
0000
0001
0100
0001
0000
1000
0001
1000
0000
,
0010
0100
0010
0000
0100
0001
0100
0000
0010
0100
0010
0000
1000
0010
0100
0001
,
0100
0000
0000
0000
0010
0000
0000
0101
0000
0000
0000
0000
0010
0000
1000
0000
,
0001
0000
0000
0000
0100
0000
0000
1010
0000
0000
0000
0000
0000
0000
0000
0000
,
0010
1000
0010
0100
0010
0001
0010
0100
,
0001
0000
1000
0010
1000
0010
1000
0000
0001
0100
0000
0001
0100
0000
0000
0000
,
0010
0100
0010
0100
0001
0000
0000
0000
0000
0000
0000
0000
1000
0000
0001
0000
,
0100
0100
0010
0001
0001
0010
1000
1000
,
0100
0100
0100
0001
0001
0001
0100
0100
,
0010
0000
0020
0000
0000
0000
0000
0000
0000
0000
0000
0000
0031
1000
0010
0000
,
0200
0000
0000
0000
0000
0301
0100
0010
,
1000
0001
1000
0000
0010
0000
0100
0000
0001
1000
0001
0000
0010
0000
0100
0000
,
1000
0100
1000
0000
0100
0000
0010
0000
0001
0010
0001
0000
1000
0100
1000
0000
,
0002
0000
0000
0000
0000
0000
0000
0000
0103
0000
0000
0100
0000
0000
0001
0000
,
0000
0010
0000
0000
0010
0000
0000
2002
0000
0000
0000
0000
3003
0000
0000
0000
,
0000
0000
0000
0000
,
0000
0000
0010
0010
,
0010
0000
0000
0000
1000
0001
0100
0001
0100
0000
0000
1001
0000
0000
1000
0000
,
0001
0000
0000
0010
0000
0000
0100
0000
1000
0000
0000
0001
0000
0000
0100
0000
,
0010
0000
0000
0100
0000
0000
0010
0000
1000
0000
0000
0101
0000
0000
0010
0000
,
1000
0000
0000
0001
0000
0000
1000
0000
0100
0000
0000
0010
0000
0000
0001
0000
,
0100
0000
0000
0001
0000
0000
1000
0000
0010
0000
0000
1000
0000
0000
0010
0000
,
1000
0000
0000
0100
0000
0000
0010
0000
0001
0000
0000
0011
0000
0000
0010
0000
,
2002
0000
0000
0000
0000
0000
3003
0000
0010
0000
0000
0010
0000
0000
0010
0000
,
1000
0000
0000
1000
0000
0000
1000
0000
0001
0000
0000
0001
0000
0000
0001
0000
,
0100
0000
0000
0100
0000
0000
0100
0000
0220
0000
0000
0000
0000
0000
0330
0000
,
1000
0000
0001
0100
0001
0000
0000
0000
1000
0000
0000
0010
0000
0000
0010
0000
,
1000
0000
0001
0000
0100
0000
0010
0100
0020
0000
0000
0000
0000
0000
0000
0000
,
1030
0000
0001
0000
0100
0010
0100
0010
0100
0000
0000
1001
0000
0000
0010
0000
,
1000
0000
0001
0000
0010
0000
0100
0000
1000
0000
0010
0000
0100
0010
0100
0000
,
0010
0000
1000
0000
0001
0100
0001
0000
1000
0100
1000
0000
0001
0100
0001
0000
,
1000
0100
1000
0000
0100
0010
0001
0000
0010
0100
1000
0000
0100
0010
0100
0000
,
0010
0001
0010
0000
0001
0100
1000
0000
0100
0010
0100
0000
0001
1000
0100
0000
,
0010
0000
0000
0001
0000
0000
0010
0000
0000
0001
0000
0000
0100
0000
0000
0000
0000
0000
0200
0000
0000
0000
0000
0000
0000
0000
0000
0000
0000
0000
0000
0000
0000
0300
0000
0000
0010
0000
0000
0000
0100
0000
0000
0000
0010
0000
0000
0000
,
0100
0010
1000
0000
0000
0000
0000
0000
0000
0000
0000
0000
;

//---------------dance-single - ----------------
#NOTES:
     dance-single:
     :
     Easy:
     5:
     0.430895,0.522703,0.086924,0.391158,0.104309,292.000000,10.000000,45.000000,0.000000,0.000000,0.000000,0.430895,0.522703,0.086924,0.391158,0.104309,292.000000,10.000000,45.000000,0.000000,0.000000,0.000000:
0000
0000
0000
0000
0000
0000
0001
1000
,
0020
0000
1030
0001
0200
0000
0302
0000
,
2003
3020
0000
0230
,
0302
2003
3010
0200
,
0010
0001
0310
0002
,
0100
1000
0103
0010
,
1000
0001
0100
0001
,
0010
0100
1000
1010
,
1010
0000
0000
0000
1001
0000
0000
0000
1001
0000
0000
0000
0100
0000
0000
0010
,
0000
0000
0100
0000
0000
0001
0000
0000
1000
0000
0000
0000
0010
0000
0000
0010
,
0000
0000
0000
0000
0000
0000
0000
0000
0100
0000
0000
0100
0000
0000
0000
0000
,
0000
0000
0000
0000
0001
0000
0000
0001
0000
0000
0000
0000
0000
0000
0000
0000
,
0010
0000
0000
0010
0000
0000
0000
0000
0000
0000
0000
0000
0100
0000
0000
0100
,
0000
0000
0000
0000
0000
0000
0000
0000
1000
0000
0000
1000
0000
0000
0000
0000
,
0000
0000
0000
0000
0010
0000
0000
0010
0000
0000
0000
0000
0000
0000
0000
0000
,
1001
0010
0010
1000
,
0010
1000
0001
0110
,
0100
0000
0000
0001
0100
0000
0000
1000
,
0010
0000
0000
0100
0001
0000
0000
0010
,
0100
0000
0000
1000
0100
0000
0000
0010
,
0001
0000
0000
0100
0010
0000
0000
1000
,
0001
0000
0000
0100
0010
0000
0000
1000
,
0001
0000
0000
0010
0200
0000
0000
0000
,
0310
0000
0000
0010
0000
0000
0000
0000
0100
0000
0000
0100
0000
0000
0000
0000
,
0010
0000
0000
0010
0000
0000
0000
0000
1000
0000
0000
1000
0000
0000
0001
0000
,
2000
0000
3002
0203
,
0320
2030
3001
0000
,
1001
0000
1000
0010
1000
0010
1000
0010
,
0200
0000
0301
0100
0001
0100
0001
0100
,
0020
0000
1030
0001
1000
0001
1000
0010
,
0200
0000
0000
0000
,
0301
0100
0010
0000
,
0100
0010
0100
0000
,
0001
1000
0001
0000
,
0100
0010
2000
0000
,
0000
3001
0200
0000
0300
0000
0000
1000
,
0002
0013
0100
0100
,
1000
0020
0000
0030
,
0100
0100
0001
0001
,
1000
0000
0010
0200
0000
0000
0000
0300
,
0001
1000
0001
0000
1000
0010
1000
0000
,
0001
0100
0010
0000
1000
0001
0100
0000
,
0010
1000
0001
0000
0100
0001
0010
0000
,
0100
0000
0000
0000
1000
0000
0000
1000
0000
0000
0000
0000
0001
0000
1000
0000
,
0001
0000
0000
0000
0100
0000
0000
0100
0000
0000
0000
0000
0000
0000
0000
0000
,
0100
0010
0100
0010
0100
0010
0100
0010
,
2000
3002
0203
0310
,
0200
0000
0301
0000
0000
0000
0001
1000
,
0020
0000
0130
0001
2000
0000
3001
0100
,
0002
0000
1003
0010
2000
0000
3001
0100
,
0001
0200
0000
0000
0000
0000
0301
1000
,
0020
0000
0000
0000
0000
1030
0010
0000
,
0010
0100
0100
0001
,
1000
0010
1000
0001
,
2000
0000
0000
3000
1001
0000
0000
0110
,
0000
1001
0000
0000
,
0000
0000
0000
0000
,
0000
0000
0100
0100
,
0100
0000
0001
1000
0001
0000
0000
1000
,
0010
0000
0000
0100
0010
0000
0000
0001
,
0100
0000
0000
0010
1000
0000
0000
0010
,
0001
0000
0000
0100
1000
0000
0000
0100
,
0010
0000
0000
1000
0001
0000
0000
0010
,
0100
0000
0000
1000
0001
0000
0000
0100
,
0010
0000
0000
0000
0000
0000
0000
0000
0100
0000
0000
0100
0000
0000
0000
0000
,
0001
0000
0000
0001
0000
0000
0000
0000
1000
0000
0000
1000
0000
0000
0000
0000
,
0010
0000
0000
0010
0000
0000
0100
0000
0020
0000
0000
0000
0000
0000
0000
0000
,
2030
0000
0000
0000
3001
0000
0000
0000
0001
0000
0000
0100
0000
0000
0000
0000
,
0010
0010
2000
0000
,
3001
0000
0000
0000
0010
0000
0000
0000
0001
0000
0000
1000
0000
0000
0001
0000
,
0000
0100
0001
0010
,
0100
1000
0001
1000
,
0001
0000
0010
0000
0200
0300
2000
3000
,
0002
0003
0200
0300
0020
0030
2000
3000
,
0001
0000
0000
0100
0000
0000
0010
0000
0000
0000
0200
0000
0000
0000
0000
0000
0000
0000
0300
0000
0000
0000
0000
0000
,
0000
1000
0001
0000
0000
0000
0000
0000
0000
0000
0000
0000
;

//---------------dance-single - ----------------
#NOTES:
     dance-single:
     :
     Beginner:
     2:
     0.240904,0.261931,0.034770,0.365081,0.013039,148.000000,4.000000,42.000000,0.000000,0.000000,0.000000,0.240904,0.261931,0.034770,0.365081,0.013039,148.000000,4.000000,42.000000,0.000000,0.000000,0.000000:
0000
0000
0000
1000
,
0002
1003
0020
1030
,
0000
0010
0000
0020
,
0000
0000
0130
0010
,
0010
0010
0010
1000
,
1000
1000
1000
0100
,
0000
1000
0000
1000
,
0000
0010
0000
0100
,
0100
0001
0001
1000
,
0000
0010
0000
0000
1000
0000
0020
0030
,
0000
0000
0000
0000
0200
0300
0000
0000
,
0000
0000
0002
0003
0000
0000
0000
0000
,
0200
0300
0000
0000
0000
0000
0020
0030
,
0000
0000
0000
0000
2000
3000
0000
0000
,
0000
0000
0002
0003
0000
0000
0000
0000
,
2002
0000
0000
0000
,
0000
0000
0000
0000
0000
3003
0000
0000
,
0010
0000
0010
0000
,
0100
0000
1000
0000
,
0010
0000
0010
0000
,
1000
0000
0100
0000
,
1000
0000
0100
0000
,
1000
0000
0020
0000
,
0230
0300
0000
0000
0002
0003
0000
0000
,
0200
0300
0000
0000
0020
0030
0000
0000
,
0020
0000
0230
0000
,
0000
0000
0310
0000
,
1001
0000
0000
0000
0000
0000
0000
0100
,
0100
0000
0000
0000
,
0110
0000
0000
0000
0000
0000
0000
0010
,
0010
0000
0000
0000
,
1000
0000
0100
0000
,
0010
0000
0001
0000
,
1000
0000
0010
0000
,
0100
0000
0002
0000
,
0000
2003
0000
3000
0000
0000
0000
0000
,
2000
3000
0010
0000
,
0001
0200
0000
0300
,
0010
0000
1000
0000
,
0000
0000
0000
0020
0000
0000
0000
0030
,
0000
1000
0000
0001
,
1000
1000
0000
0010
,
0010
0000
1000
1000
,
0000
0001
0000
1000
,
1000
0010
0000
0000
,
0020
0000
0000
0000
,
2030
0000
3020
0000
,
0030
1000
0000
0000
,
0200
0300
0020
0030
,
2000
3000
0002
0003
,
1000
1000
0000
0000
0000
0000
0000
0000
,
0020
0000
0000
0000
0000
0030
0100
0000
,
0000
0010
0000
1000
,
0000
0100
0000
1000
,
0002
0000
0000
0003
1000
0000
0000
0010
,
0000
0001
0000
0000
,
0000
0000
0000
0000
,
0000
0000
0100
0100
,
0100
0000
1000
0000
,
0100
0000
0100
0000
,
0010
0000
0001
0000
,
1000
0000
0001
0000
,
0100
0000
1000
0000
,
0010
0000
1000
0000
,
0100
0000
0000
0000
0020
0030
0000
0000
,
2000
3000
0000
0000
0002
0003
0000
0000
,
0200
0300
0000
0000
0200
0000
0000
0000
,
0302
0003
1000
0000
,
0100
0000
0002
0000
,
0003
0000
0000
0000
1000
0000
0000
1000
,
0000
0001
0000
0100
,
0000
0001
0000
0001
,
0000
0100
0010
0010
,
0010
0010
1000
0000
,
0001
0000
0000
0000
0000
0020
0000
0000
0000
0030
0000
0000
,
0000
0001
2001
0000
3000
0000
0000
0000
0000
0000
0000
0000
;
