#TITLE:Mirage of the Mirror;
#SUBTITLE:;
#ARTIST:SHAMDEL;
#TITLETRANSLIT:;
#SUBTITLETRANSLIT:;
#ARTISTTRANSLIT:;
#GENRE:;
#CREDIT:;
#BANNER:Mirage of the Mirror-bn.png;
#BACKGROUND:Mirage of the Mirror-bg.png;
#LYRICSPATH:;
#CDTITLE:;
#MUSIC:Mirage of the Mirror.mp3;
#OFFSET:-0.290000;
#SAMPLESTART:106.070061;
#SAMPLELENGTH:12.000000;
#SELECTABLE:YES;
#BPMS:0.000000=122.000000
,101.000000=163.000000
;
#STOPS:
;
#BGCHANGES:;
#KEYSOUNDS:;
#ATTACKS:;

//---------------dance-single - ----------------
#NOTES:
     dance-single:
     :
     Hard:
     17:
     0.897112,0.951482,0.245800,0.190296,1.000000,737.000000,31.000000,24.000000,0.000000,0.000000,0.000000,0.897112,0.951482,0.245800,0.190296,1.000000,737.000000,31.000000,24.000000,0.000000,0.000000,0.000000:
0000
0000
0000
0000
,
1000
0001
1000
0000
0100
0010
0001
0010
0100
1000
0001
0010
0001
0100
0010
0100
,
0001
1000
0001
0010
0100
1000
0100
0010
0001
0010
0000
0100
1000
0010
1000
0001
,
0100
0001
0010
0001
1000
0100
1000
0010
0100
0001
1000
0001
0100
0010
0100
0001
,
1000
0000
0001
0010
0100
1000
0001
0000
0010
0000
0100
0000
1000
0000
0001
0000
,
0100
0000
0000
0000
0000
0000
0001
0000
0000
0000
0000
0000
0010
0000
0000
0000
0000
0000
0001
0000
0000
0000
0000
0000
1000
0000
0000
0000
0000
0000
0010
0000
0000
0100
0000
0000
0010
0000
0000
1000
0000
0000
0001
0000
0010
0000
0100
0000
,
1000
0000
0000
0000
0000
0000
0100
0000
0000
0000
0000
0000
0100
0000
0000
0000
0000
0000
0000
0000
0000
1000
0000
0000
0000
0000
0000
0000
0000
0000
0001
0000
0010
0000
0100
0000
1000
0000
0000
0000
0000
0000
0000
0000
0000
0010
0000
0000
,
0000
0000
0000
0000
0000
0000
1000
0000
0001
0000
1000
0000
0001
0000
0000
0000
0000
0000
0100
0000
0000
0010
0000
0000
0100
0000
0000
0010
0000
0000
1000
0000
0000
0000
0000
0000
0000
0000
0000
1000
0000
0000
0001
0000
0000
1000
0000
0000
,
0010
0000
0000
0100
0010
0100
0001
0000
0000
0010
0100
1000
0100
1000
0001
1000
,
0001
0100
0010
0100
0001
0010
0100
1000
0100
0010
0100
1000
0001
0010
0100
0010
,
0001
1000
0100
0010
0100
1000
0010
0100
1000
0100
0010
1000
0001
1000
0001
0010
,
0100
0010
0001
0100
0010
0001
0010
0100
0001
1000
0001
1000
0010
0100
0001
0010
,
1000
0010
0001
1000
0100
0001
0100
1000
0010
0001
0010
1000
0001
0100
1000
0100
,
0001
0010
0100
1000
0010
0100
1000
0001
0010
0100
1000
0001
0010
0100
0001
0010
,
0100
1000
0001
1000
0010
0100
0010
1000
0001
0010
0001
1000
0010
0000
0010
0000
,
1000
0000
0000
0000
0000
0000
0001
0000
0000
0000
0000
0000
0100
0000
0000
0000
0000
0000
0010
0000
0000
0100
0000
0000
0010
0000
0000
0000
0000
0000
0000
0000
0000
0000
0000
0000
1000
0000
0000
0000
0000
0000
0001
0000
1000
0000
0000
0000
,
0010
0000
0100
0000
0001
0000
0100
0000
0010
0000
1000
0001
1000
0001
0100
0000
,
0010
0010
1000
0001
0010
0100
1000
0100
,
0010
0000
0000
0000
0000
0000
0001
0000
0000
0000
0000
0000
0000
0000
0000
0000
0000
0000
1000
0000
0000
0010
0000
0000
1000
0000
0000
0000
0000
0000
0000
0000
0000
0000
0000
0000
0010
0000
0000
0000
0000
0000
0100
0000
0001
0000
0000
0000
,
1000
0010
1000
0001
0100
0110
0000
0010
,
1000
0000
0001
0010
0100
1000
0001
0000
0100
0000
0010
0000
1000
0000
0100
0000
,
0001
0000
0100
0000
1000
0000
0010
0100
0010
0000
0001
0000
0010
0000
1000
0000
,
0010
0000
0100
0000
0001
0000
1000
0000
1000
0000
0010
0100
0010
0100
0001
0000
,
0100
0000
0010
1000
0001
0000
0001
0000
1000
0000
0100
0010
0100
0000
0010
0000
,
0001
1000
0001
0000
1000
0010
1000
0001
0100
0001
0010
0100
1000
0000
0001
0000
,
1000
0000
0000
0010
0000
0000
1001
0000
0000
0000
1000
0000
0001
0000
1000
0000
0010
0000
0100
0000
0001
0000
0010
0000
,
0100
1000
0001
1010
0000
1000
0010
1000
0001
0010
0100
0010
,
0001
0010
0100
1001
0000
1000
0010
0100
0010
1000
0100
0010
,
0100
1000
0100
0110
0000
0001
1000
0001
1000
0010
0000
0010
,
1000
0000
0000
0000
0001
0010
0100
1000
0001
0010
0100
1000
,
0010
0100
0001
1000
0010
0100
0001
0010
0100
1000
0010
0001
,
0010
1000
0100
0001
0100
1000
0001
0100
1000
0001
0010
1000
,
0010
0001
1000
0100
0010
0000
0010
0001
0000
0001
1000
0000
,
1000
0100
0000
0001
0010
0100
0001
0100
1000
0010
1000
0001
,
0100
1000
0001
0010
1000
0001
0100
1000
0100
0010
1000
0100
,
0010
1000
0010
0001
1000
0100
0001
0100
1000
0001
0010
0100
,
0001
0100
1000
0100
0001
1000
0010
0001
1000
0002
0000
0100
,
0000
0103
0000
0010
1000
0010
0100
0010
1000
0001
0100
0010
,
1000
0001
0010
0100
0001
0100
1000
0100
0010
0100
1000
0001
,
0010
0100
0001
1000
0010
0001
0010
1000
0001
0100
1000
0010
,
1000
0001
0100
0001
0100
0000
0020
0000
1030
0000
1001
0000
,
0002
0000
0000
1003
0010
0100
0001
0010
0100
1000
0010
0100
,
0010
1000
0010
0100
0001
1000
0001
1000
0010
0100
0001
0010
,
0100
0000
0000
0000
1000
0000
0000
0000
0001
0000
0000
0000
1000
0000
0000
0000
0000
0000
0000
0000
0000
0000
0000
0000
0001
0000
0000
0010
0000
0000
0100
0000
0000
1000
0000
0000
0001
0000
0000
0000
0000
0000
0000
0000
0000
0000
0000
0000
,
1000
0000
0000
0010
0000
0000
0100
0000
0000
0001
0000
0000
1000
0000
0000
0010
0000
0000
0100
0000
0000
0001
0000
0000
0100
0000
0000
0010
0000
0000
0100
0000
0000
0001
0000
0000
0100
0000
0000
0000
0001
0000
0000
0000
0010
0000
0000
0000
,
0100
1000
0001
2000
0000
0000
0000
0000
0000
0000
0000
0000
,
0000
0000
0000
0000
,
3000
0010
1000
0001
0000
1010
0000
0001
0000
0100
0000
0101
,
0000
1000
0000
0001
0000
1100
0000
1000
0000
0001
1000
0001
,
0100
0010
0100
0001
0000
0101
0000
0010
0000
1000
0000
1100
,
0000
0001
0000
1000
0000
0110
0000
1000
0000
0001
0000
0000
,
0000
0100
0001
1000
0000
0101
0000
1000
0000
0010
0000
1010
,
0000
0001
0000
1000
0000
0011
0000
0001
0000
1000
0000
0000
,
0000
0001
0100
0010
0000
1010
0000
0100
0000
0001
0000
0011
,
0000
1000
0000
0001
0000
0110
0000
0100
0000
0001
0000
0000
,
1000
0001
0100
0001
0000
0012
0000
0103
0000
0010
0000
2010
,
0000
3001
0000
0100
0000
0120
0000
1030
0000
0001
1000
0001
,
0100
0010
0100
0001
0000
0201
0000
0310
0000
1000
0000
1200
,
0000
0310
0000
0001
0000
2001
0000
3010
0000
1000
0001
1000
,
0010
0100
0001
1000
0000
1002
0000
0103
0000
0010
0000
0210
,
0000
0301
0000
1000
0000
1200
0000
0310
0000
0001
0000
0000
,
0000
1000
0001
0100
0000
2010
0000
3001
0000
0100
0000
0102
,
0000
1003
0000
0001
0000
0120
0000
2030
0000
3002
0000
0203
,
0000
0320
0000
0130
0001
1000
0010
1000
0001
0010
1000
0010
,
0001
0100
1000
0100
0001
0010
0001
1000
0100
0001
0100
0001
,
1000
0010
1000
0010
0001
0100
1000
0100
1000
0001
0010
0001
,
0010
1000
0001
0010
0100
0010
0100
1000
0001
1000
0010
0001
,
0010
0100
0001
0010
1000
0010
0100
1000
0010
0100
0001
0100
,
0010
1000
0010
0100
0001
0010
0001
1000
0001
0100
0001
0010
,
0100
1000
0100
0010
0100
0001
0100
1000
0100
0010
1000
0001
,
1000
0010
0100
1000
0100
0001
1000
0010
0001
1000
0010
0001
,
1000
0000
0100
0000
0001
0000
0200
0000
0000
0000
0000
0000
0000
0000
0000
0300
0000
0000
2002
0000
0000
0003
0000
0000
,
3001
0010
0100
1000
0010
0100
0001
0010
0100
1000
0010
0100
,
0001
0100
0010
0100
1000
0100
0020
0000
0000
0000
0000
0000
,
0000
0000
0000
0000
,
0130
0000
0000
0000
;

//---------------dance-single - ----------------
#NOTES:
     dance-single:
     :
     Medium:
     13:
     0.595809,0.624410,0.063432,0.063432,0.872192,510.000000,8.000000,8.000000,0.000000,0.000000,0.000000,0.595809,0.624410,0.063432,0.063432,0.872192,510.000000,8.000000,8.000000,0.000000,0.000000,0.000000:
0000
0000
0000
0000
,
0010
1000
0001
0000
0100
0000
0010
0000
1000
0000
0100
0000
0010
0000
0100
0000
,
1000
0000
0001
0000
0100
0010
0100
0010
0100
0001
0000
1000
0000
0010
0000
0100
,
0000
0010
0000
1000
0000
0100
0000
0010
0000
0001
0000
1000
0000
0010
0000
1000
,
0001
0000
1000
0010
1000
0010
0100
0000
0001
0000
0010
0000
0100
0000
0010
0000
,
0001
0000
1000
0000
0010
0000
0100
0000
0010
0000
1000
0001
1000
0001
0200
0000
,
0310
0000
0100
0000
0100
0000
0000
0001
0000
0000
1000
0000
1000
0000
0000
0010
,
0000
0000
1000
0000
0001
0000
1000
0100
1000
0100
0010
0000
0000
0001
1000
0001
,
1000
0000
0000
0100
0010
0100
0010
0000
0000
0001
0010
0001
0010
0000
0100
0000
,
1000
0000
0010
0000
1000
0000
0001
0000
0100
0010
0100
0000
0001
0000
0010
0000
,
0100
0000
1000
0000
0001
1000
0001
0000
0100
0000
0001
0000
0010
0000
0001
0000
,
1000
0010
1000
0000
0010
0000
0100
0000
0001
0000
0010
0000
0100
1000
0100
0000
,
0010
0000
0001
0000
1000
0000
0010
0000
0100
0001
0100
0000
0010
0000
1000
0000
,
0001
0000
0100
0000
0001
1000
0001
0000
0100
0000
0010
0000
1000
0000
0100
0000
,
0010
0001
0010
0000
0100
0000
1000
0000
0010
0000
0100
0000
0010
0000
1000
0000
,
0001
0000
1000
0000
0000
0000
0010
0100
0010
0000
0000
0000
1000
0000
0010
0000
,
1000
0000
0001
0000
0100
0000
0001
0000
0010
0000
0100
1000
0100
0000
1000
0000
,
0002
0100
0100
0100
0100
0103
1000
0001
,
1000
0000
0100
0000
0000
0000
0010
0001
0010
0000
0000
0000
0001
0000
1000
0000
,
0100
0010
0001
1000
0100
1000
0000
0001
,
1000
0000
0010
0100
0010
0000
1000
0000
0001
0000
0100
0000
0010
0000
1000
0000
,
0100
0000
1000
0000
0010
0000
0100
0001
1000
0000
0001
0000
0010
0000
0100
0000
,
0010
0000
0001
0000
0010
0000
0100
0000
1000
0000
0001
1000
0100
0000
0010
0000
,
0100
0000
0010
0001
1000
0000
0001
0000
1000
0000
0100
1000
0100
0000
0010
0000
,
0001
0010
0001
0000
1000
0010
1000
0000
0001
0000
0100
0001
0100
0000
0010
0000
,
1000
0000
0000
0001
0000
0000
1001
0000
0000
0000
1000
0000
0000
0000
0001
0000
0000
0000
0010
0000
0000
0000
0001
0000
,
0000
1000
0000
1100
0000
0100
0000
0010
0000
0001
0000
0001
,
0000
0100
0000
0110
0000
0010
0000
1000
0000
0001
0000
0100
,
0000
0010
0000
1000
0001
0000
0001
1000
0000
0002
0000
0000
,
1003
0000
0000
0000
0001
1000
0001
0000
0100
0000
0010
0000
,
1000
0000
0100
0000
0010
0001
0010
0000
0100
0000
1000
0000
,
0001
0000
0100
0010
0100
0000
0001
0000
1000
0000
0001
0000
,
0010
0000
0100
1000
0100
0000
0010
0001
0000
0001
0010
0000
,
0010
0100
0000
1000
0001
1000
0000
0100
0000
0010
0000
0001
,
0000
1000
0000
0010
0100
0010
0000
1000
0000
0010
0000
0100
,
0000
0001
0000
1000
0001
0100
0000
0010
0000
1000
0000
0100
,
0000
1000
0000
0001
0100
0001
0100
0001
0100
0010
0000
0000
,
0000
0000
0000
1000
0010
1000
0000
0001
0000
0100
0000
0001
,
0000
1000
0000
0100
0010
0001
0000
1000
0000
0010
0000
0100
,
0000
0001
0000
0010
0100
1000
0000
0100
0000
0010
0000
0001
,
0000
1000
0000
0010
0100
0000
0100
0000
0010
0000
1000
0000
,
0002
0000
0000
1003
0010
1000
0000
0001
0000
0100
0000
0010
,
0000
1000
0000
0001
0100
0010
0000
1000
0000
0001
0000
0010
,
0000
0100
0000
1000
0000
0000
0000
0001
0000
0010
0000
0000
,
0000
0001
0000
1000
0000
0001
0000
0100
0000
0010
1000
0010
,
1000
0010
1000
0002
0000
0000
0000
0000
0000
0000
0000
0000
,
0000
0000
0000
0000
,
0003
0001
1000
0010
0000
0000
1000
0000
0000
0001
0000
0000
,
1000
0100
0010
0001
,
0011
0010
0100
1000
,
0100
1000
0010
0100
,
0110
0010
1000
0001
,
0100
0001
1000
0001
,
1001
1000
1010
0010
,
0110
0000
0000
0100
0000
0001
0000
1000
0000
0001
0000
0000
,
0000
1000
0000
0001
0000
0100
0000
0100
0000
0010
0000
1000
,
0000
1000
0000
0100
0000
0010
0000
0010
0000
0001
1000
0001
,
1000
0001
1000
0010
0000
0100
0000
0100
0000
0001
0000
0010
,
0000
0010
0000
0100
0000
1000
0000
1000
0000
0100
0010
0100
,
0010
0100
0010
0001
0000
0010
0000
0010
0000
0001
0000
1000
,
0000
1000
0000
0100
0000
0010
0000
0010
0000
0001
0000
0000
,
0000
1000
0001
1000
0000
0100
0000
0010
0000
0001
0000
0010
,
0000
0100
0000
0010
0000
0001
0000
1000
0000
0010
0000
0100
,
0000
0001
0000
1000
0001
1000
0000
0010
0000
0100
0000
0001
,
0000
0010
0000
0100
1000
0100
0000
0010
0000
0001
0000
1000
,
0000
0010
0000
0100
0001
1000
0000
0001
0000
0010
0000
0100
,
0000
1000
0000
0100
0010
0001
0000
1000
0000
0010
0000
0100
,
0000
0001
0000
0100
0010
1000
0000
0001
0000
0100
0000
0010
,
0000
1000
0000
0001
1000
0010
0000
0100
0000
0001
0000
0010
,
0000
0100
0000
1000
0100
0010
0000
0001
0000
1000
0000
0010
,
0000
0100
0000
1000
0100
0010
0000
1000
0000
0001
0000
1000
,
0000
0100
0010
0002
0000
0000
0000
0000
0000
0203
0000
0000
,
0000
0000
0000
0000
,
0301
1000
0010
1000
0001
0100
0002
0000
0000
0000
0000
0000
,
0000
0000
0000
0000
,
0013
0000
0000
0000
;

//---------------dance-single - ----------------
#NOTES:
     dance-single:
     :
     Easy:
     5:
     0.430432,0.624410,0.103077,0.214084,0.190296,340.000000,13.000000,27.000000,0.000000,0.000000,0.000000,0.430432,0.624410,0.103077,0.214084,0.190296,340.000000,13.000000,27.000000,0.000000,0.000000,0.000000:
0000
0000
0000
0000
,
0001
1000
0001
0100
0001
0010
0100
1000
,
0000
0000
0001
0000
0100
0000
0001
0000
1000
0000
0010
0000
0000
0100
0000
0010
,
0000
0100
0000
0001
0000
0010
0000
0000
0000
0001
0000
1000
0000
0001
0000
0100
,
0010
1000
0010
0100
0001
0010
0001
1000
,
0010
1000
0001
0100
0001
1000
0020
0100
,
0130
0000
0001
0000
0001
0000
0000
1000
0000
0000
0100
0000
0100
0000
0000
0010
,
0000
0001
1000
0010
0100
0100
0000
0001
,
0001
0000
1000
1000
0000
0100
0100
1000
,
0001
1000
0010
0100
0110
0000
0010
1000
,
0001
1000
1001
0000
0001
0100
0010
0100
,
0101
0000
0100
0010
1000
0100
1100
0000
,
1000
0001
1000
0100
0020
0000
0031
1000
,
0100
1000
0002
0000
0103
0010
0100
0001
,
2000
0000
3100
0010
0001
1000
0020
0100
,
0130
0010
0000
1000
0001
0000
0100
0001
,
0100
0010
1000
0100
0010
0001
0001
1000
,
0020
2030
3020
2030
3020
1030
0100
0010
,
0001
1000
0000
0010
0100
0000
0001
1000
,
0001
0010
0001
0100
0010
0100
0000
0001
,
1000
0000
0010
1000
0010
0100
0001
0000
,
1000
0010
0100
0001
0001
1000
0100
0010
,
0100
1000
0100
0010
0001
1000
1000
0001
,
0000
1000
0100
1000
0001
0010
0010
0000
,
0100
0100
0000
1000
1000
0010
0010
0100
,
0001
1000
2002
0000
0000
3003
0100
0000
,
0001
1001
0000
1000
,
0010
0110
0000
0010
,
1000
0001
1000
0020
,
0130
0010
1000
0001
,
1000
0010
0100
0001
,
0010
0100
1000
0100
,
1000
0001
0010
0100
,
1001
0001
0000
1000
,
0000
0001
0000
0010
,
0000
0002
2003
3200
,
0320
0032
2003
3010
,
0000
0100
0001
1000
,
0001
0001
1000
1000
,
0001
0100
0001
1000
,
0100
0010
0001
0100
,
0020
1030
0001
0010
,
0100
1000
0010
1000
,
0010
0000
0000
0100
0000
0000
0000
0001
0000
0100
0000
0000
,
0000
0010
0000
1000
0000
0010
0000
0100
0000
0001
0000
0010
,
0000
0001
0000
0200
0000
0000
0000
0000
0000
0000
0000
0000
,
0000
0000
0000
0000
,
0300
0001
0001
1000
,
1000
0010
0010
0100
,
0110
0010
0010
1000
,
1000
0001
0001
1000
,
1100
0100
0100
0010
,
0010
0001
0001
1000
,
1001
0000
0110
0000
,
1010
0000
0000
0010
0000
0100
0000
0100
0000
0010
0000
0000
,
0000
0000
0000
1000
0000
0001
0000
0000
0000
1000
0000
0100
,
0000
0000
0000
0010
0000
0001
0000
0000
0000
2000
0000
0000
,
0000
0000
0000
3010
0000
0100
0000
0000
0000
0001
0000
1000
,
0000
0000
0000
0001
0000
0010
0000
0000
0000
0200
0000
0000
,
0000
0000
0000
1300
0000
0010
0000
0000
0000
0100
0000
0001
,
0000
0000
0000
1000
0000
0100
0000
0000
0000
0020
0000
0000
,
0000
0000
0000
0031
0000
1000
0000
0000
0000
1000
0000
0010
,
0000
0000
0000
0010
0000
0100
0000
0000
0000
0100
0000
0001
,
0000
0000
0000
1000
0000
0000
0000
0000
0000
0001
0000
0100
,
0000
0001
0000
0100
0000
0000
0000
0000
0000
0010
0000
1000
,
0000
0010
0000
1000
0000
0000
0000
0000
0000
0001
0000
0010
,
0000
0001
0000
0010
0000
0000
0000
0000
0000
0100
0000
1000
,
0000
0100
0000
1000
0000
0000
0000
0000
0000
0001
0000
0100
,
0000
0001
0000
1000
0000
0000
0000
0000
0000
0010
0000
0100
,
0000
0010
0000
1000
0000
0000
0000
0000
0000
0001
0000
0010
,
0000
0100
0000
1000
0000
0000
0000
0000
0000
0001
0000
1000
,
0000
0001
0000
2000
0000
0000
0000
0000
0000
3020
0000
0000
,
0000
0000
0000
0000
,
0000
0000
0230
0000
,
0000
0000
0000
0000
,
0301
0000
0000
0000
;

//---------------dance-single - ----------------
#NOTES:
     dance-single:
     :
     Beginner:
     3:
     0.255994,0.386540,0.007929,0.166509,0.039645,204.000000,1.000000,21.000000,0.000000,0.000000,0.000000,0.255994,0.386540,0.007929,0.166509,0.039645,204.000000,1.000000,21.000000,0.000000,0.000000,0.000000:
// measure 0
0000
0000
0000
0000
,  // measure 1
1000
0001
0000
0100
0000
0010
0000
1000
,  // measure 2
0000
0000
0100
0000
0000
0000
0010
0000
0001
0000
0000
0000
0000
0000
0000
0100
,  // measure 3
0000
0000
0000
1000
0000
0000
0000
0000
0000
0001
0000
0000
0000
0100
0000
0000
,  // measure 4
0010
0100
0001
1000
,  // measure 5
0010
0100
0001
2000
,  // measure 6
3010
0000
0000
0000
1000
0000
0000
0001
0000
0000
0000
0000
0010
0000
0000
0100
,  // measure 7
0000
1000
0010
0000
,  // measure 8
1000
0000
0000
0001
0000
0000
1000
0000
,  // measure 9
0000
0010
0000
0000
0100
0000
0000
0001
,  // measure 10
0000
0000
1000
0000
0000
0010
0000
0000
,  // measure 11
1000
0000
0000
0001
0000
0000
0200
0000
,  // measure 12
0300
0010
0000
0000
2000
0000
3000
0001
,  // measure 13
0000
0000
0200
0000
0300
0001
0000
0000
,  // measure 14
0020
0000
0030
0100
0000
0000
2000
0000
,  // measure 15
3000
0010
0000
0000
1000
0000
0001
1000
,  // measure 16
0000
0010
0100
0000
0001
0010
0000
0001
,  // measure 17
1000
0001
1000
0001
1000
0001
1000
0100
,  // measure 18
0000
0010
0000
0001
0010
0000
0100
1000
,  // measure 19
0000
0001
1000
0000
0010
0100
0000
0001
,  // measure 20
1000
0000
0001
0200
0000
0000
0310
0000
,  // measure 21
0010
1000
0000
1000
1000
0000
0010
0010
,  // measure 22
0000
0100
0100
0000
0001
0001
0000
1000
,  // measure 23
0000
0000
0010
0000
0000
0100
0000
0000
,  // measure 24
0010
0010
0000
0000
0001
0000
1000
0000
,  // measure 25
0001
0000
2002
0000
0000
3003
0010
0000
,  // measure 26
0000
0010
0000
0001
,  // measure 27
0000
0010
0000
0100
,  // measure 28
0000
1000
0000
0200
,  // measure 29
0300
0100
0000
1000
,  // measure 30
0000
0100
0000
1000
,  // measure 31
0000
0010
0000
0010
,  // measure 32
0000
1000
0000
0010
,  // measure 33
0000
1000
0000
0001
,  // measure 34
0000
1000
0000
0100
,  // measure 35
0000
1000
0001
0010
,  // measure 36
0100
1000
0001
0100
,  // measure 37
0000
0010
0000
0001
,  // measure 38
0000
1000
0000
0001
,  // measure 39
0000
0010
0000
0001
,  // measure 40
0000
0100
0000
0010
,  // measure 41
0000
0001
0000
0100
,  // measure 42
0000
0001
0000
0001
,  // measure 43
0000
0000
0000
0010
0000
0000
0000
1000
0000
1000
0000
0000
,  // measure 44
0000
0001
0000
0002
0000
0000
0000
0000
0000
0000
0000
0000
,  // measure 45
0000
0023
0000
0000
,  // measure 46
0000
0000
0000
0000
,  // measure 47
0030
1000
0000
0001
,  // measure 48
0000
0100
0000
0010
,  // measure 49
0100
0010
0000
0001
,  // measure 50
0000
1000
0000
0001
,  // measure 51
0010
0010
0000
0100
,  // measure 52
0000
1000
0000
0001
,  // measure 53
2000
3000
0020
0030
,  // measure 54
0200
0000
0000
0310
0000
0010
0000
0010
0000
0010
0000
0000
,  // measure 55
0000
0001
0000
1000
,  // measure 56
0000
0100
0000
0002
,  // measure 57
0000
0103
0000
1000
,  // measure 58
0000
0001
0000
0020
,  // measure 59
0000
0031
0000
0010
,  // measure 60
0000
0001
0000
0200
,  // measure 61
0000
1300
0000
0001
,  // measure 62
0000
0100
0000
0010
,  // measure 63
0000
0001
0000
1000
,  // measure 64
0010
0010
0000
0100
,  // measure 65
0010
0001
0000
1000
,  // measure 66
0001
0100
0000
0010
,  // measure 67
1000
0001
0000
1000
,  // measure 68
0100
0001
0000
0100
,  // measure 69
1000
0001
0000
1000
,  // measure 70
0100
0001
0000
1000
,  // measure 71
0010
0002
0000
0203
,  // measure 72
0000
0000
0000
0000
,  // measure 73
0000
0000
0320
0000
,  // measure 74
0000
0000
0000
0000
,  // measure 75
0030
0000
0000
0000
;
