#TITLE:Mira;
#SUBTITLE:;
#ARTIST:Akhuta;
#TITLETRANSLIT:;
#SUBTITLETRANSLIT:;
#ARTISTTRANSLIT:;
#GENRE:;
#CREDIT:;
#BANNER:;
#BACKGROUND:;
#LYRICSPATH:;
#CDTITLE:;
#MUSIC:Mira.mp3;
#OFFSET:0.260000;
#SAMPLESTART:55.778423;
#SAMPLELENGTH:12.000000;
#SELECTABLE:YES;
#BPMS:0.000000=184.020004
;
#STOPS:252.000000=0.200000
;
#BGCHANGES:0.000=Mira.avi=1.000=0=0=0=StretchNoLoop====,
99999=-nosongbg-=1.000=0=0=0 // don't automatically add -songbackground-
;
#KEYSOUNDS:;
#ATTACKS:;

//---------------dance-single - ----------------
#NOTES:
     dance-single:
     :
     Hard:
     16:
     0.778501,0.935157,0.094500,0.433125,1.445064,692.000000,680.000000,12.000000,55.000000,0.000000,0.000000,0.778501,0.935157,0.094500,0.433125,1.445064,692.000000,680.000000,12.000000,55.000000,0.000000,0.000000:
0000
0000
0000
0000
,
0000
0000
0000
0000
,
0000
0000
0000
0000
,
0000
0000
0000
0000
,
0000
0000
0000
0000
,
0000
0000
0000
0000
,
0000
0000
0000
0000
,
1001
0000
1000
0010
0000
0010
1000
0000
1000
0001
0000
0001
,
0010
0000
0010
0100
0000
0100
1000
0000
1000
0100
0000
0100
,
0010
0000
0010
0001
0000
0001
1000
0000
1000
0010
0000
0010
,
0100
0000
0100
0001
0000
0001
1000
0000
1000
0010
0000
0010
,
0001
0000
0001
1000
0000
1000
0100
0000
0100
0001
0000
0001
,
0010
0000
0010
0100
0000
0100
1000
0000
1000
0100
0000
0100
,
0020
0000
0000
0000
0000
0031
0010
0001
1000
0100
1000
0010
,
0200
0000
0000
0320
0000
0000
2030
0000
0000
3001
0000
0001
,
0200
0000
0000
0310
0000
0010
2000
0000
0000
3002
0000
0000
,
0023
0000
0000
0130
0000
0100
2000
0000
0000
3002
0000
0000
,
0103
0000
0100
0020
0000
0000
2030
0000
0000
3002
0000
0000
,
0203
0000
0000
0310
0000
0010
1000
0000
1000
0100
0010
0001
,
0020
0000
0000
0130
0000
0100
1000
0000
1000
0100
0000
0100
,
0020
0000
0000
0032
0000
0000
2003
0000
0000
3010
0000
0010
,
0200
0000
0000
0301
0000
0001
2000
0000
0000
3200
0000
0000
,
0320
0000
0000
0130
0000
0100
2000
0000
0000
3002
0000
0000
,
0103
0000
0100
0010
0000
0010
1000
0000
1000
0001
0000
0001
,
0010
0100
1000
0001
0010
0100
1000
0100
0010
0001
1000
0010
,
1000
0000
1000
0100
0000
0100
0010
0000
0010
0001
0000
0001
,
1000
0000
1000
0010
0000
0010
0100
0000
0100
0001
0000
0001
,
1000
0000
1000
0100
0000
0100
0010
0000
0010
0001
0000
0001
,
1000
0000
1000
0010
0000
0010
0100
0000
0100
0001
0000
0001
,
1000
0000
1000
0100
0000
0100
0001
0000
0001
1000
0000
1000
,
0010
0000
0010
0001
0000
0001
0010
0001
1000
0100
1000
0010
,
0200
0000
0000
0000
0000
0000
0310
1000
0001
2000
0000
0000
,
3002
0000
0000
2003
0000
0000
3020
0000
0000
1030
0000
1000
,
0002
0000
0000
0013
0000
0010
0002
0000
0000
2003
0000
0000
,
3020
0000
0130
0001
0010
0100
2000
0000
0000
3002
0000
1003
,
0010
1000
0100
0020
0000
0000
0032
0000
0000
0203
0000
0000
,
0320
0000
0000
2030
0000
0000
3010
0100
0010
1000
0001
1000
,
0100
0000
0100
0010
0000
0010
0001
0000
0001
1000
0000
1000
,
0010
0000
0010
0200
0000
0000
0302
0000
0000
0023
0000
0000
,
2030
0000
0000
3010
0001
0010
0200
0000
0000
0320
0000
0000
,
0032
0000
0000
1003
0010
0100
0002
0000
0000
2003
0000
0000
,
0002
3003
1010
0000
0110
0000
0101
0000
,
0001
1000
0100
1000
0010
0100
0010
1000
0001
1000
0100
0010
,
0001
0100
0001
0010
0000
0001
0100
0001
1000
0010
1000
0010
,
0000
0100
0001
0100
0010
1000
0010
1000
0100
0000
0010
0001
,
0010
0001
1000
0100
1000
0010
0100
0010
1000
0100
0010
0001
,
0010
0100
1000
0100
0000
0010
0001
0010
0001
1000
0010
1000
,
0000
0010
0100
0010
0100
0001
0010
0001
1000
0000
0100
1000
,
0100
1000
0010
0100
0010
0100
0001
0010
0001
0010
0100
0010
,
0001
0010
0100
1000
0100
0010
0100
1000
0010
0100
0001
1000
,
0010
0100
0001
0010
0100
0010
0001
1000
0010
0100
0000
0001
,
1000
0001
1000
0010
0100
0010
0000
1000
0010
1000
0001
0100
,
0001
0010
0100
0000
1000
0100
0010
0001
1000
0010
1000
0001
,
0100
0001
1000
0010
1000
0100
0010
0100
1000
0001
0000
0100
,
0001
1000
0010
1000
0001
0100
0000
0010
0100
0001
0100
0010
,
1000
0100
1000
0000
0010
0100
0010
0100
0001
0010
0001
1000
,
0100
1000
0010
0100
0010
0100
0001
1000
0001
1000
0000
0001
,
0100
0010
1000
0000
0010
0000
0100
0000
0001
1000
0010
0000
,
0100
0001
1000
0000
0100
0010
0000
0001
1000
0000
0010
0000
,
1000
0000
0001
0000
1000
0010
0200
0000
0000
0000
0000
0000
,
0000
0000
0000
0000
,
0000
0000
0000
0000
,
0000
0000
0000
0000
,
0301
2002
0000
0000
0000
0000
0000
0000
,
0000
0000
0000
0000
,
0000
0000
0000
0000
,
3003
0000
0000
1010
0000
0000
0000
0101
0000
0000
0000
1001
0000
0000
0000
0000
0000
0000
0000
0000
0000
0000
0000
0000
,
0000
0000
0000
0000
,
0000
0000
0000
0000
,
0000
1001
0000
0100
0000
0010
0000
0101
,
0000
1000
0000
0100
0000
0011
0000
0001
,
0000
1000
0000
1001
0000
0010
0000
0100
,
0000
0000
0000
0001
0000
0010
0000
0100
0000
1000
0000
0000
0000
0001
0000
0010
0000
0100
0000
1000
0000
0001
0000
0010
,
0000
0100
0000
1000
0000
0000
0000
0001
0000
0010
0000
0100
0000
1000
0000
0001
0000
0010
0000
0100
0000
1000
0000
0001
,
0000
0010
0000
0100
0000
1000
0000
0100
0000
0010
0000
0001
0000
0010
0000
0100
0000
1000
0000
0100
0000
0010
0000
0001
,
0000
0010
0000
0100
0000
1000
0000
0100
0000
0010
0000
0000
0000
0001
0000
0000
0000
1000
0000
0000
0000
0010
0000
0100
,
0000
0001
0000
1000
0000
0100
0000
1000
0000
0001
0000
0100
0000
0001
0000
0010
0000
0000
0000
0010
0000
0001
0000
0000
,
0000
0001
0000
1000
0000
0000
0000
1000
0000
0010
0000
0000
0000
0010
0000
0100
0000
0001
0000
0100
0000
0001
0000
1000
,
0000
0010
0000
1000
0000
0010
0000
1000
0000
0001
0000
1000
0000
0001
0000
0010
0000
0100
0000
0010
0000
0100
0000
1000
,
0000
0100
0000
1000
0000
0100
0000
0010
0000
0001
0000
0010
0000
0001
0000
1000
0000
0000
0000
1000
0000
0100
0000
0000
,
0000
0100
0000
0010
0000
0000
0000
0010
0000
0001
0000
0000
0000
0001
0000
1000
0000
0001
0000
1000
0000
0010
0000
0100
,
0000
0010
0000
0100
0000
0010
0000
1000
0000
0010
0000
1000
0000
0001
0000
0100
0000
0001
0000
0100
0000
0010
0000
1000
,
0000
0010
0000
1000
0000
0001
0000
0010
0000
0001
0000
0010
0000
0100
0000
1000
0000
0000
0000
1000
0000
0001
0000
0000
,
0000
0001
0000
0100
0000
0000
0000
0100
0000
0010
0000
0000
0000
0010
0000
1000
0000
0010
0000
1000
0000
0001
0000
0100
,
0000
0001
0000
0100
0000
0010
0000
1000
0000
0010
0000
1000
0000
0001
0000
1000
0000
0001
0000
1000
0000
0100
0000
0010
,
0000
0100
0000
0010
0000
0001
0000
1000
0000
0001
0000
1000
0000
0010
0000
0100
0000
0000
0000
0100
0000
0001
0000
0000
,
0000
0001
0000
0010
0000
0000
0000
0010
0000
0100
0000
0000
0000
0100
0000
1000
0000
0100
0000
1000
0000
0001
0000
0100
,
0000
0001
0000
0100
0000
0010
0000
1000
0000
0010
0000
0000
0000
0010
0000
0100
0000
0001
0000
0100
0000
0000
0000
0010
,
0000
0000
1000
0000
0000
0000
0100
0000
0000
0000
0000
0000
0000
0000
0000
0000
0000
0000
0010
0000
0000
0001
0000
0000
0010
0000
0000
0000
0000
0000
0100
0000
0000
1000
0000
0000
0100
0000
0000
0000
0000
0000
1000
0000
0000
0001
0000
0000
,
1000
0000
0010
0100
0010
0000
0100
0001
0100
0000
0010
1000
0010
0000
0100
0001
,
0100
0000
0001
1000
0001
0000
1000
0100
1000
0000
0100
0010
0100
0000
0010
0001
,
0010
0000
0001
1000
0001
0000
1000
0010
1000
0000
0001
0100
0001
0000
0100
0010
,
0100
0000
0000
0000
0000
0000
0010
0000
0000
1000
0000
0000
0010
0000
0000
0000
0000
0000
0100
0000
0000
0000
0000
0000
0000
0000
0010
0000
0000
0000
0000
0000
0000
0000
0100
0000
0000
0000
0000
0000
0000
0000
0001
0000
0000
0000
0000
0000
,
0000
0100
0000
0000
0000
0010
0000
0000
0000
1000
0000
0000
0000
0100
0000
0000
0000
0010
0000
0000
0000
0001
0000
0000
,
0000
0100
0000
0000
0000
0010
0000
0000
0000
1000
0000
0000
0002
0000
0000
0000
0000
0000
0200
0000
0000
0000
0000
0000
,
0303
0000
0000
0000
;

//---------------dance-single - ----------------
#NOTES:
     dance-single:
     :
     Challenge:
     18:
     0.990001,1.234407,0.141750,0.433125,1.988439,880.000000,862.000000,18.000000,55.000000,0.000000,0.000000,0.990001,1.234407,0.141750,0.433125,1.988439,880.000000,862.000000,18.000000,55.000000,0.000000,0.000000:
// measure 0
0000
0000
0000
0000
,  // measure 1
1000
0000
0001
0100
0010
0010
1000
0010
0100
0001
0010
0100
,  // measure 2
1000
0000
0010
1000
0001
0010
0100
0000
1000
0010
0100
0100
,  // measure 3
0001
1000
0010
0100
0001
0010
0100
0000
1000
0010
0100
0001
,  // measure 4
1000
0000
0010
0100
0001
0001
1000
0100
0010
0100
1000
0001
,  // measure 5
1000
0000
0010
0100
0001
0100
0010
0000
1000
0001
0100
0100
,  // measure 6
0010
0000
0000
0000
1000
0000
0000
0000
0001
0000
0000
0000
0100
0000
0000
0000
0000
0000
0000
0000
0001
0000
0000
0000
1000
0000
0000
0010
0000
0000
1000
0000
0000
0001
0000
0000
0100
0000
0000
0010
0000
0000
1000
0000
0000
0000
0000
0000
,  // measure 7
1001
0000
1000
0010
0000
0010
1000
0000
1000
0001
0000
0001
,  // measure 8
0010
0000
0010
0100
0010
0100
1000
0000
1000
0100
0000
0100
,  // measure 9
0010
0000
0010
0001
0000
0001
1000
0000
1000
0010
1000
0010
,  // measure 10
0100
0000
0100
0001
0000
0001
1000
0000
1000
0010
0000
0010
,  // measure 11
0001
0000
0001
1000
0100
1000
0100
0000
0100
0001
0000
0100
,  // measure 12
0010
1000
0001
0100
0010
1000
0100
0010
0001
0100
0001
0100
,  // measure 13
0020
0000
0000
0000
0000
0130
0001
0100
0010
1000
0001
1000
,  // measure 14
0020
0000
0000
2030
0000
0000
3002
0000
0000
1003
0010
1000
,  // measure 15
0200
0000
0000
0310
0000
0001
2000
0000
0000
3020
0000
0000
,  // measure 16
0230
0000
0000
0301
1000
0001
0020
0000
0000
0230
0000
0000
,  // measure 17
1300
0000
1000
0002
0000
0000
0203
0000
0000
0320
0000
0000
,  // measure 18
2030
0000
0000
3100
0000
0010
0001
0000
1000
0100
1000
0010
,  // measure 19
0200
0000
0000
0310
0100
0010
1000
0001
1000
0010
0100
0001
,  // measure 20
0020
0000
0000
0230
0000
0000
2300
0000
0000
3100
0000
0100
,  // measure 21
0020
0000
0000
0031
0000
0001
0200
0000
0000
0302
0000
0000
,  // measure 22
2003
0000
0000
3001
0000
1000
0020
0000
0000
0230
0000
0000
,  // measure 23
0301
0000
0001
1000
0000
1000
0100
0000
0100
0010
0000
0001
,  // measure 24
0010
0000
0100
0000
1000
0000
0001
0000
0010
0000
0100
0000
1000
0000
0100
0000
0010
0000
0001
0000
1000
0000
0010
0100
,  // measure 25
0001
0000
1000
0010
0100
0100
0001
0100
0010
1000
0100
0010
,  // measure 26
0001
0000
0100
0001
1000
0100
0010
0000
0001
0100
0010
0010
,  // measure 27
1000
0001
0100
0010
0000
0100
0001
1000
0100
0010
0001
1000
,  // measure 28
0001
0000
0100
0010
1000
1000
0001
0010
0100
0010
0001
1000
,  // measure 29
0001
0000
0100
0010
1000
0010
0100
0000
0001
1000
0010
0010
,  // measure 30
0100
0001
0100
0010
0000
1000
0010
1000
0001
0100
0001
1000
,  // measure 31
0020
0000
0000
0000
0000
0000
0000
0000
0130
0001
1000
0001
2000
0000
0000
0000
,  // measure 32
3002
0000
0000
0023
0000
0000
0230
0000
0000
1300
0000
1000
,  // measure 33
0200
0000
0000
0310
0000
0010
0002
0000
0000
0203
0000
0000
,  // measure 34
0320
0000
1030
0001
1000
0001
2000
0000
0000
3200
0000
0310
,  // measure 35
0001
0010
0001
0020
0000
0000
0230
0000
0000
2300
0000
0000
,  // measure 36
3002
0000
0000
0203
0000
0000
0310
1000
0001
1000
0100
0010
,  // measure 37
0001
0000
0100
0001
0000
1000
0001
0000
0100
0001
0000
0010
,  // measure 38
0001
0000
0001
0200
0000
0000
0320
0000
0000
2030
0000
0000
,  // measure 39
3002
0000
0000
0013
0100
0010
0200
0000
0000
2300
0000
0000
,  // measure 40
3200
0000
0000
0000
0000
0000
0310
0001
0010
0001
0010
0000
0002
0000
0000
0000
0000
0000
0203
0000
0000
0000
0000
0000
,  // measure 41
0320
0000
0130
1000
0100
0010
1000
0100
0010
0001
0100
0010
,  // measure 42
0001
0000
0010
0000
0100
0000
1000
0100
0010
0000
1000
0000
0001
0010
0100
0000
1000
0000
0001
0000
0100
0000
0001
0000
,  // measure 43
1000
0010
0100
0010
0000
1000
0010
0100
0001
0010
0100
1000
,  // measure 44
0000
0001
0100
0010
1000
0100
0010
0001
1000
0000
0010
1000
,  // measure 45
0001
0100
1000
0100
0001
0010
0100
0010
0001
1000
0010
0100
,  // measure 46
1000
0100
0001
1000
0000
0001
0010
1000
0010
0001
0100
0010
,  // measure 47
0000
1000
0010
0001
0010
1000
0100
0001
0100
0000
1000
0010
,  // measure 48
0100
0001
0100
1000
0001
0010
1000
0001
0010
1000
0001
0100
,  // measure 49
1000
0001
0010
1000
0010
0001
1000
0001
0100
1000
0001
0010
,  // measure 50
1000
0000
0000
0010
0000
0000
0100
0000
0000
0001
0000
0000
0010
0000
0000
0100
0000
0000
1000
0000
0000
0100
0000
0000
0010
0000
0000
0000
0001
0000
0000
0000
0010
0000
0000
0000
0100
0000
0000
0000
0000
0000
0000
0000
1000
0000
0000
0000
,  // measure 51
0001
1000
0100
0010
0001
1000
0000
0100
0010
0100
0001
0100
,  // measure 52
1000
0010
0100
0000
0001
0100
0010
0100
1000
0100
0001
0010
,  // measure 53
0100
0010
0001
1000
0100
0010
0100
1000
0010
0100
0000
0001
,  // measure 54
1000
0010
0100
1000
0100
0001
0000
1000
0001
0010
1000
0010
,  // measure 55
0001
0100
0010
0000
1000
0010
0001
0010
1000
0100
0001
0100
,  // measure 56
1000
0010
0100
1000
0100
0001
1000
0010
0100
0010
0000
0100
,  // measure 57
0001
1000
0001
0000
1001
0000
1010
0000
0100
0001
1000
0000
,  // measure 58
0010
0100
0001
0000
1000
0100
0000
0010
0001
0000
0011
0000
,  // measure 59
1100
0000
0110
0000
0010
0002
2000
0000
0000
0000
0000
0000
,  // measure 60
0000
0000
0000
0000
,  // measure 61
0000
0000
0000
0000
,  // measure 62
0000
0000
0000
0000
0000
0000
0000
3003
,  // measure 63
1001
0000
0000
0100
0000
0000
0000
0001
0000
0100
0000
0010
0000
0010
0000
1000
0000
0010
0000
0100
0000
0001
0000
0010
,  // measure 64
0000
0100
0000
1000
0000
0000
0000
0010
0000
1000
0000
0001
0000
0010
0000
0100
0000
0000
0000
1000
0000
0010
0000
0100
,  // measure 65
0000
0100
0000
0001
0000
1000
0000
0010
0000
0100
0000
0000
0000
0010
0000
1000
0000
0000
0000
0010
0000
0100
0000
0001
,  // measure 66
0000
1000
0000
0110
0000
0000
0000
0110
0000
0000
0000
0110
0000
0000
0000
0000
0000
0000
0000
0000
0000
0000
0000
0000
,  // measure 67
0000
0000
0000
0000
,  // measure 68
0000
0000
0000
0000
,  // measure 69
0000
0000
0000
1001
0000
0001
0000
0000
0000
0101
0000
0000
0000
0100
0000
0100
0000
0001
0000
1000
0000
0010
0000
0000
,  // measure 70
0000
0100
0000
0001
0000
0000
0000
1000
0000
0010
0000
0100
0000
0001
0000
0010
0000
0010
0000
0000
0000
0110
0000
0000
,  // measure 71
0000
0100
0000
1000
0000
0010
0000
0100
0000
0001
0000
0000
0000
1000
0000
0010
0000
0000
0000
0100
0000
0100
0000
0001
,  // measure 72
0000
1000
0000
1001
0000
0010
0000
0100
0000
0010
0000
0000
0000
0100
0000
0001
0000
0010
0000
0100
0000
1100
0000
1000
,  // measure 73
0000
0010
0000
0100
0000
0000
0000
0010
0000
0100
0000
0001
0000
0100
0000
0101
0000
0001
0000
1000
0000
0100
0000
1000
,  // measure 74
0000
0001
0000
0100
0000
0110
0000
0010
0000
1000
0000
0001
0000
0010
0000
0100
0000
1000
0000
1010
0000
0010
0000
0100
,  // measure 75
0000
0001
0000
1000
0000
0001
0000
0100
0000
0001
0000
0000
0000
1000
0000
0000
0000
0010
0000
0000
0000
0100
0000
0001
,  // measure 76
0000
1000
0000
0100
0000
0010
0000
0001
0000
1000
0010
0100
0001
1000
0010
0100
0000
0000
0000
0100
0000
0010
0000
0000
,  // measure 77
0000
0010
0000
1000
0000
0000
0000
1000
0000
0100
0000
0000
0000
0100
0000
0010
0000
0001
0000
0100
0000
0010
0000
0001
,  // measure 78
0000
0010
0000
0100
0000
1000
0000
0100
0000
0010
0000
1000
0000
0100
0000
0010
0000
0100
0000
1000
0000
0100
0000
0010
,  // measure 79
0000
0001
0000
0100
0000
0010
0000
0001
0000
0010
0000
0100
0000
1000
0000
0100
0000
0000
0000
0100
0000
0001
0000
0000
,  // measure 80
0000
0001
0000
0010
0000
0000
0000
0010
0000
0100
0000
0000
0000
0100
0000
1000
0000
0100
0000
0010
0000
1000
0000
0010
,  // measure 81
0000
0001
0000
0100
0000
0010
0000
0001
0000
0010
0000
1000
0000
0010
0000
0001
0000
0010
0000
0100
0000
1000
0000
0100
,  // measure 82
0000
0010
0000
1000
0000
0100
0000
0010
0000
0001
0000
1000
0000
0100
0000
0010
0000
0000
0000
0001
0000
0100
0000
0000
,  // measure 83
0000
0100
0000
0001
0000
0000
0000
0001
0000
0010
0000
0000
0000
0010
0000
0100
0000
1000
0000
0010
0000
0100
0000
1000
,  // measure 84
0000
0100
0000
0010
0000
0001
0000
0010
0000
0100
0000
0001
0000
0010
0000
0100
0000
0010
0000
0001
0000
0010
0000
0100
,  // measure 85
0000
1000
0000
0010
0000
0100
0000
1000
0000
0100
0000
0010
0000
0001
0000
0010
0000
0000
0000
0010
0000
1000
0000
0000
,  // measure 86
0000
1000
0000
0100
0000
0000
0000
0100
0000
0010
0000
0000
0000
0010
0000
0001
0000
0010
0000
0100
0000
0001
0000
0100
,  // measure 87
0000
1000
0000
0010
0000
0100
0000
1000
0000
0100
0000
0000
0000
0100
0000
0010
0000
1000
0000
0100
0000
0000
0000
0100
,  // measure 88
0000
0000
0010
0000
0000
0000
0001
0000
0000
0000
0000
0000
0000
0000
0000
0000
0000
0000
1000
0000
0000
0001
0000
0000
0010
0000
0000
0001
0000
0000
1000
0000
0000
0010
0000
0000
1000
0000
0000
0100
0000
0000
0010
0000
0000
0001
0000
0000
,  // measure 89
0010
0100
1000
0001
0100
0010
1000
0001
0100
0010
1000
0100
0010
0001
0010
0100
,  // measure 90
1000
0001
0010
0001
1000
0010
1000
0100
0010
0100
1000
0001
0010
0001
0100
0010
,  // measure 91
0100
0001
1000
0010
1000
0100
0010
0100
1000
0010
0100
0001
0100
0010
1000
0010
,  // measure 92
0100
0000
0000
0001
0000
0000
0010
0000
0000
0001
0000
0000
1000
0000
0000
0100
0000
0000
1000
0000
0000
0000
0001
0000
0100
0000
0000
0000
0010
0000
0000
0000
1000
0000
0000
0000
0001
0000
0000
0000
0100
0000
0000
0000
0010
0000
0000
0000
,  // measure 93
0000
1000
0001
0000
0100
0000
0010
0000
1000
0000
0100
0000
0010
0000
0001
0000
1000
0000
0000
0010
0100
0000
0001
0000
,  // measure 94
1000
0010
0100
0002
0000
0000
2003
0000
0000
0002
0000
0000
,  // measure 95
3003
0000
0000
0000
;

//---------------dance-single - ----------------
#NOTES:
     dance-single:
     :
     Medium:
     14:
     0.567001,0.748126,0.228375,0.409500,0.641813,504.000000,475.000000,29.000000,52.000000,0.000000,0.000000,0.567001,0.748126,0.228375,0.409500,0.641813,504.000000,475.000000,29.000000,52.000000,0.000000,0.000000:
0000
0000
0000
0000
,
0000
0000
0000
0000
,
0000
0000
0000
0000
,
0000
0000
0000
0000
,
0000
0000
0000
0000
,
0000
0000
0000
0000
,
0000
0000
0000
0000
,
1001
0001
0010
0100
,
1000
0010
0100
0001
,
1000
0010
1000
0001
,
0010
0001
1000
0100
,
1000
0010
0100
0010
,
1000
0000
0000
0001
0000
0000
0100
0010
0100
0010
0100
0010
,
2000
0000
3001
0100
,
0002
0023
0230
1300
,
0200
0310
0002
0203
,
0320
1030
0002
2003
,
3010
0200
0302
2003
,
3020
0000
0000
0130
0000
0000
0001
0000
1000
0010
1000
0010
,
2000
3100
0010
0001
,
0200
0320
2030
3001
,
0200
0310
2000
3200
,
0320
0031
0020
0230
,
1300
0000
0000
0100
0000
0000
0010
0000
0000
0001
0000
0100
,
0010
0100
0010
0100
0010
1000
0001
1000
0001
1000
0001
1000
,
0001
1000
0100
1000
,
0010
0100
0001
0010
,
0001
1000
0100
1000
,
0010
0100
0001
0010
,
0100
1000
0100
0010
,
0001
0000
0000
0010
0000
0100
1000
0100
1000
0001
1000
0001
,
0020
0000
0031
0200
,
0320
0230
0302
0013
,
0200
1300
0020
0230
,
0301
0000
1000
0010
0100
0001
0020
0000
0000
0130
0000
1000
,
0100
0010
0001
0200
0000
0000
0320
0000
0000
2030
0000
0000
,
3200
0320
0031
1000
,
0100
0000
0100
0010
0000
0010
0001
0000
0001
1000
0000
1000
,
0010
0200
0302
0023
,
2030
0000
0000
3010
0001
0010
0200
0000
0000
0320
0000
0000
,
0032
0000
0000
1003
0010
0100
0002
0000
0000
2003
0000
0000
,
0002
3003
0101
0000
1010
0000
1100
0000
,
0110
0000
0000
0011
0000
0000
1001
0000
0000
1000
0000
1000
,
0001
0000
0001
0010
0000
0010
0100
0000
0100
0010
0000
0010
,
0001
0000
0001
1000
0000
1000
0010
0000
0010
0100
0000
0100
,
0001
0000
0001
0010
0000
0010
0100
0000
0100
1000
0000
1000
,
0100
0000
0100
0010
0000
0010
0001
0000
0001
1000
0000
1000
,
0010
0000
0010
0100
0000
0100
0001
0000
0001
1000
0000
1000
,
0010
0000
0010
0100
0000
0100
0001
0000
0001
1000
0000
1000
,
0001
0000
0001
0010
0000
0010
0100
0000
0100
1000
0000
1000
,
0100
0000
0100
0010
0000
0010
0001
0000
0001
1000
0000
1000
,
0100
0000
0100
0010
0000
0010
0001
0000
0001
1000
0000
1000
,
0001
0000
0001
0100
0000
0100
0010
0000
0010
1000
0000
1000
,
0001
0000
0001
0100
0000
0100
0010
0000
0010
1000
0000
1000
,
0100
0000
0100
0010
0000
0010
0001
0000
0001
0010
0000
0010
,
0100
0000
0100
1000
0000
1000
0100
0000
0100
0010
0000
0010
,
0001
0000
0001
0100
0000
0100
0001
1000
0001
1000
0000
0010
,
0100
0001
1000
0000
0001
0000
1000
0000
0010
0100
0010
0000
,
1000
0100
1000
0000
0001
1000
0000
0010
0100
0000
0001
0000
,
1000
0000
0001
0000
0010
0001
0020
0000
0000
0000
0000
0000
,
0000
0000
0000
0000
,
0000
0000
0000
0000
,
0000
0000
0000
0000
,
0130
2000
0000
0000
0000
0000
0000
0000
,
0000
0000
0000
0000
,
0000
0000
0000
0000
,
3000
0000
0000
0010
0000
0000
0000
0010
0000
0000
0000
0110
0000
0000
0000
0000
0000
0000
0000
0000
0000
0000
0000
0000
,
0000
0000
0000
0000
,
0000
0000
0000
0000
,
0000
0101
0000
0010
0000
1000
0000
1010
,
0000
0001
0000
0010
0000
0011
0000
0001
,
0000
0010
0000
1100
0000
1000
0000
0010
,
0000
0000
0000
1001
0000
0000
0000
0001
0000
1000
0000
0000
0000
0000
0000
0000
0000
0000
0000
0000
0000
1010
0000
0000
,
0000
1000
0000
0001
0000
0000
0000
0000
0000
0000
0000
0000
0000
0000
0000
0110
0000
0000
0000
0010
0000
1000
0000
0000
,
0000
0000
0000
0000
0000
1010
0000
0000
0000
0000
0000
0000
0001
0000
0000
0000
0000
0000
0000
0101
0000
0000
0000
0000
,
0100
0000
0000
0000
0000
0010
0000
0000
0000
1000
0000
0000
0000
0001
0000
0000
0000
1000
0000
0000
0000
0010
0000
0100
,
0000
0010
0000
0100
0000
0010
0000
0100
0000
0010
0000
0100
0000
0000
0000
0101
0000
0000
0000
0000
0000
0110
0000
0000
,
0000
0000
0000
1010
0000
0000
0000
1000
0000
0010
0000
0000
0000
0010
0000
0100
0000
0000
0000
0100
0000
0001
0000
0000
,
0000
0001
0000
1000
0000
0000
0000
1000
0000
0001
0000
0000
0000
0001
0000
0010
0000
0000
0000
0010
0000
0100
0000
0000
,
0000
0100
0000
1000
0000
0000
0000
1000
0000
0001
0000
0000
0000
0000
0000
1001
0000
0000
0000
0000
0000
1100
0000
0000
,
0000
0000
0000
0110
0000
0000
0000
0010
0000
0001
0000
0000
0000
0001
0000
1000
0000
0000
0000
1000
0000
0010
0000
0000
,
0000
0010
0000
0100
0000
0000
0000
0100
0000
0010
0000
0000
0000
0010
0000
1000
0000
0000
0000
1000
0000
0100
0000
0000
,
0000
0100
0000
0010
0000
0000
0000
0010
0000
0001
0000
0000
0000
0000
0000
0011
0000
0000
0000
0000
0000
0101
0000
0000
,
0000
0000
0000
0110
0000
0000
0000
0100
0000
0010
0000
0000
0000
0010
0000
1000
0000
0000
0000
1000
0000
0001
0000
0000
,
0000
0001
0000
0100
0000
0000
0000
0100
0000
0010
0000
0000
0000
0010
0000
1000
0000
0000
0000
1000
0000
0100
0000
0000
,
0000
0100
0000
0010
0000
0000
0000
0010
0000
0001
0000
0000
0000
0000
0000
0101
0000
0000
0000
0000
0000
1010
0000
0000
,
0000
0000
0000
1100
0000
0000
0000
1000
0000
0100
0000
0000
0000
0100
0000
1000
0000
0000
0000
1000
0000
0001
0000
0000
,
0000
0001
0000
0100
0000
0000
0000
0100
0000
0010
0000
0000
0000
0010
0000
1000
0000
0001
0000
1000
0000
0000
0000
0001
,
0000
0100
0000
0001
0000
0000
0000
0000
0000
0010
0000
0000
0001
0000
0000
1000
0000
0000
0001
0000
0000
1000
0000
0000
,
0010
0100
0001
1000
0100
1000
0010
0100
,
0010
1000
0001
1000
0001
0010
0100
1000
,
0010
0100
0010
1000
0010
0100
0001
1000
,
0100
0000
0000
0010
0000
0000
0001
0000
0000
0000
0000
0100
0000
0000
0000
0000
0000
0000
0000
0000
0000
0000
0000
0000
,
0000
0010
0000
0000
0000
0000
0000
0000
0000
0000
0000
0000
0000
0000
0000
0000
0000
1000
0000
0000
0000
0000
0000
0000
,
0000
0000
0000
0001
2000
0000
0020
0000
,
3030
0000
0000
0000
;

//---------------dance-single - ----------------
#NOTES:
     dance-single:
     :
     Easy:
     6:
     0.301500,0.486282,0.244125,0.456750,0.027563,268.000000,237.000000,31.000000,58.000000,0.000000,0.000000,0.301500,0.486282,0.244125,0.456750,0.027563,268.000000,237.000000,31.000000,58.000000,0.000000,0.000000:
0000
0000
0000
0000
,
0000
0000
0000
0000
,
0000
0000
0000
0000
,
0000
0000
0000
0000
,
0000
0000
0000
0000
,
0000
0000
0000
0000
,
0000
0000
0000
0000
,
1001
0000
0100
0000
,
0001
0000
0010
0000
,
0001
0000
0001
0000
,
0100
0000
0001
0000
,
0001
0000
0010
0000
,
0001
0000
0010
0000
,
0002
0000
0003
0000
,
2000
3200
0320
0030
,
0020
0030
2000
3020
,
0230
0300
2000
3002
,
0003
0020
2030
3002
,
0203
0320
0230
0300
,
0002
0003
0000
0000
,
0020
0230
0302
0003
,
0020
0030
0002
0023
,
0230
0300
0200
0320
,
0030
0000
0000
0001
,
0001
0001
1000
1000
,
1001
0000
0010
0000
,
0100
0000
1000
0000
,
1000
0000
0010
0000
,
0100
0000
1000
0000
,
0010
0000
0010
0000
,
1000
0000
0010
0000
,
0200
0000
0300
0000
,
0200
0320
2030
3000
,
0020
0030
0200
0320
,
2030
3000
0200
0320
,
0030
0020
0230
0302
,
0023
0230
2300
3001
,
1001
1001
0110
0110
,
0200
0320
2030
3200
,
0320
0030
0020
0230
,
2300
3000
2000
3002
,
2000
3003
0010
0000
0010
0000
0100
0000
,
0100
0001
1000
0000
,
1001
0001
0001
0001
,
0001
0001
0101
0100
,
0100
0100
0100
0100
,
0110
0010
0010
0010
,
0010
0010
1010
1000
,
1000
1000
1000
1100
,
1100
0100
0100
0110
,
0010
0010
0011
0001
,
0001
0001
0001
0001
,
1001
1000
1000
1000
,
1000
1000
1010
0010
,
0010
0010
0010
0010
,
0110
0100
0100
0100
,
0100
0110
1000
0000
,
0001
0000
1000
0000
,
0001
0000
0100
0000
,
0010
0000
0200
0000
,
0000
0000
0000
0000
,
0000
0000
0000
0000
,
0000
0000
0000
0000
,
0300
0020
0000
0000
0000
0000
0000
0000
,
0000
0000
0000
0000
,
0000
0000
0000
0000
,
0030
0000
0000
0100
0000
0000
0000
0100
0000
0000
0000
0100
0000
0000
0000
0000
0000
0000
0000
0000
0000
0000
0000
0000
,
0000
0000
0000
0000
,
0000
0000
0000
0000
,
0000
1010
0000
0000
0000
0000
0000
0101
,
0000
0000
0000
0000
0000
1100
0000
0000
,
0000
0000
0000
0011
0000
0000
0000
0000
,
0000
1001
0000
0000
0000
0000
0000
0101
,
0000
0000
0000
0000
0000
0110
0000
0000
,
0000
0000
0000
0000
0000
0101
0000
0000
0000
0000
0000
0000
0000
0000
0000
0000
0000
0000
0000
1010
0000
0000
0000
0000
,
0000
0000
0000
0001
0000
0000
0000
0200
,
0000
0000
0000
0000
0300
0010
0000
0010
,
0000
0010
0000
0110
0000
0010
0000
1000
,
0000
0001
0000
1000
0000
0100
0000
0010
,
0000
0001
0000
1000
0000
0001
0000
0001
,
0000
0001
0000
1001
0000
0010
0000
0100
,
0000
0010
0000
0100
0000
0001
0000
0010
,
0000
0100
0000
1000
0000
0100
0000
0100
,
0000
0100
0000
0110
0000
0001
0000
1000
,
0000
0010
0000
0100
0000
0001
0000
0010
,
0000
0100
0000
1000
0000
0010
0000
0010
,
0000
0010
0000
1010
0000
0001
0000
1000
,
0000
0010
0000
0100
0000
0000
0001
0000
,
0000
1000
0000
0100
0000
0001
0000
1000
,
0000
0010
0000
0100
0000
0001
0000
1000
,
0000
0100
0000
1000
0000
0100
0000
0010
,
0000
0001
0000
0100
0000
0010
0000
0100
,
0000
0000
0000
0001
0000
0000
0000
0000
0000
0000
0000
1000
0000
0000
0000
0000
0000
0000
0000
0000
0000
0000
0000
0000
,
0000
0010
0000
0000
0000
0000
0000
0000
0000
0000
0000
0000
0000
0000
0000
0000
0000
0100
0000
0000
0000
0000
0000
0000
,
0000
0000
0000
0001
2000
0000
0002
0000
,
3003
0000
0000
0000
;

//---------------dance-single - ----------------
#NOTES:
     dance-single:
     :
     Beginner:
     3:
     0.165375,0.261844,0.086625,0.291375,0.023625,147.000000,136.000000,11.000000,37.000000,0.000000,0.000000,0.165375,0.261844,0.086625,0.291375,0.023625,147.000000,136.000000,11.000000,37.000000,0.000000,0.000000:
0000
0000
0000
0000
,
0000
0000
0000
0000
,
0000
0000
0000
0000
,
0000
0000
0000
0000
,
0000
0000
0000
0000
,
0000
0000
0000
0000
,
0000
0000
0000
0000
,
0010
0000
0100
0000
,
0001
0000
0010
0000
,
0001
0000
0001
0000
,
0100
0000
0001
0000
,
0001
0000
0010
0000
,
0001
0000
0010
0000
,
0002
0000
0003
0000
,
2000
3000
0020
0030
,
0020
0030
2000
3000
,
0200
0300
2000
3000
,
0000
0020
0030
0002
,
0003
0020
0030
0000
,
0002
0003
0000
0000
,
0020
0030
0002
0003
,
0020
0030
0002
0003
,
0200
0300
0200
0300
,
0000
0000
0000
0001
,
0000
0001
0000
1000
,
0001
0000
0010
0000
,
0100
0000
1000
0000
,
1000
0000
0010
0000
,
0100
0000
1000
0000
,
0010
0000
0010
0000
,
1000
0000
0010
0000
,
0200
0000
0300
0000
,
0200
0300
2000
3000
,
0020
0030
0200
0300
,
2000
3000
0200
0300
,
0000
0020
0030
0002
,
0003
0200
0300
0001
,
0000
0100
0000
0010
,
0200
0300
2000
3000
,
0020
0030
0020
0030
,
2000
3000
0200
0300
,
0010
0000
0010
0000
,
0100
0000
1000
0000
,
1001
0000
0000
0000
,
0000
0000
0101
0000
,
0000
0000
0000
0000
,
0110
0000
0000
0000
,
0000
0000
1010
0000
,
0000
0000
0000
1000
,
1100
0000
0000
0110
,
0000
0000
0011
0000
,
0000
0000
0000
0000
,
1001
0000
0000
0000
,
0000
0000
1010
0000
,
0000
0000
0000
0000
,
0110
0000
0000
0000
,
0000
0110
1000
0000
,
0001
0000
1000
0000
,
0001
0000
0100
0000
,
0010
0000
0200
0000
,
0000
0000
0000
0000
,
0000
0000
0000
0000
,
0000
0000
0000
0000
,
0300
0020
0000
0000
0000
0000
0000
0000
,
0000
0000
0000
0000
,
0000
0000
0000
0000
,
0030
0000
0000
0000
0000
0000
0000
0000
0000
0000
0000
0100
0000
0000
0000
0000
0000
0000
0000
0000
0000
0000
0000
0000
,
0000
0000
0000
0000
,
0000
0000
0000
0000
,
0000
1000
0000
0000
0000
0000
0000
0001
,
0000
0000
0000
0000
0000
1000
0000
0000
,
0000
0000
0000
0001
0000
0000
0000
0000
,
0000
1000
0000
0000
0000
0000
0000
0001
,
0000
0000
0000
0000
0000
1000
0000
0000
,
0000
0000
0000
0000
0000
0001
0000
0000
0000
0000
0000
0000
0000
0000
0000
0000
0000
0000
0000
1000
0000
0000
0000
0000
,
0000
0000
0000
0001
0000
0000
0000
0200
,
0000
0000
0000
0000
0300
0010
0000
0000
,
0000
0010
0000
0000
0000
0010
0000
0000
,
0000
0001
0000
0000
0000
0100
0000
0000
,
0000
0001
0000
0000
0000
0001
0000
0000
,
0000
0001
0000
0000
0000
0010
0000
0000
,
0000
0010
0000
0000
0000
0001
0000
0000
,
0000
0100
0000
0000
0000
0100
0000
0000
,
0000
0100
0000
0000
0000
0001
0000
0000
,
0000
0010
0000
0000
0000
0001
0000
0000
,
0000
0100
0000
0000
0000
0010
0000
0000
,
0000
0010
0000
0000
0000
0001
0000
0000
,
0000
0010
0000
0000
0000
0000
0001
0000
,
0000
1000
0000
0100
0000
0000
0000
1000
,
0000
0000
0000
0100
0000
0000
0000
1000
,
0000
0000
0000
1000
0000
0000
0000
0010
,
0000
0000
0000
0100
0000
0000
0000
0100
,
0000
0000
0000
0000
0000
0000
0000
0000
0000
0000
0000
1000
0000
0000
0000
0000
0000
0000
0000
0000
0000
0000
0000
0000
,
0000
0010
0000
0000
0000
0000
0000
0000
0000
0000
0000
0000
0000
0000
0000
0000
0000
0100
0000
0000
0000
0000
0000
0000
,
0000
0000
1000
0002
,
0003
0000
0000
0000
;
