#TITLE:Midnight Amaretto;
#SUBTITLE:;
#ARTIST:かめりあ;
#TITLETRANSLIT:Midnight Amaretto;
#SUBTITLETRANSLIT:;
#ARTISTTRANSLIT:Camellia;
#GENRE:;
#CREDIT:;
#BANNER:;
#BACKGROUND:;
#LYRICSPATH:;
#CDTITLE:;
#MUSIC:Midnight Amaretto.mp3;
#OFFSET:0.070000;
#SAMPLESTART:16.910007;
#SAMPLELENGTH:12.000000;
#SELECTABLE:YES;
#BPMS:0.000000=134.899994
,207.000000=67.449997
,209.000000=134.899994
,213.000000=67.449997
,215.000000=134.899994
;
#STOPS:170.000000=0.420000
;
#BGCHANGES:;
#KEYSOUNDS:;
#ATTACKS:;

//---------------dance-single - ----------------
#NOTES:
     dance-single:
     :
     Hard:
     15:
     0.697623,0.876461,0.258899,0.196406,0.928464,547.000000,518.000000,29.000000,22.000000,0.000000,0.000000,0.697623,0.876461,0.258899,0.196406,0.928464,547.000000,518.000000,29.000000,22.000000,0.000000,0.000000:
0000
0000
0000
0000
,
0000
0000
0000
0000
,
0001
0000
0100
0000
0010
0000
0000
1000
0000
0010
0000
0100
0000
0001
0010
0100
,
1000
0000
0010
0000
1000
0000
0010
0000
1000
0001
0000
0100
0000
0000
0010
0000
,
1000
0000
0001
0000
0100
0000
0000
0010
0000
1000
0000
0001
0000
0100
0000
0010
,
1000
0000
1000
0000
0001
0000
0001
0000
0100
0000
0000
0010
0000
0000
1000
0000
,
0001
1000
0001
0100
,
0010
1000
0100
0010
,
0001
1000
0001
0100
0010
1000
0100
0010
,
0001
0100
0001
0100
0010
1000
0010
1000
0000
0000
0010
0000
1000
0000
0001
0000
,
1001
0000
1000
0000
1100
0000
0000
0000
0001
0100
0000
0010
0000
1000
0001
1000
,
0001
0000
0000
0000
0000
0000
0100
0000
0000
0000
0000
0000
0100
0000
0000
0000
0000
0000
0010
0000
0000
0000
0000
0000
0010
0000
0000
1000
0000
0000
0001
0000
0010
0000
0100
0000
1000
0000
0000
0010
0000
0000
0000
0000
0000
0000
0000
0000
,
0100
0000
0001
0000
0101
0000
0000
0000
0010
1000
0000
0100
0000
0010
0000
0001
,
2000
0010
3002
1003
,
0110
0000
0000
0000
1001
0000
0000
0000
0010
0100
0000
0001
0000
1000
0000
1000
,
0100
0000
0000
0000
0000
0000
0010
0000
0000
0000
0000
0000
0001
0000
0000
0000
0000
0000
0010
0000
0000
0000
0000
0000
0100
0000
1000
0000
0010
0000
0100
0000
0001
0000
1000
0000
0010
0000
0000
0100
0000
0000
0001
0000
0000
0100
0000
0000
,
1010
0000
0000
0000
1100
0000
0000
0000
0100
0010
0000
0001
0000
2000
0000
0002
,
0000
0000
0000
0000
0000
0000
0000
0000
0000
3003
0000
0000
0100
0000
0010
0000
0100
0000
0010
0000
0100
0000
0010
0000
,
0100
0001
1000
0100
1000
0000
0010
0100
,
0001
0000
0000
0000
0000
0000
0000
0000
0000
0000
0000
0000
1000
0000
0000
0000
0000
0000
0001
0000
0010
0000
0100
0000
1000
0000
0001
0000
0010
0000
0100
0000
1000
0000
0001
0000
0010
0000
0000
0100
0000
0000
1000
0000
0000
0001
0000
0000
,
1000
0100
0010
0001
0002
0000
0103
0010
,
0020
0000
0000
0000
0000
0000
0000
0000
0000
1030
0000
0000
0001
0000
0000
0000
0000
0000
0100
0000
0000
0000
0000
0000
0001
0000
0010
0000
0100
0000
1000
0000
0000
0001
0000
0000
0100
0000
0000
0000
0000
0000
0010
0000
0000
0000
0000
0000
,
2002
0000
0000
0000
0000
0000
3003
0000
0000
0000
0000
0000
1000
0000
0000
0000
0000
0000
0100
0000
0000
0000
0000
0000
0010
0000
0001
0000
1000
0000
0010
0000
0000
0100
0000
0000
0001
0000
0100
0000
0010
0000
1000
0000
0001
0000
0100
0000
,
0010
0000
0000
1000
0000
0000
0001
0000
0000
1000
0000
0000
0010
0000
0000
0100
0000
0000
0010
0000
0000
1000
0000
0000
0001
0000
0010
0000
0100
0000
1000
0000
0000
0010
0000
0000
0000
0000
0100
0000
0000
0000
0010
0000
0000
0000
0000
0000
,
1000
0000
0000
0000
0000
0000
0000
0000
0000
0000
0000
0000
0001
0000
0000
0000
0000
0000
0010
0000
0000
0000
0000
0000
0100
0000
1000
0000
0001
0000
0100
0000
0000
0010
0000
0000
1000
0000
0010
0000
0100
0000
0001
0000
1000
0000
0010
0000
,
0100
0000
0000
0001
0000
0000
1000
0000
0000
0001
0000
0000
0100
0000
0000
0010
0000
0000
0100
0000
0000
0001
0000
0000
1000
0000
0100
0000
0010
0000
0001
0000
0000
0000
0000
0000
1000
0000
0000
0010
0000
0000
0000
0000
0000
0000
0000
0000
,
0110
1000
0001
0100
0001
1000
0010
1000
,
0100
0000
0010
0000
0001
0000
1000
0010
0100
0000
0100
0001
0000
1000
0010
1000
,
0010
1000
0001
0010
0100
1000
0001
0100
,
1000
0000
0100
0000
0010
0000
1000
0001
0010
0000
0010
0100
0000
1000
0100
1000
,
0100
0000
0010
0000
0001
0000
1000
0000
0010
0000
1000
0010
0000
0100
0001
0100
,
0001
0000
0000
0000
0000
0000
1000
0000
0001
0000
0100
0000
0010
0000
0000
1000
0000
0000
0001
0000
0000
1000
0000
0000
0010
0000
0000
0000
0000
0000
0100
0000
0000
0010
0000
0000
0000
0000
0000
1000
0000
0000
0001
0000
0000
1000
0000
0000
,
0001
0000
0100
0000
0010
0000
1000
0000
0001
0000
1000
0001
0000
0100
0010
0100
,
0020
0000
0000
0000
0000
0000
0200
0000
0000
0330
0000
0000
0001
0000
1000
0000
0001
0000
1000
0000
0001
0000
1000
0000
,
0001
0000
0100
0000
0010
0000
0000
1000
0000
0010
0000
0100
0000
0001
0010
0100
,
1000
0000
0010
0000
1000
0000
0010
0000
1000
0001
0000
0200
0000
0000
0310
0000
,
1000
0000
0001
0000
0100
0000
0000
0010
0000
1000
0000
0001
0000
0100
0000
0010
,
1000
0000
1000
0000
0100
0000
0100
0000
0010
0000
0000
0001
0000
0000
1000
0000
,
1002
0000
0010
0000
1000
0000
0100
0003
,
2001
0000
0100
0000
0001
0000
0010
3000
,
1000
0000
0001
0000
0010
0000
0100
0000
1000
0001
0000
0001
0100
0010
0100
0000
,
0001
0000
1000
0100
0000
1000
0010
0000
1000
0100
0000
0010
0001
0000
0010
0100
0000
1000
0010
0000
0100
0010
0000
0100
,
0001
0000
1000
0000
0001
0000
1000
0000
0001
0000
1000
0000
0001
0000
0000
0000
0000
0000
1001
0000
0000
0001
0000
0000
,
0011
0000
0000
0000
1000
0010
0000
0100
0000
0001
1000
0001
1000
0000
0010
0000
,
0010
0000
0000
0000
0000
0000
0100
0000
0000
0000
0000
0000
0100
0000
0000
0001
0000
0000
1000
0000
0100
0000
0010
0000
0001
0000
0000
0100
0000
0000
0000
0000
0000
0000
0000
0000
0010
0000
0000
0000
0000
0000
1000
0000
0000
0000
0000
0000
,
1010
0000
0000
0000
0100
0001
0000
0010
0000
0100
0000
1000
0002
0000
0000
0000
,
0100
2003
3001
0110
,
1001
0000
0000
0000
0100
0010
0000
1000
0000
0001
0000
0001
0010
0000
0100
0000
,
1000
0000
0000
0000
0000
0000
0100
0000
0000
0000
0000
0000
0010
0000
0001
0000
0100
0000
0010
0000
1000
0000
0001
0000
0100
0000
0000
0010
0000
0000
1000
0000
0000
0010
0000
0000
0101
0000
0000
0000
0000
0000
0000
0000
0000
0000
0000
0000
,
0011
0000
0000
0000
0010
0100
0000
1000
0000
0001
0000
1010
0000
0000
0001
0000
,
0110
0000
1000
0000
0001
0200
0000
0020
0000
0000
0330
0000
0110
0000
0010
0000
,
1010
0000
1000
0000
0001
1000
0000
0010
0000
0100
0001
0010
0100
1000
0001
0100
,
0010
0000
0000
0000
1000
0000
0000
0000
0000
0000
0000
0000
0001
0000
0000
0000
0010
0000
0000
0000
0100
0000
0000
0000
1000
0000
0000
0000
0000
0000
0010
0000
0000
0000
0000
0000
0100
0000
0000
0000
0000
0000
0000
0000
0000
0000
0000
0000
1010
0000
0000
0000
0000
0000
0000
0000
0000
0000
0000
0000
0000
0000
0000
0000
0000
0000
0000
0000
0000
0000
0000
0000
1000
0000
0000
0000
0000
0000
0000
0000
0000
0000
0000
0000
0000
0000
0000
0000
0000
0000
0000
0000
0000
0000
0000
0000
1001
0000
0000
0000
0000
0000
0000
0000
0000
0000
0000
0000
0000
0000
0000
0000
0000
0000
0000
0000
0000
0000
0000
0000
0001
0000
0000
0000
0000
0000
0000
0000
0000
0000
0000
0000
0000
0000
0000
0000
0000
0000
0000
0000
0000
0000
0000
0000
0100
0000
0000
0000
0000
0000
0000
0000
0000
0000
0000
0000
0001
0000
0000
0000
0000
0000
0000
0000
0000
0000
0000
0000
0000
0000
0000
0000
0000
0000
0000
0000
0000
0000
0000
0000
0010
0000
0000
0000
0000
0000
0000
0000
0000
0000
0000
0000
,
0000
0000
0100
0000
0000
0000
1000
0000
0020
0000
0000
0000
0000
0000
0000
0000
0130
0010
0100
0001
1000
0100
0010
0001
1001
0000
0000
0000
0010
0000
0000
0000
,
0110
0000
1000
0000
0010
0100
0000
0001
0000
1000
0000
1000
0100
0000
0010
0000
,
0001
0000
0000
0000
0000
0000
0010
0000
0000
0000
0000
0000
0100
0000
1000
0000
0010
0000
0100
0000
0001
0000
1000
0000
0010
0000
0000
0100
0000
0000
0001
0000
0000
0100
0000
0000
1010
0000
0000
0000
0000
0000
0100
0000
0000
0000
0000
0000
,
0101
0000
0010
0000
1000
0001
0000
1000
0000
0200
0000
0020
0000
0000
0000
0000
,
0000
0000
0000
0330
0000
0000
0001
0000
1000
0000
0001
0000
1000
0000
0000
0000
0220
0000
0330
0000
0000
0000
0000
0000
;

//---------------dance-single - ----------------
#NOTES:
     dance-single:
     :
     Medium:
     12:
     0.432348,0.489787,0.232116,0.160696,0.178551,339.000000,313.000000,26.000000,18.000000,0.000000,0.000000,0.432348,0.489787,0.232116,0.160696,0.178551,339.000000,313.000000,26.000000,18.000000,0.000000,0.000000:
0000
0000
0000
0000
,
0000
0000
0000
0000
,
0000
0000
0000
0000
,
0000
0000
0000
0000
,
0000
0000
0000
0000
,
0000
0000
0000
0000
,
1001
1000
0001
0100
,
0010
1000
0100
0010
,
0001
1000
0001
0100
0010
1000
0100
0010
,
0001
1000
0100
0010
0000
0001
1000
0010
,
1000
0000
0001
0000
0101
0000
0000
0000
1000
0010
0000
0010
0000
0000
1000
0000
,
0001
0000
0100
0000
0010
0000
1000
0000
0010
0000
0100
0000
0001
1000
0000
0000
,
0010
1000
1100
0000
0010
0000
0001
0000
,
2000
0010
3002
1003
,
1010
0000
0000
0000
0101
0000
0000
0000
0010
0100
0000
0100
0000
0000
0001
0000
,
0010
0000
0001
0000
1000
0000
0010
0000
0100
0000
0001
0000
0010
0100
0000
0000
,
1100
0000
0000
0000
0011
0000
0000
0000
0001
1000
0000
1000
0000
0010
0000
0020
,
0000
0000
0000
0030
0100
0000
0010
0000
,
1001
0010
0100
0010
,
0100
0000
0001
0010
0100
0010
0001
1000
,
0010
0000
0100
0000
0020
0000
1030
0001
,
2000
0000
3001
0100
0001
0000
1000
0010
,
0200
0000
0301
0100
0010
0100
0001
1000
,
0100
0010
0100
1000
0001
0010
0001
0100
,
0010
0000
1000
0001
0010
0100
1000
0010
,
0100
0000
1000
0000
0100
0000
0001
0000
0010
0000
0001
0000
0000
0100
0000
0000
,
0110
0000
0010
0100
0001
0000
1000
0000
,
0100
0010
0001
1000
0010
0000
0100
0000
,
0001
1000
0001
0010
0100
0000
1000
0000
,
0010
0100
0001
1000
0010
0000
0100
0000
,
0101
0000
0001
1000
0010
1000
0100
0000
,
0010
0001
0100
0001
1000
0000
0010
0000
,
0110
0000
0100
0000
0001
0000
1000
0000
0001
0000
0000
1000
0000
0000
0010
0000
,
0200
0000
0000
0300
0001
0000
1000
0000
,
0001
0100
0001
0000
0100
1000
0100
0000
,
1000
0010
1000
0000
0010
0001
0010
0000
,
1000
0010
1000
0000
0100
1000
0100
0000
,
0001
0000
1000
0000
0010
0000
1000
0000
0001
0000
0000
0100
0000
0000
0010
0000
,
0200
0010
0010
0310
,
2000
0000
0001
0000
0001
0000
0001
3000
,
1000
0100
0010
0001
1000
0010
0100
0010
,
1000
0001
1000
0010
0100
0001
0010
0100
,
1000
0000
0100
0000
1000
0000
0100
0000
1000
0000
0100
0000
1000
0000
0000
0000
0000
0000
0001
0000
0000
1000
0000
0000
,
1010
0000
0000
0000
0001
0100
0000
0100
0000
0000
0001
0000
1000
0000
0010
0000
,
0100
0000
0001
0000
0100
0000
0010
0000
1000
0001
0000
0000
0100
0000
0001
0000
,
0011
0100
1000
0002
,
0100
2003
3001
0101
,
1010
0000
0000
0000
0100
0010
0000
0010
0000
0000
1000
0000
0100
0000
1000
0000
,
0001
0000
0100
0000
0010
0000
1000
0000
0100
0010
0000
0000
0011
0000
0000
0000
,
1100
0000
0000
0000
0100
0010
0000
0010
0000
0001
0000
0011
0000
0000
0000
0000
,
0110
0000
0000
0000
0100
1000
0000
1000
0000
0000
0000
0000
0001
0000
0100
0000
,
0101
0000
0000
0000
0001
1000
0000
0001
0000
0000
0100
0000
0020
0000
1000
0000
,
0100
0000
1030
0000
0001
0000
1000
0000
1001
0000
0000
0000
0100
0001
0000
0100
,
0000
0000
0002
0000
2000
3003
0110
0000
,
1010
0000
0000
0000
0010
0100
0000
0010
0000
0000
0000
0000
1000
0000
0001
0000
,
0010
0100
1000
0010
0100
0010
1010
0000
,
0101
0000
0000
0000
0100
0010
0000
0010
0000
2000
0000
0002
0000
0000
0000
0000
,
0000
0000
0000
3003
0000
0000
0010
0000
0000
0000
0000
0000
1000
0000
0000
0000
2002
0000
3003
0000
0000
0000
0000
0000
;

//---------------dance-single - ----------------
#NOTES:
     dance-single:
     :
     Easy:
     5:
     0.304812,0.360896,0.133913,0.142841,0.013391,239.000000,224.000000,15.000000,16.000000,0.000000,0.000000,0.304812,0.360896,0.133913,0.142841,0.013391,239.000000,224.000000,15.000000,16.000000,0.000000,0.000000:
0000
0000
0000
0000
,
0000
0000
0000
0000
,
0000
0000
0000
0000
,
0000
0000
0000
0000
,
0000
0000
0000
0000
,
0000
0000
0000
0000
,
1000
0001
1000
0010
,
0100
0001
0010
0100
,
1000
1000
0100
0010
,
1000
0010
0000
0001
,
0001
1000
0010
0000
0001
0000
0100
0000
,
1000
0001
0100
1000
,
0100
0001
0010
0000
0100
0000
1000
0000
,
0002
0100
2003
3001
,
1001
1001
0100
0010
,
0100
0001
0010
0100
,
0110
0000
0000
0000
0110
0000
0000
0000
1000
0000
0000
0000
0000
0000
0000
0002
,
0000
0000
0000
0003
0010
0000
0000
0000
,
1001
0100
0010
0100
,
0010
1000
0010
1000
,
0100
0010
0200
0301
,
0002
1003
1000
0001
,
0020
1030
0100
1000
,
0010
0010
1000
1000
,
0100
0001
0100
0001
,
0010
0010
0100
0010
,
0110
0000
0100
0010
1000
0000
0001
0000
,
0010
0100
1000
0000
0100
0000
0010
0000
,
1000
0001
1000
0000
0010
0000
0001
0000
,
0100
0010
1000
0000
0100
0000
0010
0000
,
0100
0000
1000
0001
0100
0000
0010
0000
,
0100
1000
0010
0000
0001
0000
0100
0000
,
0100
0010
1000
0000
0001
0000
0100
0000
,
0020
0000
0000
0030
1000
0000
0001
0000
,
1000
0001
1000
0000
0001
0100
0001
0000
,
1000
0010
1000
0000
0001
0010
0001
0000
,
0010
0100
0010
0000
0100
1000
0100
0000
,
0010
0001
0010
0000
0100
0000
1000
0000
,
0020
0100
0100
0130
,
0002
0000
1000
0000
1000
0000
1000
0003
,
0001
0100
0001
0010
,
0001
0000
0001
0000
0010
0100
1000
0100
,
0020
0000
0000
0000
0031
0000
1000
0001
,
1000
1000
0010
0001
,
0010
0000
0010
0000
0001
0000
0010
1000
,
0100
0010
0001
2000
,
0000
0000
3002
0000
0000
0003
1001
0000
,
1001
0010
0100
0010
,
1000
0100
0010
0011
,
0011
0010
0100
1000
,
0110
0000
0010
0000
0001
0000
1000
0010
,
0100
0000
1000
0000
0001
0000
0100
0100
,
0100
0100
0001
0100
0010
0000
1000
0000
,
0010
0000
2000
0000
0002
3003
0110
0000
,
1001
0000
0010
0000
1000
0000
0001
1000
,
0001
0000
0100
0010
1000
0000
1001
0000
,
0110
0000
0000
0000
0010
0000
0000
0000
0000
0000
0000
2000
0000
0000
0000
0000
,
0000
0000
0000
3000
0000
0000
0010
0000
0000
0000
0000
0000
0100
0000
0000
0000
0002
0000
0003
0000
0000
0000
0000
0000
;

//---------------dance-single - ----------------
#NOTES:
     dance-single:
     :
     Beginner:
     2:
     0.150493,0.206226,0.062493,0.133913,0.013391,118.000000,111.000000,7.000000,15.000000,0.000000,0.000000,0.150493,0.206226,0.062493,0.133913,0.013391,118.000000,111.000000,7.000000,15.000000,0.000000,0.000000:
// measure 0
0000
0000
0000
0000
,  // measure 1
0000
0000
0000
0000
,  // measure 2
0000
0000
0000
0000
,  // measure 3
0000
0000
0000
0000
,  // measure 4
0000
0000
0000
0000
,  // measure 5
0000
0000
0000
0000
,  // measure 6
0001
0000
0001
0000
,  // measure 7
1000
0000
0100
0000
,  // measure 8
0001
0000
0100
0000
,  // measure 9
0001
0000
0000
1000
,  // measure 10
0000
0100
0000
0010
,  // measure 11
0000
0001
0000
0010
,  // measure 12
0000
0100
0000
0001
,  // measure 13
2000
0000
3002
0003
,  // measure 14
1000
1001
0010
0000
,  // measure 15
0010
0000
0100
0000
,  // measure 16
0100
0000
0000
0000
0110
0000
0000
0000
0000
0000
0000
0000
0000
0000
0000
2000
,  // measure 17
0000
0000
0000
3000
0100
0000
0000
0000
,  // measure 18
1001
0000
0100
0000
,  // measure 19
0100
0000
0100
0000
,  // measure 20
0010
0000
0020
0030
,  // measure 21
2000
3000
0001
0000
,  // measure 22
0200
0300
0010
0000
,  // measure 23
0000
0100
0000
0001
,  // measure 24
0000
1000
0000
1000
,  // measure 25
0000
0100
0000
0100
,  // measure 26
0010
0000
0001
0000
,  // measure 27
0100
0000
0010
0000
,  // measure 28
0001
0000
0100
0000
,  // measure 29
0010
0000
0010
0000
,  // measure 30
0010
0000
0010
0000
,  // measure 31
0010
0000
1000
0000
,  // measure 32
0010
0000
1000
0000
,  // measure 33
0200
0000
0000
0300
0001
0000
0000
0000
,  // measure 34
0001
0000
1000
0000
,  // measure 35
0001
0000
1000
0000
,  // measure 36
0100
0000
0010
0000
,  // measure 37
0100
0000
0010
0000
,  // measure 38
0200
0000
0010
0300
,  // measure 39
2000
0000
0000
0000
0001
0000
0000
3000
,  // measure 40
1000
0000
1000
0000
,  // measure 41
0001
0000
0100
0000
,  // measure 42
0200
0000
1300
0000
,  // measure 43
0001
0000
0100
0000
,  // measure 44
0100
0000
1000
0000
,  // measure 45
0010
0000
1000
0002
,  // measure 46
0000
0000
2003
0000
0000
3000
0001
0000
,  // measure 47
1001
0100
0000
0100
,  // measure 48
0000
0010
0000
0100
,  // measure 49
1100
0001
0000
0001
,  // measure 50
0000
0100
0000
0001
,  // measure 51
0000
0001
0000
0010
,  // measure 52
0010
1000
0000
0001
,  // measure 53
0000
0000
0002
0000
0000
0003
0100
0000
,  // measure 54
0110
0010
0000
1000
,  // measure 55
0000
0010
0000
1000
,  // measure 56
0110
0000
0000
0000
0100
0000
0000
0000
0000
0000
0000
0002
0000
0000
0000
0000
,  // measure 57
0000
0000
0000
0003
0000
0000
0100
0000
0000
0000
0000
0000
0000
0000
0000
0000
2000
0000
3000
0000
0000
0000
0000
0000
;
