#TITLE:Metamorphose;
#SUBTITLE:;
#ARTIST:CAPACITY GATE;
#TITLETRANSLIT:;
#SUBTITLETRANSLIT:;
#ARTISTTRANSLIT:;
#GENRE:;
#CREDIT:;
#BANNER:Metamorphose-bn.png;
#BACKGROUND:Metamorphose-bg.png;
#LYRICSPATH:;
#CDTITLE:;
#MUSIC:Metamorphose.mp3;
#OFFSET:0.160000;
#SAMPLESTART:22.459854;
#SAMPLELENGTH:12.000000;
#SELECTABLE:YES;
#BPMS:0.000000=201.020004
;
#STOPS:
;
#BGCHANGES:;
#KEYSOUNDS:;
#ATTACKS:;

//---------------dance-single - ----------------
#NOTES:
     dance-single:
     :
     Challenge:
     18:
     1.000000,1.000000,0.978409,0.411096,0.624866,783.000000,119.000000,50.000000,0.000000,0.000000,0.000000,1.000000,1.000000,0.978409,0.411096,0.624866,783.000000,119.000000,50.000000,0.000000,0.000000,0.000000:
0000
0000
0000
0000
,
1000
0010
0100
0010
1000
0010
0100
0010
,
1000
0010
0100
0010
1000
0010
0100
1001
,
0010
0100
0001
0100
0010
0100
0001
0100
,
0010
0100
0001
0100
0010
0101
0010
0101
,
1000
0100
0010
0100
1000
0100
0010
0100
,
1000
0100
0010
0100
1000
1100
0110
0011
,
0001
0000
0100
0000
0010
0000
1000
0000
0010
0000
1000
0001
1000
0000
0000
1001
,
0000
0000
0100
0001
0100
0000
0001
0100
0001
0100
0001
0100
0001
0100
0010
1000
,
0010
0000
0010
1001
0000
0110
0000
1100
,
0000
0110
0000
1010
0000
0101
0000
0010
,
0110
0000
1000
1100
0000
0011
0000
1001
,
0000
0000
0110
0000
0000
0000
1010
0000
0000
0000
1001
0000
0100
0010
0100
0010
,
0100
0000
0010
1010
0000
0101
0000
1100
,
0000
0000
0011
0000
0000
0000
1100
0000
0000
0000
0110
0000
0010
1000
0001
0100
,
0010
0100
0010
0100
0010
0100
0010
0100
,
0010
1000
0001
1000
0001
1000
0001
1000
,
0001
0010
0100
1000
0001
0010
0100
0000
,
1001
0000
1000
0010
1000
0000
0010
0100
0010
0100
0010
0100
0010
0100
0010
0000
,
1000
0001
0010
0001
1000
0010
0100
1000
,
0100
0001
0010
0100
1000
0010
0200
0000
,
0301
1000
0001
0010
0100
1000
0010
0000
,
1010
0011
0101
1100
,
1000
0010
0100
0001
0010
0001
1000
0100
,
0010
1000
0010
0001
0100
1000
0200
0000
,
0310
1000
0001
0010
0100
1000
0001
0000
,
0011
1010
1100
0101
,
0001
1000
0100
1000
0001
0100
0010
0001
,
0010
1000
0100
0010
0001
0100
0020
0000
,
1030
0001
1000
0100
0010
0001
0100
0000
,
0101
1100
1010
0011
,
0001
0100
0010
1000
0100
1000
0001
0010
,
0100
0001
0100
1000
0010
0001
0020
0000
,
0130
0001
1000
0100
0010
0001
0010
0100
,
1000
0001
1000
0100
0010
0100
0010
0001
0100
0001
0100
0010
1000
0010
0100
0000
,
0001
1000
0100
1000
1010
0000
0010
0110
,
0000
0000
0100
0000
0101
0000
0000
0000
0001
0010
0001
1000
0010
0100
0001
1000
,
0001
0010
0001
0100
0110
0000
0010
1010
,
0000
0000
0100
0000
0110
0000
0000
0000
0001
1000
0100
1000
0010
0100
0001
0010
,
0100
1000
0001
0010
0011
0000
0100
1010
,
0000
0000
0010
0000
0101
0000
0000
0000
0010
1000
0100
0001
0100
0010
0001
0100
,
0010
1000
0010
0100
1001
0000
0100
0011
,
0000
0001
1100
0000
0100
0100
0100
0100
,
0100
0010
0001
1000
0101
0000
0010
1100
,
0000
0001
0110
0000
1010
0110
0000
0101
,
2020
3030
0110
2002
3003
0011
2200
3300
,
1001
0022
0030
0103
1000
1001
0100
0010
,
1000
0001
0100
0010
0110
0000
0110
1100
,
0000
0101
0011
0000
1100
1001
0000
0110
,
2002
3000
0103
2020
0030
3100
0220
0000
,
0000
0300
0130
0100
1000
1000
0001
0001
,
0100
0010
1000
0100
0010
1000
0001
0100
,
1000
0000
0010
0000
0100
0000
1000
0000
0100
0000
0001
0000
0100
0000
0010
1000
,
0010
0001
1000
0100
1000
0001
0010
1000
,
0100
0000
0010
0000
0100
0000
1000
0000
0001
0000
0010
0000
0100
0000
0001
1000
,
0001
0100
0010
0001
1000
0010
0001
1000
,
0100
0000
0010
0000
1000
0000
0001
0000
0010
0000
1000
0000
0001
0000
0100
1000
,
0100
0000
0010
0000
0001
0000
1000
0000
0010
0000
0100
0001
0100
0000
0000
1001
,
0000
0000
0010
0100
0010
0000
1000
0010
1000
0010
1000
0010
0100
0001
0100
0000
,
0001
1000
0100
1000
0010
0000
0100
0010
1000
0100
0010
0000
0001
0010
0100
0010
,
0001
0000
1000
0010
0100
0001
0100
0000
0010
1000
0001
0100
0010
0000
0100
0000
,
0010
1000
0100
0010
0001
0000
0010
0100
1000
0100
0010
0000
0100
1000
0001
0100
,
0010
0000
1000
0001
0100
0010
0100
0000
0001
0100
0010
1000
0010
0000
0100
0000
,
0001
1000
0100
1000
0010
0000
0100
0010
1000
0100
0010
0000
0001
0010
0100
0010
,
0001
0000
1000
0010
0100
0001
0100
0000
0010
1000
0001
0100
0001
0000
0010
0000
,
0100
1000
0100
0010
0001
1000
0001
0100
1000
0100
0010
1000
0001
1000
0001
0100
,
0020
0000
0000
0000
0130
0010
0100
0010
,
1001
0000
0100
0000
0001
0000
0100
0000
0010
1000
0010
0100
0001
0010
0001
1000
,
0100
0000
0010
0000
0001
0000
1000
0000
0001
0010
0100
1000
0010
0100
0001
0010
,
0100
0000
1000
0000
0001
0000
0010
0000
0100
1000
0100
0010
0001
0010
0100
1000
,
0010
0000
0100
0000
0001
0000
1000
0000
0010
0100
0010
1000
0100
1000
0001
0100
,
0001
0000
1000
0000
0010
0000
0100
0000
0001
1000
0001
0100
0010
0100
0001
1000
,
0100
0000
0010
0000
0001
0000
1000
0000
0001
0010
0100
1000
0010
1000
0100
0010
,
0100
0000
1000
0000
0001
0000
0010
0000
0100
1000
0100
0010
0001
0010
0100
0000
,
2002
0000
3003
0220
0000
0030
0001
0301
,
1010
0000
0010
0202
0303
2020
3030
2200
,
3300
0000
0202
0000
0303
0000
1001
0000
1000
0100
0010
0100
0010
0001
0010
0001
,
0100
0000
0001
0000
0100
0000
0010
1000
0010
0100
0001
1000
0001
0100
0010
0000
,
1000
0000
0001
0000
0100
0000
0010
1000
0010
1000
0001
0100
0001
0100
0010
0000
,
1000
0000
0100
0000
0010
0000
0001
0010
0100
1000
0100
0010
0001
0010
0100
0000
,
1000
0000
0010
0000
0100
0000
0010
1000
0010
1000
0100
0010
0001
0000
0100
0000
,
0010
2000
0000
3100
0002
0000
0013
2000
,
0000
0000
3001
0000
0200
0000
0000
0000
0310
1000
0001
1000
0010
0100
0010
0100
,
0001
0000
0100
1001
0000
0110
0000
0011
,
0000
0110
0000
0101
0000
1010
0000
0100
,
0110
0000
0001
0011
0000
1100
0000
1001
,
0000
0000
0110
0000
0000
0000
0101
0000
0000
0000
1001
0000
0010
0100
0010
0100
,
0010
0000
0100
0101
0000
1010
0000
0011
,
0000
1100
0000
0011
0000
0110
0000
1001
,
0010
1000
0001
0010
1000
0010
0100
1000
0100
0001
1000
0010
0001
1000
0010
0001
,
0010
1000
0100
0001
0100
1000
0010
0100
1000
0100
0001
0010
,
0100
2010
0000
3010
1002
0000
0013
0201
,
0000
0310
2010
0000
3001
0012
0000
0103
,
0220
0330
0101
2020
3030
0101
2200
3300
,
0101
0022
0033
0102
1000
0100
1000
0200
,
0303
0000
0000
0000
;

//---------------dance-single - ----------------
#NOTES:
     dance-single:
     :
     Hard:
     17:
     1.000000,1.000000,0.567313,0.559091,0.472761,744.000000,69.000000,68.000000,0.000000,0.000000,0.000000,1.000000,1.000000,0.567313,0.559091,0.472761,744.000000,69.000000,68.000000,0.000000,0.000000,0.000000:
0000
0000
0000
0000
,
0010
0001
0100
0001
0010
0001
0100
0001
,
0010
0001
0100
0001
0010
0001
0100
0110
,
0010
1000
0100
1000
0010
1000
0100
1000
,
0010
1000
0100
1000
0001
0022
0033
1100
,
1000
0010
0100
0010
1000
0010
0100
0010
,
1000
0010
0100
0010
1000
0110
1001
0110
,
0010
0000
1000
0000
0001
0000
0100
0000
0010
0000
0100
0010
0100
0000
0000
0010
,
0000
0000
1000
0001
1000
0000
0001
0100
0001
0000
1000
0010
1000
0000
0001
1000
,
0001
0000
1000
0101
0000
0101
0000
0110
,
0000
0110
0000
1001
0000
1001
0000
0010
,
0010
0000
1000
1000
0000
1100
0000
1100
,
0000
0000
0110
0000
0000
0000
0110
0000
0000
0000
0001
0000
0010
0001
0010
0001
,
0100
0000
0100
1010
0000
1010
0000
0101
,
0000
0000
0101
0000
0000
0000
1001
0000
0000
0000
1001
0000
0010
0100
0010
0100
,
0010
1000
0001
1000
0001
1000
0001
1000
,
0001
0100
0010
0100
0010
0100
0010
0100
,
0001
0010
0001
0010
0001
0010
1001
0000
,
0010
0000
1000
0010
1000
0000
0010
0100
0010
0000
0100
0010
0100
0000
0001
0000
,
0010
0001
0100
0010
1000
0010
1000
0100
,
0010
0001
0010
0100
1000
0001
2000
0000
,
3001
0010
0100
0010
0001
1000
0100
0000
,
0020
0032
0203
2300
,
3100
0001
1000
0010
0100
0010
1000
0001
,
1000
0100
0010
0001
0010
0100
0020
0000
,
0031
0010
1000
0010
0001
1000
0100
0000
,
0020
2030
3200
0302
,
0103
0010
1000
0010
0100
0001
1000
0100
,
0010
0001
0100
1000
0100
0001
0200
0000
,
0310
1000
0001
0010
0001
1000
0010
0000
,
0200
2300
3020
0032
,
1003
0001
1000
0010
0100
0010
0100
0001
,
1000
0010
0100
0001
1000
0100
0020
0000
,
0031
0100
1000
0100
0001
1000
0010
1000
,
0100
0010
0100
0010
0001
0010
0001
1000
0001
1000
0010
0100
0010
0100
0010
0000
,
0100
0010
1000
0010
0020
0000
0130
0200
,
0000
0000
0301
0000
0002
0000
0000
0000
1003
0010
1000
0010
0100
0001
0100
0001
,
1000
0010
1000
0001
0002
0000
1003
2000
,
0000
0000
3100
0000
0200
0000
0000
0000
0310
0001
0010
0001
1000
0100
1000
0100
,
0010
0001
0100
0010
0020
0000
1030
2000
,
0000
0000
3001
0000
0002
0000
0000
0000
1003
0010
1000
0010
0100
0001
0100
0001
,
1000
0010
0100
0001
0002
0000
0103
0200
,
0000
0310
0020
0000
1030
1000
1000
1000
,
1000
0001
1000
0001
0002
0000
1003
2000
,
0000
3010
0020
0000
0130
0200
0000
0310
,
2002
3003
0100
2002
3003
0010
2002
3003
,
0100
2002
3003
0100
0010
1001
0100
0010
,
0100
0001
1000
0010
0010
0000
0100
0200
,
0000
0301
0002
0000
1003
2000
0000
3010
,
0202
0303
0100
2020
3030
0001
2002
0000
,
0000
3003
0100
0100
0010
0010
1000
1000
,
0001
0100
0001
0010
0001
1000
0100
1000
,
0010
0000
0100
0000
0001
0000
1000
0000
0010
0000
0100
0000
0001
0000
0010
0100
,
1000
0100
0010
0001
1000
0001
0100
0010
,
1000
0000
0010
0000
0100
0000
0001
0000
1000
0000
0100
0000
1000
0000
0100
0010
,
0001
1000
0010
1000
0001
0100
0001
1000
,
0010
0000
0100
0000
0010
0000
1000
0000
0001
0000
0010
0000
0001
0000
1000
0001
,
1000
0000
0010
0000
0100
0000
0001
0000
1000
0000
0001
0100
0001
0000
0000
1000
,
0000
0000
0010
0100
0010
0000
1000
0001
1000
0000
0010
1000
0010
0000
0100
0000
,
0001
1000
0001
1000
0001
0000
0100
0010
0100
0010
0100
0000
0001
0100
0001
0100
,
0001
0000
1000
0010
1000
0010
1000
0000
0001
0010
0100
1000
0001
0000
1000
0000
,
0001
0010
0001
0010
0001
0000
1000
0100
1000
0100
1000
0000
0010
0100
0010
0100
,
0010
0000
1000
0001
1000
0001
1000
0000
0010
1000
0001
0100
0001
0000
0010
0000
,
0100
1000
0100
1000
0010
0000
0100
0001
0100
0001
1000
0000
0001
0010
0001
0010
,
0100
0000
1000
0001
1000
0001
0010
0000
0100
1000
0100
0010
0001
0000
0010
0000
,
0100
1000
0100
1000
0001
0100
0001
0100
0010
1000
0010
1000
0001
0100
0001
0100
,
0020
0000
0000
0000
1030
0001
1000
0001
,
0110
0000
0100
0000
0001
0000
1000
0000
0010
1000
0010
0000
0100
0000
0001
0000
,
0100
0000
0010
0000
1000
0000
0001
0000
0100
0010
0100
0000
0001
0000
1000
0000
,
0010
0000
0100
0000
0001
0000
0010
0000
0100
1000
0100
0000
0010
0000
0001
0000
,
1000
0000
0100
0000
0010
0000
0001
0000
1000
0010
1000
0000
0100
0000
0010
0000
,
0001
0000
1000
0000
0001
0000
0010
0000
0100
1000
0100
0000
0010
0000
0001
0000
,
1000
0000
0010
0000
1000
0000
0010
0000
0100
0010
0100
0000
0001
0000
1000
0000
,
0010
0000
0100
0000
0001
0000
0010
0000
0001
1000
0001
0000
0100
0000
0010
0000
,
2010
0000
0000
3002
0000
0000
0103
0000
,
1001
0000
0001
0022
0033
0202
0303
2020
,
3030
0000
0202
0000
0303
0000
0001
0000
1000
0001
1000
0001
1000
0001
1000
0001
,
1000
0000
0001
0000
0100
0000
0001
1000
0001
0000
1000
0000
0100
0000
1000
0000
,
0010
0000
0100
0000
0001
0000
1000
0010
1000
0000
0001
0000
0100
0000
0001
0000
,
0010
0000
0100
0000
1000
0000
0100
0010
0100
0000
0010
0000
0001
0000
0100
0000
,
1000
0000
0100
0000
0001
0000
1000
0010
1000
0000
0001
0000
0100
0000
0010
0000
,
1000
2010
0000
3001
0012
0000
1003
2100
,
0000
0000
3001
0000
0102
0000
0000
0000
1003
0010
1000
0010
0100
0001
0100
0001
,
1000
0000
0001
1010
0000
1010
0000
0110
,
0000
0110
0000
1001
0000
1001
0000
0100
,
0100
0000
0001
0001
0000
0011
0000
0011
,
0000
0000
0110
0000
0000
0000
0110
0000
0000
0000
1000
0000
0100
1000
0100
1000
,
0010
0000
0010
0101
0000
0101
0000
1010
,
0000
1010
0000
1001
0000
0110
0000
1001
,
0010
1000
0010
1000
0001
0100
0001
0100
0010
1000
0100
0010
0001
0010
0100
1000
,
0001
0100
0001
1000
0100
1000
0010
0100
0010
1000
0001
1000
,
0010
1001
0000
0100
1001
0000
0010
0101
,
0000
0100
1010
0000
0010
0101
0000
1000
,
0101
0000
0001
1100
0000
0001
0110
0000
,
1000
0110
0000
1002
1000
1000
1000
2000
,
3003
0000
0000
0000
;

//---------------dance-single - ----------------
#NOTES:
     dance-single:
     :
     Medium:
     13:
     0.651881,0.702975,0.295989,0.468650,0.000000,462.000000,36.000000,57.000000,0.000000,0.000000,0.000000,0.651881,0.702975,0.295989,0.468650,0.000000,462.000000,36.000000,57.000000,0.000000,0.000000,0.000000:
0000
0000
0000
0000
,
0000
0000
0000
0000
,
0000
0000
0000
0000
0000
0000
0000
2002
,
3003
0000
0000
0000
,
0000
0000
0000
0000
0000
0220
0330
2002
,
3003
0000
0000
0000
,
0000
0000
0000
0000
0000
0010
0010
1001
,
0000
0000
0000
0000
,
0010
0100
0010
0100
0001
1000
0001
1000
,
0010
0000
0100
0010
0000
0010
0000
1000
,
0000
1000
0000
0010
0000
1001
0000
0001
,
0001
0000
0100
0100
0000
0010
0000
0010
,
0000
1000
0000
1000
0000
1001
0010
0100
,
0010
0000
1000
0001
0000
1000
0000
1000
,
0000
0001
0000
0001
0000
0110
0000
0000
,
0010
0100
0010
0100
0010
0100
0010
0100
,
0010
1000
0001
1000
0001
1000
0001
1000
,
0010
0100
0010
0100
0010
0100
1001
0000
,
0010
1000
0010
1000
0001
0100
0001
0100
,
0010
0010
0100
0010
1000
0001
1000
2000
,
0000
3001
0010
0100
1000
0001
0002
0000
,
0203
0000
0000
0320
0000
0000
1030
0000
,
0110
0110
1001
1001
,
0100
0100
0001
0010
0100
0010
0001
0002
,
0000
1003
0010
0100
0010
1000
2000
0000
,
3020
0000
0000
0230
0000
0000
0301
0000
,
0101
0101
0110
0110
,
0100
0100
0010
0100
0001
1000
0001
0002
,
0000
1003
0100
0010
0001
1000
2000
0000
,
3020
0000
0000
0230
0000
0000
0301
0000
,
0110
0110
1001
1001
,
0010
0010
1000
0100
0010
0100
1000
2000
,
0000
3001
0100
0010
0100
0001
0002
0000
,
0203
0000
0000
0320
0000
0000
0130
0000
,
1010
1010
0101
0101
,
0010
1000
0010
1000
0001
0000
0100
0100
,
0000
0001
0001
0000
1000
0010
1000
0010
,
0100
0010
0100
0001
1000
0000
0010
0010
,
0000
1000
1000
0000
0001
0010
0001
1000
,
0100
1000
0100
0010
0100
0000
1000
1000
,
0000
0001
0001
0000
1000
0010
0100
0010
,
0100
0001
0010
0001
1000
0000
0100
0100
,
0000
0010
0010
0000
0001
0001
1000
0010
,
0010
0100
0100
0001
0001
0000
1000
1000
,
0000
0010
0010
0000
0100
0100
0000
0010
,
2000
3000
0001
0200
0300
0010
2000
3000
,
0001
0200
0300
0010
1000
0002
1003
0010
,
0100
0010
0100
0001
0001
0000
1000
1000
,
0000
0010
0010
0000
0100
0100
0000
0010
,
0200
0300
0001
0020
0030
0001
0200
0000
,
0000
0000
0310
0100
0010
0100
0001
1000
,
0001
0000
2001
0000
,
0020
0000
0000
0000
0000
0000
3000
0100
,
0130
0000
1002
0000
,
0200
0000
0000
0000
0000
0000
0300
1000
,
1003
0000
0120
0000
,
2000
0000
0000
0000
0000
0000
0030
0001
,
3001
0000
0000
0000
1000
0001
0100
0000
,
0010
0100
0010
1000
0001
1000
0001
0100
,
0010
1000
0000
0001
0100
0000
0010
0100
,
0000
0001
0010
0000
0100
1000
0100
0000
,
0010
0001
0000
0100
0010
0000
1000
0010
,
0000
0100
0001
0000
1000
0001
1000
0000
,
0010
0100
0000
0001
1000
0000
0010
1000
,
0000
0001
1000
0000
0100
0010
0100
0000
,
0010
0001
0010
0001
1000
0100
1000
0010
,
0200
0000
0000
0000
0301
1000
0001
1000
,
0020
0000
0130
0010
0000
1000
0000
0001
,
0000
0000
0000
1000
0010
0000
0100
0000
,
0100
0000
0001
0010
0000
0100
1000
0100
,
0000
0000
0000
0010
0001
1000
0001
0100
,
0001
0000
0000
0200
0000
0000
0320
0000
,
2030
0000
0000
3002
0000
0000
2003
0000
,
3200
0000
0000
0320
0000
0000
0030
0000
,
2002
0000
3003
0220
0000
0330
0010
0000
,
1010
0000
0100
0100
0000
1002
0003
0002
,
0003
0002
0003
1000
0001
1000
0001
1000
,
0001
0000
0100
0001
0000
1000
0100
1000
,
0000
0000
0000
0010
1000
0010
0100
0001
,
0100
0000
0000
0010
0000
0000
1000
0000
,
0010
0000
0110
1001
,
0001
2000
0000
3001
0200
0000
0310
2000
,
0000
3001
0200
0000
0310
0100
0010
0100
,
0010
0000
0010
0100
0000
0100
0000
0001
,
0000
0001
0000
0100
0000
1001
0000
1000
,
1000
0000
0010
0010
0000
0100
0000
0100
,
0000
0001
0000
0001
0000
1001
0100
0010
,
0100
0000
0001
1000
0000
0001
0000
0001
,
0000
1000
0000
1000
0000
0110
0000
0010
,
0100
0010
1000
0001
0010
0001
1000
0100
,
1000
0010
0100
0001
0010
0100
0010
0001
,
1000
1000
0000
0010
0010
0000
0001
0001
,
0000
0100
0100
0000
1000
1000
0000
0010
,
0010
0000
0001
0001
0000
0100
0100
0000
,
1000
1000
0000
0001
0001
0001
0001
0002
,
0003
0000
0000
0000
;

//---------------dance-single - ----------------
#NOTES:
     dance-single:
     :
     Easy:
     5:
     0.462777,0.585041,0.098663,0.485094,0.000000,323.000000,12.000000,59.000000,0.000000,0.000000,0.000000,0.462777,0.585041,0.098663,0.485094,0.000000,323.000000,12.000000,59.000000,0.000000,0.000000,0.000000:
0000
0000
0000
0000
,
0000
0000
0000
0000
,
0000
0000
0000
0000
0000
0000
0000
1001
,
0000
0000
0000
0000
,
0000
0000
0000
0000
0000
0110
0000
0110
,
0000
0000
0000
0000
,
0000
0000
0000
0000
0000
0100
0010
0100
,
0000
0000
0000
0000
,
0010
1000
0001
1000
,
0010
0000
0100
0100
0000
0010
0000
1000
,
0000
0001
0000
1000
0000
0001
0000
0100
,
0100
0000
0010
0010
0000
1000
0000
0001
,
0000
1000
0000
0001
0000
0200
0000
0000
,
0310
0000
1000
1000
0000
0001
0000
0100
,
0000
0010
0000
1000
0000
0010
0000
0000
,
0010
1000
0010
1000
,
0010
1000
0001
1000
,
0001
0100
0010
1001
,
0001
1000
0100
1000
,
0010
0000
0100
0000
0010
0000
1000
2000
,
0000
3001
1000
0002
,
0203
0000
0000
0320
0000
0000
1030
0000
,
0020
0100
1000
0130
,
1000
0000
0010
0000
1000
0000
0001
0002
,
0000
0103
0010
2000
,
3020
0000
0000
0230
0000
0000
0301
0000
,
0200
0001
0010
0301
,
0100
0000
0010
0000
0100
0000
0001
0002
,
0000
1003
0001
2000
,
3020
0000
0000
0230
0000
0000
0301
0000
,
0200
0010
0001
0310
,
0001
0000
0100
0000
0001
0000
1000
2000
,
0000
3010
0100
0002
,
0203
0000
0000
0320
0000
0000
1030
0000
,
0020
1000
0100
1030
,
0001
0000
1000
0000
0001
0000
0100
0010
,
0000
0100
0010
0000
1000
0000
0001
0000
,
0100
0000
0001
0000
0100
0000
0010
1000
,
0000
0010
1000
0000
0001
0000
0010
0000
,
0001
0000
1000
0000
0100
0000
0010
0001
,
0000
0010
0001
0000
1000
0000
0010
0000
,
1000
0000
0001
0000
0100
0000
0001
1000
,
0000
0001
1000
0000
0220
0000
0000
0330
,
1000
0000
0001
0000
0100
0000
0010
1000
,
0000
0010
1000
0000
0001
0100
0000
0001
,
0100
0000
0001
0100
0000
0010
0100
0000
,
0010
0100
0000
0010
0100
0000
0010
0000
,
0010
0000
0100
0000
0100
0000
0001
1000
,
0000
0001
1000
0000
0010
1000
0000
1000
,
0100
0000
0100
0010
0000
0010
0001
0000
,
0000
0001
1000
0020
,
0130
0000
0201
0000
,
0002
0000
0000
0000
,
0303
0000
0102
0000
,
2000
0000
0000
0000
,
3003
0000
1020
0000
,
0200
0000
0000
0000
,
0330
0000
2001
0000
,
0002
0000
0000
3003
,
0010
0000
0000
1000
0000
0000
0010
0000
,
0000
1000
0000
0000
0001
0000
0100
0000
,
0001
0000
0000
0100
0000
0000
0010
0000
,
0000
1000
0000
0000
0001
0000
1000
0000
,
0001
0000
0000
0010
0000
0000
0001
0000
,
0000
1000
0000
0000
0010
0000
0100
0000
,
0010
0000
0000
0100
0000
0000
0010
0000
,
0200
0000
0301
1000
,
0020
0000
0000
0130
0000
0100
0000
0001
,
0000
0000
0000
1000
0001
0000
1000
0000
,
1000
0000
0000
0010
0000
1000
0000
0010
,
0000
0000
0000
0100
0001
0000
1000
0000
,
0010
0000
0000
2000
0000
0000
3002
0000
,
0203
0000
0000
0320
0000
0000
2030
0000
,
3002
0000
0000
0203
0000
0000
0300
0000
,
2002
3003
0000
0220
0330
0000
0100
0000
,
1001
0000
0100
0010
0000
0100
0000
0100
,
0000
0100
0000
0001
1000
0000
0001
0000
,
0100
0000
0001
0100
0000
0010
0000
0100
,
0000
0000
0000
0010
1000
0000
0010
0000
,
0100
0000
0000
0010
0000
0000
1000
0000
,
0010
0000
0010
1000
,
0001
1000
0000
0001
1000
0000
0001
1000
,
0000
0001
1000
0000
0010
0000
0010
0000
,
0100
0000
0010
0010
0000
0100
0000
0001
,
0000
1000
0000
0001
0000
1000
0000
0010
,
0010
0000
0100
0100
0000
0001
0000
1000
,
0000
0001
0000
1000
0000
0020
0000
0000
,
0130
0000
0001
0001
0000
1000
0000
0010
,
0000
0100
0000
0001
0000
0100
0000
0001
,
2000
3002
0203
0320
,
0130
0100
0010
0010
,
2000
3000
0000
0002
0003
0000
0200
0300
,
0000
0020
0030
0000
2000
3000
0000
0002
,
0003
0000
0200
0300
0000
0020
0030
0000
,
2000
3000
0000
0010
0010
0010
0010
0010
;

//---------------dance-single - ----------------
#NOTES:
     dance-single:
     :
     Beginner:
     3:
     0.295989,0.312022,0.032888,0.238436,0.000000,219.000000,4.000000,29.000000,0.000000,0.000000,0.000000,0.295989,0.312022,0.032888,0.238436,0.000000,219.000000,4.000000,29.000000,0.000000,0.000000,0.000000:
// measure 0
0000
0000
0000
0000
,  // measure 1
0000
0000
0000
0000
,  // measure 2
0000
0000
0000
0000
0000
0000
0000
1001
,  // measure 3
0000
0000
0000
0000
,  // measure 4
0000
0000
0000
0000
0000
0100
0000
0100
,  // measure 5
0000
0000
0000
0000
,  // measure 6
0000
0000
0000
0000
0000
0010
0000
0100
,  // measure 7
0000
0000
0000
0000
,  // measure 8
0100
0000
0001
0000
,  // measure 9
0100
0000
0000
0010
0000
0000
0000
0001
,  // measure 10
0000
0000
0000
1000
0000
0000
0000
0010
,  // measure 11
0000
0000
0100
0000
0000
0001
0000
0000
,  // measure 12
0000
1000
0000
0000
0000
0020
0000
0000
,  // measure 13
0030
0000
0001
0000
0000
1000
0000
0000
,  // measure 14
0000
0100
0000
0000
0000
0001
0000
0000
,  // measure 15
0100
0000
0001
0000
,  // measure 16
0100
0000
1000
0000
,  // measure 17
0001
0000
0100
0000
,  // measure 18
1000
0000
0001
0000
,  // measure 19
0100
0000
0000
0000
0010
0000
0000
0002
,  // measure 20
0000
1003
0000
2000
,  // measure 21
3000
0000
0000
0200
0000
0000
0301
0000
,  // measure 22
0100
0100
0010
0010
,  // measure 23
0001
0000
0000
0000
0001
0000
0000
2000
,  // measure 24
0000
3010
0000
0002
,  // measure 25
0203
0000
0000
0320
0000
0000
1030
0000
,  // measure 26
0010
0010
0100
0100
,  // measure 27
0010
0000
0000
0000
0010
0000
0000
2000
,  // measure 28
0000
3001
0000
0002
,  // measure 29
0203
0000
0000
0320
0000
0000
1030
0000
,  // measure 30
0010
0010
0100
0100
,  // measure 31
1000
0000
0000
0000
1000
0000
0000
0002
,  // measure 32
0000
0103
0000
2000
,  // measure 33
3020
0000
0000
0230
0000
0000
0301
0000
,  // measure 34
0100
0100
0010
0010
,  // measure 35
0000
0000
0001
0000
0000
0000
0000
0100
,  // measure 36
0000
0010
0000
0000
0001
0000
1000
0000
,  // measure 37
0000
1000
0010
0100
,  // measure 38
0000
0100
0000
0000
1000
0000
0100
0000
,  // measure 39
0000
0001
0000
0100
,  // measure 40
0000
0100
0000
0000
0001
0000
0000
0000
,  // measure 41
0001
0000
0010
1000
,  // measure 42
0000
0001
0000
0000
0200
0000
0000
0300
,  // measure 43
0001
0000
0010
0100
,  // measure 44
0000
0001
0000
0000
1000
0000
0000
0010
,  // measure 45
0000
0000
0100
0000
0000
0100
0000
0000
,  // measure 46
0010
0000
0000
1000
0000
0000
0001
0000
,  // measure 47
0000
0010
0000
1000
,  // measure 48
0000
1000
0000
0000
0001
0000
0000
0001
,  // measure 49
0000
0000
0100
0000
0000
0100
0000
0000
,  // measure 50
0000
0010
0100
0000
,  // measure 51
0100
0000
0002
0000
,  // measure 52
2000
0000
0000
0000
,  // measure 53
3003
0000
2000
0000
,  // measure 54
0002
0000
0000
0000
,  // measure 55
3003
0000
0200
0000
,  // measure 56
0020
0000
0000
0000
,  // measure 57
0330
0000
0002
0000
,  // measure 58
2000
0000
0000
3003
,  // measure 59
0100
0000
0000
0001
0000
0000
0100
0000
,  // measure 60
0000
0001
0000
0000
1000
0000
0010
0000
,  // measure 61
1000
0000
0000
0010
0000
0000
0100
0000
,  // measure 62
0000
0001
0000
0000
1000
0000
0001
0000
,  // measure 63
1000
0000
0000
0100
0000
0000
1000
0000
,  // measure 64
0000
0001
0000
0000
0100
0000
0010
0000
,  // measure 65
0100
0000
0000
0010
0000
0000
0100
0000
,  // measure 66
0020
0000
1030
0000
,  // measure 67
0100
0000
0000
0010
0000
0000
0000
1000
,  // measure 68
0000
0000
0000
0001
0000
0000
0001
0000
,  // measure 69
0000
0000
0000
0100
0000
0000
0000
0100
,  // measure 70
0000
0000
0000
0010
0000
0000
0100
0000
,  // measure 71
0100
0000
0000
0001
0000
0000
1000
0000
,  // measure 72
0010
0000
0000
1000
0000
0000
0001
0000
,  // measure 73
0100
0000
0000
0010
0000
0000
0000
0000
,  // measure 74
1001
0000
0000
0110
0000
0000
0000
0000
,  // measure 75
1001
0000
0000
0100
0000
0000
0000
0010
,  // measure 76
0000
0000
0000
1000
0000
0000
0001
0000
,  // measure 77
0000
0000
1000
0000
0000
0100
0000
0010
,  // measure 78
0000
0000
0000
0100
0000
0000
0000
0000
,  // measure 79
0010
0000
0000
0100
0000
0000
0001
0000
,  // measure 80
0100
0000
0100
0001
,  // measure 81
1000
0000
0000
0001
0000
0000
1000
0000
,  // measure 82
0000
0001
0000
0000
0100
0000
0000
0000
,  // measure 83
0010
0000
0000
0100
0000
0000
0000
1000
,  // measure 84
0000
0000
0000
1000
0000
0000
0000
0100
,  // measure 85
0000
0000
0010
0000
0000
1000
0000
0000
,  // measure 86
0000
0001
0000
0000
0000
0200
0000
0000
,  // measure 87
0300
0000
1000
0000
0000
0001
0000
0000
,  // measure 88
0000
1000
0000
0000
0000
0010
0000
0000
,  // measure 89
0001
1000
0010
0200
,  // measure 90
0320
0000
0000
0130
,  // measure 91
0001
0000
0000
1000
0000
0000
0010
0000
,  // measure 92
0000
0100
0000
0000
0001
0000
0000
1000
,  // measure 93
0000
0000
0010
0000
0000
0100
0000
0000
,  // measure 94
0001
0000
0000
0100
0100
0100
0100
0010
;
