#VERSION:0.83;
#TITLE:Mermaid girl;
#SUBTITLE:(Tropical Remix);
#ARTIST:Hyuji feat. LIQU@.;
#TITLETRANSLIT:;
#SUBTITLETRANSLIT:;
#ARTISTTRANSLIT:;
#GENRE:;
#ORIGIN:;
#CREDIT:;
#BANNER:Mermaid girl (Tropical Remix).png;
#BACKGROUND:Mermaid girl (Tropical Remix)-bg.png;
#PREVIEWVID:;
#JACKET:Mermaid girl (Tropical Remix)-jacket.png;
#CDIMAGE:;
#DISCIMAGE:;
#LYRICSPATH:;
#CDTITLE:;
#MUSIC:Mermaid girl (Tropical Remix).mp3;
#OFFSET:-1.060000;
#SAMPLESTART:98.940056;
#SAMPLELENGTH:12.000000;
#SELECTABLE:YES;
#BPMS:0.000=150.000,
172.500=100.000,
177.500=102.000,
181.500=104.000,
183.500=106.000,
185.500=108.000,
187.500=110.000,
189.500=112.000,
190.500=115.000,
191.500=118.000,
192.500=121.000,
193.500=124.000,
194.500=127.000,
195.500=130.000,
196.500=133.000,
197.500=136.000,
198.500=139.000,
199.500=142.000,
200.500=146.000,
201.500=150.000;
#STOPS:255.500=0.200;
#DELAYS:;
#WARPS:;
#TIMESIGNATURES:0.000=4=4;
#TICKCOUNTS:0.000=4;
#COMBOS:0.000=1;
#SPEEDS:0.000=1.000=0.000=0;
#SCROLLS:0.000=1.000;
#FAKES:;
#LABELS:0.000=Song Start;
#BGCHANGES:;
#KEYSOUNDS:;
#ATTACKS:
;

//---------------dance-single - ----------------
#NOTEDATA:;
#CHARTNAME:;
#STEPSTYPE:dance-single;
#DESCRIPTION:;
#CHARTSTYLE:;
#DIFFICULTY:Hard;
#METER:14;
#RADARVALUES:0.644102,0.695325,0.134707,0.174326,0.558637,569.000000,552.000000,17.000000,22.000000,0.000000,0.000000,0.000000,0.000000,0.000000,0.644102,0.695325,0.134707,0.174326,0.558637,569.000000,552.000000,17.000000,22.000000,0.000000,0.000000,0.000000,0.000000,0.000000;
#CREDIT:;
#NOTES:
0000
0000
0000
0000
,
0000
0000
0000
0000
,
0000
0000
0010
0000
1000
0000
0001
0000
0100
0010
0000
0000
0010
0000
1000
0000
,
0001
0010
0000
0100
1000
0100
0010
0001
,
1000
0000
0010
0000
0000
0000
0010
0000
1000
0001
0000
0100
0001
0000
0010
0000
,
0100
1000
0000
0001
0100
1000
0100
0001
,
0000
0000
1000
0000
0100
0000
0010
0000
0001
1000
0000
0000
0100
0000
0010
0000
,
0100
1000
0000
0001
0010
1000
0010
0001
,
0100
0000
1000
0000
0000
0000
0100
0000
0001
1000
0000
0010
1000
0000
0100
0000
,
1000
0000
0010
0000
0000
0000
0100
0000
0001
0010
0000
0010
0100
0000
1000
0000
,
0100
0000
0020
0000
0000
0000
0031
0000
0000
1000
0000
0000
0010
0000
1000
0001
,
0000
0001
1000
0000
0010
0000
0000
0010
0000
0010
1000
0000
0100
0000
0010
0000
,
0011
0000
0001
0000
0000
0000
1000
0000
0000
0010
0000
0000
0100
0000
0001
0000
,
0000
1000
0000
0000
0010
0000
0000
0100
0000
0100
0001
0000
1000
0000
0100
0000
,
0000
1000
0000
0000
0010
0000
0100
0000
0000
0001
0000
0000
1000
0000
0100
0000
,
0000
1000
0000
0000
0001
0000
0100
0000
0000
0010
0000
0000
1000
0000
0001
0000
,
0000
0100
0000
0000
0010
0000
1000
0000
0000
0100
0000
0000
0010
0000
0001
0000
,
0000
0010
0000
0000
0100
1000
0001
0000
0000
0100
0000
0000
0001
1000
0001
0000
,
0100
0000
0100
0000
0010
0000
1000
0000
0001
0100
0000
0100
0010
0100
0010
0000
,
0010
0000
1000
0001
1000
0010
0100
0010
0000
0010
1000
0001
0000
0100
0010
0000
,
0010
1000
0000
0010
0100
0000
0100
0000
0001
0010
0000
0010
0100
1000
0100
0000
,
0100
0000
1000
0000
0001
0000
1001
0000
0000
1100
0000
0000
0002
0000
2000
0000
,
3003
0000
0110
0000
0000
0000
0010
0000
1000
0001
0000
1000
0010
1000
0010
0000
,
0010
0000
0100
0001
0100
0001
1000
0010
1000
0000
1000
0100
0000
0100
0010
0000
,
0010
0001
0000
0001
1000
0000
0010
0000
0100
0001
0000
1000
0010
1000
0010
0000
,
0010
0000
0100
0000
0001
0000
1000
0000
0000
0010
0000
0000
2000
0000
0002
0000
,
3003
1001
0010
1000
0000
0010
0000
1000
,
0000
0001
0010
0100
1000
0100
0001
0000
,
0000
0100
1000
0010
0000
0100
0000
0001
,
0000
0000
1000
0000
0010
0000
1000
0100
1000
0000
0001
0010
0001
0000
1000
0000
,
0000
1000
0000
0000
1000
0000
0001
0000
0000
0000
0100
0000
0000
0000
0010
0000
,
0000
1000
0000
0001
0000
0100
0000
0010
,
0000
1000
0001
0100
0000
0101
0000
0001
,
0000
1100
1000
0100
0010
0100
1000
0010
,
0010
0000
0010
1000
0000
0001
0100
0000
0001
0000
1000
0000
0001
0000
0010
0000
,
0100
0000
1000
0000
1000
0000
0001
0000
0100
0010
0100
0000
0001
0000
0000
0000
,
1000
0100
1000
0000
0001
0000
0100
0000
0000
0000
0110
0000
0000
0000
1010
0000
,
0000
1001
0001
0020
0000
0000
0000
0000
,
0000
0000
0000
0000
0031
0010
0001
1000
,
0100
1000
0001
1001
0000
1010
0000
0101
,
0001
1000
0010
0200
0000
0302
0000
0023
,
0000
0000
0230
0000
0000
0000
1300
0001
1000
0001
1000
0001
1000
0001
1000
0001
,
1000
0001
1000
0001
1000
0001
0200
0000
0000
0000
0000
0000
0000
0000
0000
0000
,
0000
0000
0301
0000
1000
0000
0001
0000
0100
0010
0000
0000
0010
0000
1000
0000
,
0001
0100
0000
0020
0000
2030
0000
3002
,
0000
0000
0203
0000
0010
0000
0310
0000
1000
0001
0000
0001
1000
0000
0010
0000
,
1000
0000
0002
0000
0000
0000
1003
0010
0000
0100
0000
0010
0000
1000
0001
0001
,
0000
1000
0010
0000
0100
0000
0010
0000
1000
0001
0000
0000
0001
0000
1000
0000
,
0010
0010
0000
0100
0001
1000
0010
0100
,
0001
0000
1000
0000
0000
0000
0001
0000
1000
0010
0000
0010
1000
0000
0001
0000
,
0001
0000
2000
0000
0000
0000
3010
0000
1000
0010
0000
0010
1000
0000
0001
0000
,
1000
0000
0020
0000
0000
0000
0130
0000
0001
0000
1000
0000
0010
0100
0000
0100
,
0000
0001
1000
0000
1000
0000
0010
0000
0100
0000
0001
0000
0010
0100
0000
0100
,
0000
1000
0001
0000
0001
0000
1000
0000
0010
0000
1000
0000
0001
0100
0000
0100
,
0000
0000
0000
0010
0000
0000
1000
0000
0000
0000
0000
0000
1000
0000
0000
0000
0000
0000
0001
0000
0000
0000
0010
0000
0000
0000
0100
0000
0000
0000
1000
0000
0000
0000
0001
0000
0000
0000
0100
0000
0000
0000
0010
0000
0000
0000
0000
0000
,
1000
0000
0001
0000
0100
0000
0001
0000
1000
0010
0000
0010
0100
0010
0100
0000
,
0100
0000
0001
1000
0001
0100
0010
0100
0000
0100
0001
1000
0000
0010
0100
0000
,
0100
0001
0000
0100
0010
0000
0010
0000
1000
0100
0000
0100
0010
0001
0010
0000
,
0010
0000
0001
0000
1000
0000
1001
0000
0000
0011
0000
0000
2000
0000
0002
0000
,
3003
0000
0110
0000
0000
0000
0100
0000
0001
1000
0000
0001
0100
0001
0100
0000
,
0100
0000
0010
1000
0010
1000
0001
0100
0001
0000
0001
0010
0000
0010
0100
0000
,
0100
1000
0000
1000
0001
0000
0100
0000
0010
1000
0000
0001
0100
0001
0100
0000
,
0100
0000
0010
0000
1000
0000
0001
0000
0000
0100
0000
0000
0002
0000
2000
0000
,
3003
0000
0000
1001
0000
0000
0000
0000
0000
1000
0000
0001
0000
1000
0000
0001
0000
0000
0100
0000
0000
0010
0000
0000
,
1000
0000
0001
0000
0100
0000
0001
1000
0000
0000
1000
0000
0001
0000
0100
0000
,
0001
0000
1000
0010
0001
0010
1000
0100
,
0001
0000
0000
0000
0100
0000
1000
0001
0000
0001
0100
0000
0010
0000
1000
0000
,
0001
0000
1000
0010
1000
0001
0100
0000
,
0010
0000
1000
0000
0001
0000
0100
0001
0000
0000
1000
0000
0001
0000
0100
0000
,
1000
0000
0100
0001
0100
1000
0100
0001
,
0010
0000
0000
0000
0100
0000
1000
0100
0000
0100
0010
0000
0001
0000
1000
0000
,
0001
0000
0000
0000
0100
0000
0010
1000
0000
1000
0001
0000
0100
0000
0001
0000
,
0010
0000
0000
0000
0100
1000
0001
0000
0100
0001
1000
0000
0010
0100
0001
0000
,
1000
0010
0100
0000
0000
0000
0000
0000
0000
0000
0000
0000
0000
0000
0000
0000
;

//---------------dance-single - ----------------
#NOTEDATA:;
#CHARTNAME:;
#STEPSTYPE:dance-single;
#DESCRIPTION:;
#CHARTSTYLE:;
#DIFFICULTY:Medium;
#METER:10;
#RADARVALUES:0.455060,0.465135,0.103011,0.174326,0.360539,402.000000,389.000000,13.000000,22.000000,0.000000,0.000000,0.000000,0.000000,0.000000,0.455060,0.465135,0.103011,0.174326,0.360539,402.000000,389.000000,13.000000,22.000000,0.000000,0.000000,0.000000,0.000000,0.000000;
#CREDIT:;
#NOTES:
0000
0000
0000
0000
,
0000
0000
0000
0000
,
0000
0000
0000
1000
0000
0010
0000
1000
,
0000
0001
0000
0010
0000
0001
0000
1000
,
0100
1000
0000
0010
0000
0100
0000
0001
,
1000
0001
0000
0100
0010
0100
0010
1000
,
0000
0001
0000
0100
0000
0001
0000
0100
,
0010
0100
0000
1000
0100
0010
0001
0010
,
0100
1000
0000
0100
0000
0010
0000
0001
,
1000
0001
0000
1000
0000
0100
0000
1000
,
0100
0000
2000
0000
0000
0000
3010
0000
0000
0100
0000
0000
0001
0000
1000
0000
,
0000
0010
0000
0000
1000
0000
0000
0001
0000
0001
1000
0000
0100
0000
0010
0000
,
0000
0001
0000
0000
1000
0000
0001
0000
0000
0100
0000
0000
0010
0000
1000
0000
,
0000
0001
0000
0000
0010
0000
0000
0100
0000
0100
1000
0000
0001
0000
0100
0000
,
0000
0010
0000
0000
1000
0000
0100
0000
0000
1000
0000
0000
0001
0000
0100
0000
,
0010
0000
0100
0000
0001
0000
0100
0000
0000
0010
0000
0000
1000
0000
0100
0000
,
0010
0000
0100
0000
1000
0000
0100
0000
0000
0010
0000
0000
0001
0000
1000
0000
,
0010
0000
1000
0000
0001
0000
0100
0000
0000
0010
0000
0000
1000
0000
0001
0000
,
1000
0010
0100
0001
1000
0010
0000
0100
,
0100
0001
1000
0001
0000
1000
0001
0010
,
0000
0010
0000
0000
0010
0000
0100
0000
1000
0000
0100
0000
0000
0000
0010
0000
,
0001
0000
1000
0000
0001
0000
0100
0000
0000
0010
0000
0000
1000
0000
0001
0000
,
0000
1001
0000
0010
1000
0001
0000
0100
,
0100
0001
0100
0010
0000
1000
0100
1000
,
0000
1000
0000
0000
1000
0000
0010
0000
0100
0000
0001
0000
0000
0000
1000
0000
,
0010
0000
0100
0000
0001
0000
1000
0000
0000
0001
0000
0000
0100
0000
0010
0000
,
0000
0110
0000
0100
0000
0001
0000
0010
,
0000
0001
0000
1000
0000
0100
1000
0000
,
0000
0100
0010
0001
0000
1000
0000
0001
,
0000
1000
0010
1000
0010
0100
0001
0100
,
0000
0001
0000
1000
0000
0100
0000
1000
,
0000
0001
0000
0100
0000
0010
0000
0100
,
0000
0001
1000
0001
0000
0011
0000
0010
,
0000
0110
0100
1000
0100
1000
0010
0000
,
0000
0100
0001
1000
0010
1000
0001
0010
,
0100
1000
0000
0001
0100
0001
0100
0000
,
0000
0010
1000
0010
0000
1010
0000
0110
,
0000
1001
0000
0102
0000
0000
0000
0000
,
0000
0000
0000
0000
1003
0010
1000
0100
,
0010
0001
1000
1100
0000
1010
0000
0101
,
0000
0000
0001
2000
0000
3200
0000
0320
,
0000
0032
0000
1003
0001
1000
0001
1000
,
0001
1000
0001
0020
0000
0000
0000
0000
,
0000
0031
1000
0001
1000
0100
0010
0001
,
0010
0100
0000
2000
0000
3002
0000
0203
,
0000
0320
0000
1030
0000
0001
0000
0100
,
0000
0002
0000
1003
0000
0010
0000
0100
,
0000
0010
0000
0010
0000
1000
0000
0001
,
0000
0001
0000
1000
0001
1000
0000
0001
,
0100
0001
0000
1000
0000
0010
0000
0100
,
0000
0000
0002
0000
0000
0000
0000
1003
0000
0000
0000
0010
0000
0000
0000
1000
,
0000
0000
0000
0200
0000
0000
0000
0310
0000
0001
0000
1000
0000
0000
0000
0100
,
0000
0000
0000
1000
0000
0000
0000
0010
0000
0100
0000
0010
0000
0000
0000
1000
,
0000
0000
0000
0001
0000
0000
0000
1000
0000
0010
0000
1000
0000
0001
0000
0100
,
0000
0001
0000
0100
0000
0010
0000
0200
0000
0000
0000
0000
0000
0000
0000
0310
,
0000
0000
0000
0010
0000
0000
0000
1000
0000
0001
0000
0100
0000
0000
0000
0010
,
0000
0010
0000
1000
0000
0001
0000
1000
0000
0000
0000
0001
0000
1000
0000
0100
,
0000
0000
0100
0000
0000
0100
0000
0010
0000
0001
0000
0010
0000
0000
0000
0100
,
0000
1000
0000
0001
0000
1000
0000
0010
0000
0000
0100
0000
0000
0001
0000
1000
,
0000
0000
0000
1001
0000
0000
0000
0100
0000
0001
0000
1000
0000
0000
0000
0010
,
0000
0010
0000
1000
0000
0010
0000
0100
0000
0000
0000
0001
0000
0010
0000
0001
,
0000
0000
0001
0000
0000
0001
0000
0100
0000
0010
0000
1000
0000
0000
0000
0001
,
0000
0100
0000
0010
0000
1000
0000
0001
0000
0000
1000
0000
0000
0010
0000
0100
,
0000
0000
0000
1001
0000
0000
0000
2000
0000
0000
0000
3002
0000
0000
0000
0000
,
0103
0100
0000
0001
0000
0100
0000
0001
,
0000
1000
0000
0100
0000
1000
0000
0001
,
0010
0001
0000
0100
0000
0010
0000
1000
,
0001
1000
0000
0010
0100
0010
0100
0001
,
0000
1000
0000
0010
0000
1000
0000
0010
,
0100
0010
0000
0001
0010
0100
1000
0100
,
0010
0001
0000
0010
0000
0100
0000
1000
,
0001
1000
0000
0001
0000
0010
0000
0001
,
0010
0002
0000
2003
0000
3200
0000
0320
,
0000
0032
0000
1003
0000
0000
0000
0000
;

//---------------dance-single - ----------------
#NOTEDATA:;
#CHARTNAME:;
#STEPSTYPE:dance-single;
#DESCRIPTION:;
#CHARTSTYLE:;
#DIFFICULTY:Easy;
#METER:4;
#RADARVALUES:0.203758,0.261638,0.039620,0.142631,0.142631,180.000000,175.000000,5.000000,18.000000,0.000000,0.000000,0.000000,0.000000,0.000000,0.203758,0.261638,0.039620,0.142631,0.142631,180.000000,175.000000,5.000000,18.000000,0.000000,0.000000,0.000000,0.000000,0.000000;
#CREDIT:;
#NOTES:
0000
0000
0000
0000
,
0000
0000
0000
0000
,
0000
0000
0000
0001
0000
0000
0000
0001
,
0000
0000
0000
0100
0000
0000
0000
0001
,
0000
0000
0000
0100
0000
0000
0000
1000
,
0000
0000
0000
0010
0000
0000
0000
0001
,
0000
0000
0000
0010
0000
0000
0000
0010
,
0000
0000
0000
0001
0000
0000
0000
0100
,
0000
0000
0000
0010
0000
0000
0000
1000
,
0000
0000
0000
0001
0000
0000
0000
0001
,
0000
0002
0000
0103
0000
0000
0100
0001
,
0000
0000
0100
0000
0000
0010
0000
1000
,
0000
0000
0001
1000
0000
0000
1000
0001
,
0000
0000
0010
0000
0000
0100
0000
0100
,
0000
0000
0001
0010
0000
0000
0000
0010
,
0000
0000
0000
0010
0000
0000
0000
0010
,
0000
0000
0000
0010
0000
0000
0000
0001
,
0000
0000
0000
0010
0000
0000
0000
1000
,
0000
0000
0000
1000
0000
0000
0000
0010
,
0000
0000
0000
1000
0000
0000
0000
0100
,
0000
0000
0000
0010
0000
0000
0000
0100
,
0000
0000
0000
0010
0000
0000
0000
1000
,
0000
0000
0000
0100
0000
0000
0000
0010
,
0000
0000
0000
0100
0000
0000
0000
0001
,
0000
0000
0000
0100
0000
0000
0000
0001
,
0000
0000
0000
0001
0000
0000
0000
0000
,
0000
0110
0000
0010
0000
0000
0000
0100
,
0000
0000
0000
0001
0000
0000
0000
0000
,
0000
0010
0000
0000
0000
0001
0000
0000
,
0000
0001
0000
0000
0000
0010
0000
0000
,
0000
1000
0000
0000
0000
0010
0000
0000
,
0000
1000
0000
0000
0000
0100
0000
0000
,
0000
1000
0000
0000
0000
1100
0000
0000
,
0000
0110
0000
0000
0000
0001
0000
0000
,
0000
0010
0000
0000
0000
0001
0000
0000
,
0000
0001
0000
0000
0000
1000
0000
0000
,
0000
0100
0000
0000
0000
0010
0000
1001
,
0000
0010
0000
2000
0000
0000
0000
0000
,
0000
0000
0000
0000
3000
0100
0000
0000
,
0000
1000
0000
0001
0000
0100
0000
0010
,
0000
0000
1000
0002
0000
0003
0000
0200
,
0000
0300
0000
0001
0000
1000
0000
0001
,
0000
1000
0000
0200
0000
0000
0000
0000
,
0000
1300
0000
0001
0000
1000
0000
0010
,
0000
0100
0000
0020
0000
0230
0000
0302
,
0000
2003
0000
3010
0000
0100
0000
0001
,
0000
0010
0000
0001
0000
1000
0000
0100
,
0000
1000
0000
0002
0000
0003
0000
0100
,
0000
0100
0000
0020
0000
0030
0000
1000
,
0000
1000
0000
0200
0000
0300
0000
0010
,
0000
0000
0010
0000
0000
0000
0000
0001
0000
0000
0000
0000
0000
0000
0000
0001
,
0000
0000
0000
0000
0000
0000
0000
0100
0000
0000
0000
0000
0000
0000
0000
0010
,
0000
0000
0000
0000
0000
0000
0000
0100
0000
0000
0000
0000
0000
0000
0000
0001
,
0000
0000
0000
1000
0000
0000
0000
0001
0000
0000
0000
0000
0000
1000
0000
0000
,
0000
0000
0000
0010
0000
0000
0000
0020
0000
0000
0000
0000
0000
0000
0000
0130
,
0000
0000
0000
0000
0000
0000
0000
0001
0000
0000
0000
0000
0000
0000
0000
0100
,
0000
0000
0000
0000
0000
0000
0000
0001
0000
0000
0000
0000
0000
0001
0000
0000
,
0000
0000
0000
0000
0000
0000
0000
0100
0000
0000
0000
0100
0000
0000
0000
0000
,
0000
0001
0000
0000
0000
0000
0000
0100
0000
0000
0000
0000
0000
1000
0000
0000
,
0000
0000
0000
1001
0000
0000
0000
0010
0000
0000
0000
0001
0000
0000
0000
0000
,
0000
0100
0000
0000
0000
0100
0000
0000
0000
0000
0000
0000
0000
0100
0000
0000
,
0000
0000
0000
0000
0000
1000
0000
0000
0000
0000
0000
0001
0000
0000
0000
1000
,
0000
0000
0000
0000
0000
0001
0000
1000
0000
0000
0000
0000
0000
0100
0000
0000
,
0000
0000
0000
0001
0000
0000
0000
0002
0000
0000
0000
2003
0000
0000
0000
0000
,
3001
0010
0000
0000
0000
0010
0000
0000
,
0000
0001
0000
0000
0000
0001
0000
0000
,
0000
1000
0000
0000
0000
0100
0000
0000
,
0000
0001
0000
0000
0000
0100
0000
0000
,
0000
0001
0000
0000
0000
0001
0000
0000
,
0000
0100
0000
0000
0000
0010
0000
0000
,
0000
1000
0000
0000
0000
0010
0000
0000
,
0000
0001
0000
0000
0000
0100
0000
0000
,
0000
2000
0000
3000
0000
0020
0000
0030
,
0000
2000
0000
3001
0000
0000
0000
0000
;

//---------------dance-single - ----------------
#NOTEDATA:;
#CHARTNAME:;
#STEPSTYPE:dance-single;
#DESCRIPTION:;
#CHARTSTYLE:;
#DIFFICULTY:Beginner;
#METER:2;
#RADARVALUES:0.103011,0.145355,0.007924,0.071315,0.075277,91.000000,90.000000,1.000000,9.000000,0.000000,0.000000,0.000000,0.000000,0.000000,0.103011,0.145355,0.007924,0.071315,0.075277,91.000000,90.000000,1.000000,9.000000,0.000000,0.000000,0.000000,0.000000,0.000000;
#CREDIT:;
#NOTES:
0000
0000
0000
0000
,
0000
0000
0000
0000
,
0000
0000
0000
0100
0000
0000
0000
0000
,
0000
0000
0000
1000
0000
0000
0000
0000
,
0000
0000
0000
1000
0000
0000
0000
0000
,
0000
0000
0000
0001
0000
0000
0000
0000
,
0000
0000
0000
0001
0000
0000
0000
0000
,
0000
0000
0000
0100
0000
0000
0000
0000
,
0000
0000
0000
0001
0000
0000
0000
0000
,
0000
0000
0000
0100
0000
0000
0000
0000
,
0000
0000
0000
1000
0000
0000
0000
0100
,
0000
0000
0000
0000
0000
0001
0000
0010
,
0000
0000
0000
0010
0000
0000
0000
0100
,
0000
0000
0000
0000
0000
1000
0000
0000
,
0000
0000
0000
0000
0000
0000
0000
0001
,
0000
0000
0000
0000
0000
0000
0000
0001
,
0000
0000
0000
0000
0000
0000
0000
0100
,
0000
0000
0000
0000
0000
0000
0000
0010
,
0000
0000
0000
0000
0000
0000
0000
0001
,
0000
0000
0000
0000
0000
0000
0000
1000
,
0000
0000
0000
0000
0000
0000
0000
1000
,
0000
0000
0000
0000
0000
0000
0000
0010
,
0000
0000
0000
0000
0000
0000
0000
0001
,
0000
0000
0000
0000
0000
0000
0000
0100
,
0000
0000
0000
0000
0000
0000
0000
0100
,
0000
0000
0000
0000
,
0000
0110
0000
0000
0000
0000
0000
1000
,
0000
0000
0000
0000
,
0000
0001
0000
0000
0000
0000
0000
0000
,
0000
0100
0000
0000
0000
0000
0000
0000
,
0000
0010
0000
0000
0000
0000
0000
0000
,
0000
0010
0000
0000
0000
0000
0000
0000
,
0000
0010
0000
0000
0000
0010
0000
0000
,
0000
0001
0000
0000
0000
0000
0000
0000
,
0000
0001
0000
0000
0000
0000
0000
0000
,
0000
0100
0000
0000
0000
0000
0000
0000
,
0000
1000
0000
0000
0000
0000
0000
0010
,
0000
0000
0000
0020
0000
0000
0000
0000
,
0000
0000
0000
0000
0030
1000
0000
0000
,
0000
0000
0000
0100
0000
0000
0000
0001
,
0000
0000
0000
0200
0000
0300
0000
0000
,
0000
0000
0000
0100
0000
0000
0000
0100
,
0000
0000
0000
2000
0000
0000
0000
0000
,
0000
3010
0000
0000
0000
0010
0000
0000
,
0000
1000
0000
0000
0000
2000
0000
3000
,
0000
0000
0000
0001
0000
0000
0000
0100
,
0000
0000
0000
0000
,
0000
0010
0000
0000
0000
0000
0000
1000
,
0000
0000
0000
0002
0000
0003
0000
0010
,
0000
0000
0000
2000
0000
3000
0000
0001
,
0000
0000
0000
0000
0000
0000
0000
0100
0000
0000
0000
0000
0000
0000
0000
0000
,
0000
0000
0000
0000
0000
0000
0000
1000
0000
0000
0000
0000
0000
0000
0000
0000
,
0000
0000
0000
0000
0000
0000
0000
1000
0000
0000
0000
0000
0000
0000
0000
0000
,
0000
0000
0000
0010
0000
0000
0000
0000
0000
0000
0000
0000
0000
0010
0000
0000
,
0000
0000
0000
0001
0000
0000
0000
0000
0000
0000
0000
0000
0000
0000
0000
1000
,
0000
0000
0000
0000
0000
0000
0000
0000
0000
0000
0000
0000
0000
0000
0000
1000
,
0000
0000
0000
0000
0000
0000
0000
0000
0000
0000
0000
0000
0000
0100
0000
0000
,
0000
0000
0000
0000
,
0000
0100
0000
0000
0000
0000
0000
0000
0000
0000
0000
0000
0000
0010
0000
0000
,
0000
0000
0000
0000
0000
0000
0000
0001
0000
0000
0000
0000
0000
0000
0000
0000
,
0000
1000
0000
0000
0000
0000
0000
0000
0000
0000
0000
0000
0000
1000
0000
0000
,
0000
0000
0000
0000
0000
0000
0000
0000
0000
0000
0000
0100
0000
0000
0000
0000
,
0000
0000
0000
0000
0000
0100
0000
0000
0000
0000
0000
0000
0000
1000
0000
0000
,
0000
0000
0000
0100
0000
0000
0000
0000
0000
0000
0000
0020
0000
0000
0000
0000
,
0130
0000
0000
0000
0000
0001
0000
0000
,
0000
0000
0000
0000
0000
0100
0000
0000
,
0000
0000
0000
0000
0000
1000
0000
0000
,
0000
0000
0000
0000
0000
1000
0000
0000
,
0000
0000
0000
0000
0000
0100
0000
0000
,
0000
0000
0000
0000
0000
0001
0000
0000
,
0000
0000
0000
0000
0000
0001
0000
0000
,
0000
0000
0000
0000
0000
1000
0000
0000
,
0000
0000
0000
0000
0000
0002
0000
0003
,
0000
0020
0000
0130
0000
0000
0000
0000
;

//---------------dance-single - ----------------
#NOTEDATA:;
#CHARTNAME:;
#STEPSTYPE:dance-single;
#DESCRIPTION:;
#CHARTSTYLE:;
#DIFFICULTY:Challenge;
#METER:15;
#RADARVALUES:0.779941,0.840184,0.491284,0.507132,0.693344,689.000000,627.000000,62.000000,64.000000,0.000000,0.000000,0.000000,0.000000,0.000000,0.779941,0.840184,0.491284,0.507132,0.693344,689.000000,627.000000,62.000000,64.000000,0.000000,0.000000,0.000000,0.000000,0.000000;
#CREDIT:;
#NOTES:
// measure 0
0000
0000
0000
0000
,  // measure 1
0000
0000
0000
0000
,  // measure 2
0000
0000
0100
0000
0001
0000
0010
0000
0100
1000
0100
0000
0010
0000
0001
0000
,  // measure 3
1000
0001
0000
1000
0010
0100
0010
1000
,  // measure 4
0001
0000
1000
0000
0000
0000
0100
0000
0010
0001
0000
0010
0001
0000
1000
0000
,  // measure 5
0100
1000
0000
0010
0100
0001
0100
0010
,  // measure 6
0000
0000
1000
0000
0100
0000
0110
0000
0010
0001
0100
0000
0100
0000
0010
0000
,  // measure 7
1000
1010
0000
0101
0001
0010
0100
1000
,  // measure 8
0100
0000
1100
0000
0000
0000
0011
0000
0010
0100
0000
0010
0100
0000
1100
0000
,  // measure 9
1000
0000
1001
0000
0000
0000
0010
0000
0100
0001
1000
0001
0100
0000
0010
0000
,  // measure 10
0110
0000
0100
0000
0100
0001
1000
0000
0000
1000
0000
0000
0010
0000
0100
0000
,  // measure 11
0000
0100
0000
0000
0001
0000
0000
0010
0000
0100
1000
0000
0100
0000
0010
0000
,  // measure 12
0011
0000
0001
0000
1000
0000
0001
0000
0000
0001
0000
0000
0100
0000
0010
0000
,  // measure 13
0000
0010
0000
0000
1000
0000
0000
0100
0000
0010
0001
0000
1000
0000
0100
0000
,  // measure 14
1100
0000
1000
0000
0010
0000
0100
0000
0000
0100
0000
0000
0001
1000
0010
0000
,  // measure 15
0110
0000
1100
0000
0101
0000
0001
0000
0000
0001
0000
0000
0010
0100
1000
0000
,  // measure 16
1010
0000
0110
0000
1001
0000
1000
0000
0000
1000
0000
0000
0001
0100
0010
0000
,  // measure 17
1010
0000
1001
0000
1100
0000
0100
0000
0010
0001
0000
0000
0001
1000
0010
0000
,  // measure 18
0100
0000
0100
0000
0010
0000
1000
0000
0001
0100
0000
0100
0010
0100
1000
0000
,  // measure 19
1000
0000
0100
0001
0010
0100
0010
0001
0100
0000
0100
1000
0000
0100
0010
0000
,  // measure 20
0100
0001
0000
0100
0010
0000
1010
0000
1000
0100
0000
0010
0001
0010
0100
0000
,  // measure 21
0100
0000
0010
0000
0001
0000
0011
0000
0000
1100
0000
0000
0110
0000
0011
0000
,  // measure 22
0001
1000
0010
0000
0010
1000
0001
0000
1000
0010
0000
0010
0100
0010
0001
0000
,  // measure 23
0001
0000
0010
1000
0100
0010
0100
1000
0001
0000
0001
1000
0000
0001
0100
0000
,  // measure 24
0001
1000
0000
0001
0100
0000
0101
0000
0001
0010
0000
0100
1000
0100
0010
0000
,  // measure 25
0010
0000
0100
0000
1000
0000
1100
0000
0000
0011
0000
0000
0110
0000
1100
0000
,  // measure 26
1000
0000
0100
0010
0100
0010
0002
0000
0000
0000
0023
0000
0000
0000
0230
0000
,  // measure 27
0000
1300
0010
0100
1000
0100
0001
1000
,  // measure 28
1000
0000
0100
0010
0100
0010
0002
0000
0000
0000
0203
0000
0000
0000
0320
0000
,  // measure 29
0000
0000
0130
0000
0001
0000
1000
0100
0001
0000
1000
0010
0001
0000
0100
0000
,  // measure 30
0000
0100
0000
0000
0100
0000
0120
0000
0000
0000
2030
0000
0000
0000
3200
0000
,  // measure 31
0000
0020
0330
0022
0033
0202
0303
2020
,  // measure 32
3030
0100
0001
2000
3000
2002
3003
0020
,  // measure 33
0030
0101
0100
0001
0010
0100
1000
0010
,  // measure 34
0010
0000
0010
0100
0000
0001
1000
0000
0010
1000
0001
0000
0100
0001
0010
0001
,  // measure 35
1000
0000
0001
0000
0011
0000
0000
0000
0010
0100
1000
0000
0001
0000
0010
0100
,  // measure 36
1000
0001
1000
0010
0100
0001
0100
0000
0000
0010
0100
0000
0000
0100
0001
0000
,  // measure 37
0000
0001
1000
0000
0001
0000
0100
0000
0100
0000
0000
0010
0000
0010
0000
0000
,  // measure 38
1000
0000
1000
0000
0100
0000
0110
0000
0010
0001
0100
0000
0100
0000
0010
0000
,  // measure 39
1000
0100
0000
1100
0000
0011
0000
0101
,  // measure 40
0001
0000
1000
0000
0010
1000
0001
0100
0020
0000
1030
0001
0200
0000
0301
1000
,  // measure 41
0020
0000
1030
0001
0200
0000
0301
0010
0001
1000
0100
1000
0010
0100
0010
1000
,  // measure 42
0001
1000
0010
0100
0001
0010
0200
0000
0000
0000
0000
0000
0000
0000
0000
0000
,  // measure 43
0000
0000
2300
0000
3200
0000
0320
0000
0031
0010
0002
0000
2003
0000
3020
0000
,  // measure 44
0230
0002
0303
2020
3030
2200
3300
0022
,  // measure 45
0033
0000
0001
0000
0010
0000
0100
0000
1000
0100
0000
0010
0001
0000
0200
0000
,  // measure 46
0320
0000
2000
0000
3030
0000
0001
0100
0000
0100
0000
0010
0000
1000
0001
0010
,  // measure 47
0000
0010
0200
0000
2300
0000
3002
0000
0013
0100
2000
0000
3020
0000
0230
0000
,  // measure 48
0302
2000
0003
3020
0230
2300
3200
0302
,  // measure 49
0023
0000
0200
0000
0030
0000
2300
0000
3100
0010
0000
0001
0010
0000
0100
0000
,  // measure 50
1000
0000
1000
0010
0100
0010
0100
0001
1000
0000
1000
0100
0010
0000
0010
0001
,  // measure 51
1000
0010
0100
0000
0100
0000
0110
0000
0010
0000
1000
0000
0001
0010
0000
0010
,  // measure 52
0000
0100
1000
0000
1000
0000
0011
0000
0100
0000
0001
0000
0010
0100
0000
0100
,  // measure 53
0000
1000
0001
0000
0001
0000
1010
0000
0100
0000
0001
0000
0001
0100
0000
0100
,  // measure 54
0000
0000
0000
0010
0000
0000
1000
0000
0000
0000
0000
0000
0001
0000
0000
0000
0000
0000
1001
0000
0000
0000
0100
0000
0000
0000
0100
0000
0000
0000
0010
0000
0000
0000
1000
0000
0000
0000
1000
0000
0000
0000
0001
0000
0000
0000
0000
0000
,  // measure 55
1000
0000
0001
0000
0100
0000
0001
0000
1000
0010
0000
0010
0100
0010
0001
0000
,  // measure 56
0001
0000
0010
1000
0100
0010
0100
1000
0010
0000
0010
0001
0000
0010
0100
0000
,  // measure 57
0010
1000
0000
0010
0100
0000
0101
0000
0001
0010
0000
0100
1000
0100
0010
0000
,  // measure 58
0010
0000
0100
0000
1000
0000
1100
0000
0000
0011
0000
0000
0110
0000
1100
0000
,  // measure 59
1000
0001
0100
0000
0100
0001
1000
0000
0001
0100
0000
0100
0010
0100
1000
0000
,  // measure 60
1000
0000
0100
0001
0010
0100
0010
0001
1000
0000
1000
0001
0000
1000
0010
0000
,  // measure 61
1000
0001
0000
1000
0010
0000
1010
0000
1000
0100
0000
0010
0001
0010
0100
0000
,  // measure 62
0100
0000
0010
0000
0001
0000
0011
0000
0000
1100
0000
0000
0110
0000
0011
0000
,  // measure 63
0000
0000
0000
0000
0000
0000
0000
0000
0000
0000
0000
0000
0000
0000
0000
0000
0000
0000
0000
0000
0000
0000
0000
0000
1001
0000
0000
0000
0000
0000
0000
0000
0000
0000
0000
0000
0000
0000
0000
0000
0000
0000
0000
0000
0000
0000
0000
0000
0000
0000
0000
0000
0000
0000
0000
0000
0000
0000
0000
0000
0000
0000
0000
0000
0000
0000
0000
0000
0000
0000
0000
0000
1000
0000
0000
0000
0000
0000
0000
0000
0000
0000
0000
0000
0000
0000
0000
0000
0010
0000
0000
0000
0000
0000
0000
0000
0000
0000
0000
0000
0000
0000
0000
0000
0100
0000
0000
0000
0000
0000
0000
0000
0000
0000
0000
0000
0000
0000
0000
0000
0001
0000
0000
0000
0000
0000
0000
0000
0000
0000
0000
0000
0000
0000
0000
0000
0000
0000
0000
0000
0000
0000
0000
0000
0200
0000
0000
0000
0000
0000
0000
0000
0000
0000
0000
0000
0000
0000
0000
0000
0000
0000
0000
0000
0000
0000
0000
0000
0020
0000
0000
0000
0000
0000
0330
0000
0000
0000
0000
0000
0000
0000
0000
0000
0000
0000
0000
0000
0000
0000
0000
0000
,  // measure 64
1000
0000
0100
0000
1000
0000
0010
0100
0010
0000
1000
0000
0001
0000
0001
0000
,  // measure 65
0201
0000
0310
1000
0001
0010
0100
0100
,  // measure 66
2100
0000
0000
0000
3010
0000
1000
0001
0000
0100
0010
0000
1000
0000
1000
0000
,  // measure 67
1010
0000
0010
0000
0100
0001
0010
0000
0100
1000
0020
0000
0200
0000
0330
0000
,  // measure 68
0001
0010
0100
1000
0100
0000
0100
1000
0010
0000
0100
0000
1000
0000
0100
0000
,  // measure 69
0001
0010
0100
0010
0001
0000
0100
0000
1000
0000
0100
0000
0001
0000
0010
0000
,  // measure 70
0100
1000
0001
1000
0010
0000
0100
0001
0000
1000
0010
0000
0100
0000
0001
0000
,  // measure 71
0010
0000
0100
1000
0001
0000
0010
0100
0000
1000
0100
0000
0010
0000
0010
0000
,  // measure 72
0110
0000
0000
0000
0100
0010
0001
0000
0100
0010
0001
0000
1000
0100
0010
0000
,  // measure 73
1000
0100
0010
0000
0000
0000
0000
0000
0000
0000
0000
0000
0000
0000
0000
0000
;
