#VERSION:0.81;
#TITLE:Megalara Garuda;
#SUBTITLE:;
#ARTIST:SYUNN;
#TITLETRANSLIT:;
#SUBTITLETRANSLIT:;
#ARTISTTRANSLIT:;
#GENRE:;
#ORIGIN:;
#CREDIT:;
#BANNER:;
#BACKGROUND:;
#PREVIEWVID:;
#JACKET:Megalara Garuda-jacket.png;
#CDIMAGE:;
#DISCIMAGE:;
#LYRICSPATH:;
#CDTITLE:;
#MUSIC:Megalara Garuda.mp3;
#OFFSET:-1.965000;
#SAMPLESTART:63.375057;
#SAMPLELENGTH:12.000000;
#SELECTABLE:YES;
#BPMS:0.000=180.280;
#STOPS:64.500=0.100,
65.000=0.100,
167.000=0.200,
171.500=0.200,
179.000=0.340,
306.000=0.100,
306.500=0.100;
#DELAYS:;
#WARPS:;
#TIMESIGNATURES:0.000=4=4;
#TICKCOUNTS:0.000=4;
#COMBOS:0.000=1;
#SPEEDS:0.000=1.000=0.000=0;
#SCROLLS:0.000=1.000;
#FAKES:;
#LABELS:0.000=Song Start;
#BGCHANGES:;
#KEYSOUNDS:;
#ATTACKS:
;

//---------------dance-single - ----------------
#NOTEDATA:;
#CHARTNAME:;
#STEPSTYPE:dance-single;
#DESCRIPTION:;
#CHARTSTYLE:;
#DIFFICULTY:Hard;
#METER:17;
#RADARVALUES:0.984128,0.997166,0.206112,0.404297,0.757065,792.000000,26.000000,51.000000,0.000000,0.000000,0.000000,0.000000,0.000000,0.984128,0.997166,0.206112,0.404297,0.757065,792.000000,26.000000,51.000000,0.000000,0.000000,0.000000,0.000000,0.000000;
#CREDIT:;
#NOTES:
0000
0000
0000
0000
,
1000
0001
1000
0001
1000
0001
1000
0001
,
0100
0010
0100
0010
1000
0010
1000
0010
,
0100
0001
0100
0001
0010
0100
1000
0100
,
0010
0001
1000
0001
1000
0010
0100
0001
,
0100
0001
1000
0100
1000
0000
0100
0001
,
0100
0000
0001
0010
0001
0000
0010
1000
,
0010
0000
1000
0001
1000
0000
0001
1000
,
0001
0100
0001
1000
0100
0000
1000
0010
,
1000
0000
1000
0000
0001
0000
0001
0000
0100
0010
0100
0010
0100
0010
0100
0000
,
0001
0100
0001
0000
1000
0100
1000
0000
0001
1000
0001
1000
0001
1000
0001
0000
,
0100
0010
0100
0000
0010
1000
0010
0000
0100
0001
0100
0001
0100
0001
0100
0000
,
0010
1000
0001
0000
0100
0001
1000
0000
0100
0010
0001
0010
0100
1000
0100
0000
,
0010
0001
1000
0000
0100
1000
0001
0000
1000
0100
1000
0001
0100
0001
0100
0000
,
0010
0000
1000
0000
0001
0000
0001
0000
1000
0000
0010
0000
0100
0010
0100
0000
,
0001
2000
0000
3010
0100
0002
0000
1003
,
0000
0000
0000
2001
0000
0000
3010
0000
0000
0100
0000
0001
0000
0100
0000
0010
0000
1000
0000
0010
0000
0100
0000
0010
,
0000
0100
0000
0001
0000
0000
1000
0000
0000
0002
0000
0000
0000
0000
0000
0103
0000
0000
0010
0000
0000
0200
0000
0000
,
0000
0000
0301
0000
1000
0010
1000
0010
0100
0000
0100
0000
0001
0000
0010
0000
,
0100
0010
0001
1000
0100
0010
0100
1000
,
0001
0000
0001
0000
0010
0100
0010
0100
1000
0000
1000
0000
0100
0000
0100
0000
,
1000
0001
0100
0020
0000
0130
0001
2000
,
0000
0000
3100
0000
0010
0000
2000
0000
0000
0000
3010
0001
0010
0000
0001
0000
,
0100
0010
0001
0010
0100
0001
1000
0100
,
0010
0000
1000
0000
0010
0001
0010
0001
0100
0000
0100
0000
0010
0000
0100
0000
,
0001
1000
0000
0000
2002
0000
3003
0000
1000
0000
0010
0100
0001
0100
0010
1000
,
0010
0100
0001
0100
0002
0000
0000
0000
1003
0000
0100
1000
0100
0010
0001
1000
,
0020
0000
0000
0000
0130
0000
0001
1000
0001
1000
0001
0100
0010
0100
0010
0100
,
0010
1000
0001
0000
0101
0000
0100
0001
0010
0001
0100
0000
0110
0000
0010
1000
,
0200
0000
0000
0000
2300
0000
0000
0000
3001
0000
0100
0010
0100
0010
1000
0001
,
1000
0010
1000
0010
0100
0000
0100
0000
0001
0000
1000
0100
1000
0100
1000
0100
,
0020
0000
0032
0000
1003
0010
0100
0100
,
0001
0000
1000
0000
0010
0000
0010
0000
0100
0000
0001
0000
1000
0010
0100
0001
,
0100
0000
0000
0000
1010
0000
1000
0000
0010
0000
1000
0001
1000
0001
1000
0001
,
0100
0010
0100
0010
0100
0000
0001
0000
1001
0000
1000
0010
1000
0001
0010
0001
,
0020
0000
0000
0000
0130
0000
0010
0000
0011
0000
0001
1000
0001
1000
0010
1000
,
0010
0000
0100
0000
1001
0000
1000
0001
1000
0001
0100
0010
0100
0010
0100
0010
,
2000
0000
0001
0000
3001
0000
0100
0000
0010
0000
1000
0001
1000
0001
1000
0001
,
0010
0100
0010
0100
0010
0000
0100
0000
1001
0000
0001
0100
0001
1000
0100
1000
,
0200
0000
0000
0000
0310
0000
0001
1000
0001
1000
0100
0010
0100
0010
0001
0000
,
0101
0000
0010
1000
0010
0000
0100
0001
0100
0000
0010
1000
0001
1000
0001
0100
,
0010
0100
0010
1000
0001
0000
0101
0000
1001
0000
0101
0000
1010
0000
0101
0000
,
0011
0000
1100
0000
1001
0000
0110
0000
0100
0000
0001
0010
0100
1000
0001
0000
,
1000
0010
0100
0010
1000
0001
0100
0010
,
0100
0001
1000
0010
1000
0001
2002
3003
,
1000
0000
0001
0000
0010
0000
0100
0000
1000
0000
0001
0000
0100
0000
0000
0010
0000
0000
1000
0000
0000
0002
0000
0000
,
0000
0000
0103
0000
0001
0000
2000
0000
0000
0000
3001
0000
1000
0001
0100
0010
,
0100
0001
1000
0100
0001
0100
1000
0001
,
0010
0000
1000
0000
0010
0000
0001
0000
1000
0000
1000
0000
0100
0010
0100
1000
,
0001
0001
0010
0010
0100
1000
0010
0200
,
0000
0310
1000
0002
0000
0013
0100
0002
,
0000
0000
0103
1000
0100
0000
1000
0000
0010
0000
0100
0000
1000
0000
0100
0000
,
0010
0000
1000
0000
0001
0000
0010
0000
0100
0000
0001
0000
0100
1000
0100
1000
,
0010
0010
0100
0010
1000
0001
1000
0200
,
0000
0000
0310
0000
0001
0000
2000
0000
0000
0000
3010
0000
0100
0010
1000
0001
,
0100
0000
0010
0000
1000
0000
0100
0000
0010
0001
1000
0100
0010
0000
0200
0000
,
0000
0000
0310
0000
0001
0000
1000
0000
0010
0000
0100
0000
0001
0010
0100
0010
,
0100
1000
0001
0100
1000
0100
0001
0020
,
0000
0000
0031
0000
1000
0000
0020
0000
0000
0000
0130
0000
0001
1000
0001
0000
,
0100
0100
0010
1000
0010
0001
0010
2000
,
0000
0000
3001
0000
0100
0000
2000
0000
0000
0000
3100
0000
0001
1000
0100
1000
,
0100
0000
0010
0000
0001
0000
1000
0000
2002
0000
0000
0000
3003
0000
0000
1000
,
0100
0000
0100
0010
0001
0100
0010
0001
0010
1000
0020
0000
0000
0000
1030
0001
,
0100
0000
0010
0100
0000
0100
0001
1000
0001
0000
0100
0010
0100
0000
0010
1000
,
0001
0000
1000
0100
0010
0000
0000
0001
1000
0000
0100
0000
0010
0001
0000
0001
,
1000
0000
0010
0000
0100
0000
0100
0000
0002
0000
0000
0000
1003
0010
1000
0000
,
0010
0000
0100
0000
0001
0010
0001
0010
0100
1000
0200
0000
0000
0000
1300
0001
,
1000
0000
0010
0100
0010
1000
0000
1000
0001
0000
0000
0100
0010
0000
0000
0010
,
1000
0000
0000
0000
0000
0000
0001
0000
0000
0100
0000
0000
0000
0000
0000
0100
0000
0000
0001
0000
0000
0000
0000
0000
1000
0000
0000
0000
0010
0000
0000
0000
0100
0000
0000
0000
0001
0000
0000
0000
0010
0000
0000
0000
0100
0000
0000
0000
,
1000
0001
0010
1000
0010
0001
0100
0000
0000
0101
0000
0000
,
0010
0000
1000
0100
1000
0001
0100
0001
0100
1000
0100
0010
0200
0000
0000
0000
,
0301
0000
1000
0100
0010
0001
1000
0100
0020
0000
0000
0000
0032
0000
0000
0000
,
0103
0001
1000
0100
1000
0010
0100
0001
0100
0010
1000
0000
1001
0000
0001
0100
,
0001
1000
0100
1000
0100
0010
0001
0010
0200
0000
0000
0000
2300
0000
0000
0000
,
3001
0000
1000
0010
0001
0010
1000
0100
1000
0001
0010
0001
1000
0000
1010
0000
,
0010
0000
0100
0000
0001
0100
0010
0100
2000
0000
0000
0000
3200
0000
0000
0000
,
0301
0000
0000
1000
0000
0000
0010
0000
0000
0001
0000
0000
1000
0000
0000
0100
0000
0000
0001
0000
0000
0000
0000
0000
2002
0000
0000
3003
0000
0000
2002
0000
0000
3003
0000
0000
0100
0000
0000
0000
0001
0000
0000
0000
1000
0000
0000
0000
,
0100
0000
0010
0000
0001
0000
1000
0000
0010
0000
0100
0000
0010
0000
0000
1000
0000
0000
0001
0000
0000
0000
0000
0000
,
1000
0010
0100
0000
0001
0010
0100
1000
,
0100
0010
0001
0000
1000
0010
0100
0000
,
0001
0010
0100
0000
1000
0010
0001
0010
,
1000
0100
0001
0100
1000
0010
0001
0000
,
1000
0100
0001
0000
1000
0100
0010
0000
,
0001
0010
0100
0000
1000
0001
0100
0000
,
0001
0010
0100
1000
0010
0100
1000
0100
,
0010
1000
0001
0000
1000
0001
1000
0001
,
1000
0001
2000
0002
0000
0000
3003
0000
;

//---------------dance-single - ----------------
#NOTEDATA:;
#CHARTNAME:;
#STEPSTYPE:dance-single;
#DESCRIPTION:;
#CHARTSTYLE:;
#DIFFICULTY:Medium;
#METER:12;
#RADARVALUES:0.708935,0.618931,0.071346,0.388442,0.007927,568.000000,9.000000,49.000000,0.000000,0.000000,0.000000,0.000000,0.000000,0.708935,0.618931,0.071346,0.388442,0.007927,568.000000,9.000000,49.000000,0.000000,0.000000,0.000000,0.000000,0.000000;
#CREDIT:;
#NOTES:
0000
0000
0000
0000
,
1000
0100
1000
0100
1000
0100
1000
0100
,
0010
0001
0010
0001
1000
0010
1000
0010
,
0100
0001
0100
0001
0010
0100
1000
0100
,
0010
0001
1000
0001
1000
0010
0100
0001
,
0100
0001
1000
0100
0010
0000
0100
0010
,
0001
0000
0010
0100
1000
0000
0010
0100
,
0001
0000
1000
0010
0100
0000
0001
1000
,
0010
0100
0001
1000
0100
0000
1000
0010
,
0100
0100
0010
0010
1000
0001
1000
0001
,
0010
0010
0100
0100
1000
0100
0010
0001
,
1000
1000
0001
0001
1000
0010
0100
0001
,
1000
1000
0010
0010
0100
0001
0100
0010
,
1000
1000
0001
0001
1000
0000
1100
0000
,
0001
0000
0101
0000
1000
0010
0100
0000
,
0001
0020
0000
0130
1000
0200
0000
0310
,
0000
0001
1000
2002
0000
0000
0000
3003
,
0100
0010
0100
0002
0000
1003
0010
2000
,
0000
3001
0100
0001
0010
0010
0100
1000
,
0001
1000
0100
0010
0100
1000
0001
0100
,
0001
0001
0100
0010
1000
0010
0100
0100
,
0001
1000
0001
2000
0000
3010
0100
0002
,
0000
0013
0100
2000
0000
3010
0010
1000
,
0010
0100
1000
0100
0010
1000
0001
0010
,
0100
0001
0100
1000
0100
0010
0001
1000
,
0001
0000
2002
3003
1000
0010
0100
0001
,
1000
0010
0200
0000
0301
1000
0010
1000
,
0002
0000
0013
0100
1000
0010
0100
0001
,
1000
0010
1010
0000
0100
0001
0101
0000
,
0020
0000
0230
0000
0301
0010
0001
1000
,
0100
1000
0010
0010
0100
0001
1000
1000
,
0020
0000
0230
0000
0301
0010
0100
0010
,
0000
0100
1000
0100
0010
0000
0001
1000
,
0010
0000
1000
0010
0100
0000
0001
0100
,
0010
0000
1000
0001
0100
0000
0001
1000
,
0100
0000
1000
0010
1000
0000
0001
0010
,
0001
0000
0010
0100
1000
0000
0010
0100
,
0001
0000
1000
0010
0010
0000
0100
0001
,
0001
0000
1000
0100
0100
0000
0010
0001
,
1000
0000
0010
1000
0001
0000
0100
0001
,
0100
0010
0010
1000
1000
0001
0100
0010
,
0100
0000
0001
0001
1000
1000
1002
0103
,
0100
0000
0010
0000
0010
0000
1000
0000
1000
0000
0001
0100
0001
0100
0010
0000
,
0100
0001
0010
0100
1000
0010
0100
0010
,
1000
0001
0100
0001
0010
0100
2000
0000
,
3002
0000
0203
0000
0310
0100
0010
2000
,
0000
3001
0100
0002
0000
1003
0010
1000
,
0100
0100
0010
0001
1000
0001
0010
0100
,
0010
0001
1000
0010
1000
1000
0010
0100
,
0001
0100
0010
0010
1000
0001
1000
0002
,
0000
0103
0010
2000
0000
3100
0010
0002
,
0000
0103
0100
0001
0100
0010
0001
0010
,
0100
0001
1000
0100
0010
1000
0010
0001
,
0010
0100
1000
0001
0100
0100
0001
2000
,
0000
3010
1000
0002
0000
0013
0100
1000
,
0100
0010
0001
1000
0010
1000
0001
0200
,
0000
0310
1000
0010
0100
0001
1000
0010
,
0010
0100
0001
0100
0010
1000
0001
0200
,
0000
0301
1000
0002
0000
1003
0001
0010
,
0100
0100
1000
0001
0100
0001
0010
0200
,
0000
1300
0001
0200
0000
0310
1000
0001
,
0001
0010
0100
1000
1002
0000
0000
0000
,
0103
0010
0000
0100
0001
2000
0000
3001
,
0100
0000
0010
1000
0001
0000
0100
0010
,
0000
1000
0010
0000
1000
0000
0001
0000
,
0100
0000
0010
0100
0000
0002
0000
1003
,
0010
0100
0000
0001
0100
0002
0000
1003
,
0010
1000
0000
0001
0100
0001
0000
0000
,
1000
0001
0000
0001
1000
0000
0001
0000
,
1002
0200
0000
0000
,
0303
1000
0010
1000
0001
0100
0002
0000
,
0103
0010
1000
0001
0020
0000
0230
0000
,
1300
0001
1000
0010
0100
0010
1000
1000
,
0001
0100
0001
0010
0200
0000
2300
0000
,
3001
0010
0001
1000
0000
0010
1000
0001
,
0100
0001
0010
0100
2000
0000
3002
0000
,
0103
0010
0100
0001
1000
0010
0200
0000
,
0000
0000
0000
0000
0301
1000
0010
0000
,
0100
0001
1000
0000
0010
0100
0010
1000
,
0001
1000
0100
0000
0010
0001
0010
0000
,
0100
1000
0100
0000
1000
0001
0100
0001
,
0100
0010
1000
0010
0100
0001
0010
0000
,
0100
1000
0010
0000
0100
0001
0010
0000
,
0100
1000
0001
0000
0100
0001
1000
0000
,
0001
0010
0001
1000
0100
1000
0010
0100
,
0001
0100
0010
0000
0100
0010
1000
0010
,
0100
0001
0200
0020
0000
0000
0330
0000
;

//---------------dance-single - ----------------
#NOTEDATA:;
#CHARTNAME:;
#STEPSTYPE:dance-single;
#DESCRIPTION:;
#CHARTSTYLE:;
#DIFFICULTY:Easy;
#METER:5;
#RADARVALUES:0.472246,0.515776,0.031710,0.420151,0.000000,360.000000,4.000000,53.000000,0.000000,0.000000,0.000000,0.000000,0.000000,0.472246,0.515776,0.031710,0.420151,0.000000,360.000000,4.000000,53.000000,0.000000,0.000000,0.000000,0.000000,0.000000;
#CREDIT:;
#NOTES:
0000
0000
0000
0000
,
1000
0001
1000
0001
,
0100
0010
1000
0010
,
0100
0001
0010
0001
,
0010
0001
1000
0100
,
1000
0000
0000
1000
0010
0000
0000
0010
,
0100
0000
0000
0100
0001
0000
0000
0001
,
0010
0000
0000
0010
0100
0000
0000
0100
,
1000
0001
0100
0001
,
1000
0010
1000
0000
0001
0000
0100
0000
,
0010
1000
0010
0000
0100
0000
0001
0000
,
1000
0010
1000
0000
0001
0000
0010
0000
,
0100
1000
0100
0000
0010
0000
0001
0000
,
1000
0010
0200
0000
0310
0000
0110
0000
,
0100
0101
0001
1001
,
1000
0020
0000
2030
0000
3002
0000
0203
,
0000
0000
0000
0320
0000
0000
0000
0000
,
1030
0000
1000
0002
0000
0003
1000
0020
,
0000
0130
0001
0100
,
0010
1000
0100
0010
,
0001
0010
0100
1000
,
0001
0000
0100
0020
0000
0030
1000
0002
,
0000
0003
1000
0200
0000
0300
0010
0000
,
0001
0010
0001
1000
,
0010
1000
0001
0100
,
0010
0000
0200
0000
0300
0001
1000
0000
,
0010
0200
0301
1000
,
0002
0000
0013
0000
0000
0010
0100
0000
,
1000
0010
1000
0000
0000
0001
0100
0000
,
0020
0000
0230
0000
0300
0001
1000
0000
,
0100
0000
0010
0001
0010
0000
0100
0000
,
2000
0000
3002
0000
0003
0100
0020
0000
,
0030
1000
0002
0000
0103
0000
0100
0000
,
0010
0000
1000
0010
1000
0000
0001
0100
,
0001
0000
1000
0001
1000
0000
0001
1000
,
0001
0000
1000
0100
1000
0000
0001
0010
,
0001
0000
0010
0100
0010
0000
0100
1000
,
0100
0000
0010
0001
0010
0000
0001
1000
,
0001
0000
1000
0001
1000
0000
0010
0100
,
0010
0000
0100
0001
0100
0000
0010
1000
,
0010
0200
0000
0302
0000
2003
0000
3020
,
0000
0030
0100
0000
0100
0000
1001
0010
,
0000
0010
0000
0010
0000
0200
0000
0310
,
1000
0001
1000
0010
,
0100
0001
0010
0200
,
2300
0000
0000
0000
3001
0000
0001
2000
,
0000
3000
0001
0200
0000
0000
0310
0000
,
1000
0010
0100
0001
,
0010
0100
1000
0100
,
0010
0000
0001
0000
1000
0000
0010
0200
,
0000
0300
0001
2000
0000
3000
0001
0020
,
0000
0030
0100
0000
1000
0000
0100
0000
,
1000
0001
0100
0001
,
1000
0001
1000
0000
0010
0000
0100
0002
,
0000
0003
1000
0020
0000
0030
0100
0000
,
0010
0000
1000
0000
0010
0000
1000
0200
,
0000
0300
1000
0000
0010
0000
1000
0000
,
0010
0000
0100
0000
0010
0000
1000
0002
,
0000
0003
0100
0002
0000
0003
0010
0000
,
0100
0000
1000
0000
0100
0000
0010
0002
,
0000
0003
1000
0200
0000
0300
0010
0000
,
0001
1000
0002
0000
,
0103
0010
0000
0100
0001
2000
0000
3001
,
0100
0010
1000
0100
,
0010
0010
0001
0100
,
0100
0000
0010
0000
0000
0002
0000
1003
,
0000
0100
0000
0001
0000
0002
0000
1003
,
0000
1000
0000
0001
0100
0000
0000
0000
,
1000
0001
0000
0000
0100
0000
0010
0000
,
0002
2000
0000
0000
,
3003
1000
0001
0002
,
0103
1000
0020
0230
,
1300
0010
0100
0010
,
1000
0001
0200
0320
,
1030
0000
0001
0000
0000
0010
1000
0000
,
0001
0100
0020
1030
,
0000
0001
0100
0000
0100
0000
0020
0000
,
0000
0000
1030
0001
,
0100
0001
1000
0010
,
1000
0001
0010
0001
,
1000
0100
1000
0010
,
0100
0010
1000
0001
,
1000
0001
0100
0001
,
1000
0100
1000
0010
,
0100
0010
1000
0001
,
0010
0000
0100
0000
1000
0001
1000
0001
,
1000
0001
0200
0000
0000
0000
0300
0000
;

//---------------dance-single - ----------------
#NOTEDATA:;
#CHARTNAME:;
#STEPSTYPE:dance-single;
#DESCRIPTION:;
#CHARTSTYLE:;
#DIFFICULTY:Beginner;
#METER:3;
#RADARVALUES:0.266134,0.447005,0.000000,0.348805,0.000000,191.000000,0.000000,44.000000,0.000000,0.000000,0.000000,0.000000,0.000000,0.266134,0.447005,0.000000,0.348805,0.000000,191.000000,0.000000,44.000000,0.000000,0.000000,0.000000,0.000000,0.000000;
#CREDIT:;
#NOTES:
// measure 0
0000
0000
0000
0000
,  // measure 1
0001
0000
0001
0000
,  // measure 2
0010
0000
0001
0000
,  // measure 3
0010
0000
0100
0000
,  // measure 4
0100
0000
0001
0000
,  // measure 5
1000
0000
0000
0001
0000
0000
0000
0100
,  // measure 6
0000
0000
0000
0010
0000
0000
0000
1000
,  // measure 7
0000
0000
0000
0100
0000
0000
0000
0010
,  // measure 8
0000
1000
0010
1000
,  // measure 9
0001
0000
1000
0000
,  // measure 10
0100
0000
0010
0000
,  // measure 11
0001
0000
1000
0000
,  // measure 12
0010
0000
0100
0000
,  // measure 13
0001
0000
0200
0300
,  // measure 14
0020
0030
2000
3000
,  // measure 15
0000
0001
0000
0001
0000
1000
0000
1000
,  // measure 16
0000
0010
0000
0200
0000
0000
0000
0000
,  // measure 17
0301
0000
0000
2000
0000
3000
0000
0200
,  // measure 18
0000
0310
0000
0010
,  // measure 19
0000
0001
0000
0100
,  // measure 20
0000
0100
0000
0001
,  // measure 21
0000
0000
0000
0200
0000
0300
0000
2000
,  // measure 22
0000
3000
0000
0020
0000
0030
0100
0000
,  // measure 23
0000
0100
0000
0001
,  // measure 24
0000
0001
0000
0010
,  // measure 25
0000
0000
0020
0000
0030
1000
0001
0000
,  // measure 26
0000
0010
0000
0001
,  // measure 27
0000
0100
0000
0010
,  // measure 28
0000
0000
0001
0000
0000
1000
0000
0000
,  // measure 29
0200
0300
0000
0001
,  // measure 30
0000
0100
0000
0010
,  // measure 31
0000
2000
3000
0020
,  // measure 32
0030
2000
3010
0000
,  // measure 33
0100
0000
0001
0000
,  // measure 34
1000
0000
0001
0000
,  // measure 35
1000
0000
0001
0000
,  // measure 36
1000
0000
0100
0000
,  // measure 37
0010
0000
0100
0000
,  // measure 38
1000
0000
0001
0000
,  // measure 39
0100
0000
0010
0000
,  // measure 40
0000
0002
0000
2003
0000
3002
0000
0203
,  // measure 41
0000
0300
0010
0000
0010
0000
0200
0310
,  // measure 42
0000
0010
0000
0010
0000
0200
0000
0301
,  // measure 43
1000
1000
0001
0001
,  // measure 44
0100
0100
0010
0010
,  // measure 45
0200
0000
0000
0000
1300
0000
0000
0002
,  // measure 46
0000
0003
0000
0020
0000
0000
0130
0000
,  // measure 47
0000
0100
0000
1000
,  // measure 48
0000
0010
0000
0010
,  // measure 49
0000
0000
1000
0000
0000
0000
0000
0020
,  // measure 50
0000
0030
0000
0002
0000
0003
0000
0200
,  // measure 51
0000
0300
0010
0000
0000
0000
0010
0000
,  // measure 52
0000
1000
0000
1000
,  // measure 53
0000
0000
0001
0000
0000
0000
0000
2000
,  // measure 54
0000
3000
0000
0200
0000
0300
0010
0000
,  // measure 55
0000
0000
0001
0000
0000
0000
0000
0020
,  // measure 56
0000
0030
0001
0000
0000
0000
0001
0000
,  // measure 57
0000
0000
0010
0000
0000
0000
0000
2000
,  // measure 58
0000
3000
0000
2000
0000
3000
0100
0000
,  // measure 59
0000
0000
0001
0000
0100
0000
0000
2000
,  // measure 60
0000
3000
0000
0020
0000
0030
0100
0000
,  // measure 61
0000
0001
2000
0000
,  // measure 62
3010
0000
0000
0000
0000
0002
0000
0003
,  // measure 63
0010
0000
0001
0000
,  // measure 64
0100
0000
1000
0000
,  // measure 65
0010
0000
0000
0000
0000
2000
0000
3001
,  // measure 66
0000
0000
0000
1000
0000
2000
0000
3001
,  // measure 67
0000
0000
0000
1000
0000
0000
0000
0000
,  // measure 68
0001
0000
0010
0000
,  // measure 69
2000
0000
0000
0000
,  // measure 70
3000
0001
0000
2000
,  // measure 71
3000
0001
0000
0020
,  // measure 72
0030
0100
0000
0100
,  // measure 73
0000
1000
0020
0030
,  // measure 74
0001
0000
0000
0001
,  // measure 75
1000
0000
0200
0301
,  // measure 76
0000
0010
0010
0200
,  // measure 77
0000
0000
0301
0000
,  // measure 78
0010
0000
0100
0000
,  // measure 79
0001
0000
0100
0000
,  // measure 80
1000
0000
0001
0000
,  // measure 81
0100
0000
0001
0000
,  // measure 82
1000
0000
0010
0000
,  // measure 83
1000
0000
0001
0000
,  // measure 84
0010
0000
0001
0000
,  // measure 85
0100
0000
0001
0000
,  // measure 86
1000
0020
0000
0030
;
