#VERSION:0.83;
#TITLE:真夏の海の修道女;
#SUBTITLE:;
#ARTIST:bermei.inazawa;
#TITLETRANSLIT:Manatsu no umi no shuudoujo;
#SUBTITLETRANSLIT:;
#ARTISTTRANSLIT:;
#GENRE:;
#ORIGIN:;
#CREDIT:;
#BANNER:;
#BACKGROUND:;
#PREVIEWVID:;
#JACKET:Manatsu no umi no shuudoujo-jacket.png;
#CDIMAGE:;
#DISCIMAGE:;
#LYRICSPATH:;
#CDTITLE:;
#MUSIC:Manatsu no umi no shuudoujo.mp3;
#OFFSET:-0.180000;
#SAMPLESTART:41.340031;
#SAMPLELENGTH:12.000000;
#SELECTABLE:YES;
#BPMS:0.000=145.010;
#STOPS:;
#DELAYS:;
#WARPS:;
#TIMESIGNATURES:0.000=4=4;
#TICKCOUNTS:0.000=4;
#COMBOS:0.000=1;
#SPEEDS:0.000=1.000=0.000=0;
#SCROLLS:0.000=1.000;
#FAKES:;
#LABELS:0.000=Song Start;
#BGCHANGES:;
#KEYSOUNDS:;
#ATTACKS:
;

//---------------dance-single - ----------------
#NOTEDATA:;
#CHARTNAME:;
#STEPSTYPE:dance-single;
#DESCRIPTION:;
#CHARTSTYLE:;
#DIFFICULTY:Hard;
#METER:16;
#RADARVALUES:0.768217,0.956632,0.557968,0.840995,0.893557,665.000000,596.000000,69.000000,104.000000,0.000000,0.000000,0.000000,0.000000,0.000000,0.768217,0.956632,0.557968,0.840995,0.893557,665.000000,596.000000,69.000000,104.000000,0.000000,0.000000,0.000000,0.000000,0.000000;
#CREDIT:;
#NOTES:
0000
0000
0000
0000
,
0000
0000
0000
0000
,
0000
0000
0000
0000
,
0000
0000
0000
0000
,
0000
0000
0000
0000
,
1001
0000
0000
0000
2000
0000
0000
3002
0100
0000
0000
0000
0103
0000
0000
0000
,
0101
0000
0000
0000
0002
0000
0000
2003
0010
0000
0000
0000
3010
0000
0000
0000
,
1010
0000
0000
0000
2000
0000
0000
3002
0100
0000
0000
0000
0103
0000
0010
0000
,
1010
0100
0101
0010
1001
0100
0101
0110
,
1001
0000
0000
0000
0002
0000
0000
0020
0000
0003
0130
0000
1100
0000
0000
0000
,
2000
0000
0000
0000
3020
0000
0000
0230
0000
0000
0301
0000
0001
0000
2000
0000
,
3002
0000
0000
0000
0023
0000
0000
0230
0000
0000
1300
0000
1001
0000
0001
0000
,
1000
0010
0100
0001
0010
0100
1000
0010
0100
0001
0010
0100
1000
0010
0100
0001
,
0010
0000
0100
0000
2000
0000
0000
3200
0000
0000
0310
0000
0011
0000
0002
0000
,
2003
0000
0000
0000
3200
0000
0000
0320
0000
0000
0030
0000
0011
0000
0002
2000
,
0000
0000
3003
0000
1010
0000
0020
0200
0000
0000
0330
0000
0101
0000
0002
0020
,
0000
0000
0033
0000
0110
0000
0200
2000
0000
3300
0001
0000
1001
0000
0000
0000
,
0001
0010
0100
1000
0001
0010
0001
0010
0000
0011
0000
0001
0100
0000
1100
0000
,
0110
0000
0010
0000
1000
0001
1000
0001
0000
0011
0000
0010
0100
0000
0110
0000
,
1100
0000
1000
0000
0010
1000
0010
1000
0000
1001
0000
0001
0010
0000
0110
0000
,
0011
0000
0110
0000
0100
0010
0100
0010
0000
0011
0000
0001
1000
0000
0110
0000
,
1001
0000
0001
0000
1000
0100
1000
0100
0000
1100
0000
1000
0010
0000
1010
0000
,
0110
0000
0100
0000
0001
1000
0001
1000
0000
1100
0000
0100
0010
0000
0110
0000
,
0011
0000
0001
0000
0100
0001
0100
0001
0000
1001
0000
1000
0100
0000
0010
0000
,
1001
1010
0101
0011
0110
2002
0000
3003
,
0001
0000
1000
0100
0010
0100
1000
0010
0100
1000
0100
0001
0010
0100
2000
0000
,
0000
0000
3100
0010
0002
0000
0000
0000
0103
0010
0002
0000
0000
0000
0000
0000
,
0000
0000
0013
0100
0001
0010
0100
0001
0100
0010
0002
0000
0000
0000
2003
0000
,
0000
0000
3001
0010
0100
0001
0100
0010
0001
0100
0010
0001
0020
0000
0000
0000
,
0030
0000
1000
0100
0010
0100
1000
0010
0100
1000
0100
0001
0010
0100
2000
0000
,
0000
0000
3100
0010
0002
0000
0000
0000
0103
0010
0001
0000
0010
0000
1000
0000
,
0002
0000
0000
0000
0023
0000
0000
0000
0230
0000
0000
0000
0000
0000
1300
0100
,
0020
0000
0002
0030
2000
0000
0000
3003
,
1001
0000
0001
0010
0100
0010
0001
0100
0010
0001
0010
1000
0100
0010
0002
0000
,
0000
0000
0013
0100
2000
0000
0000
0000
3010
0100
2000
0000
0000
0000
0000
0000
,
0000
0000
3100
0010
1000
0100
0010
1000
0010
0100
2000
0000
0000
0000
3002
0000
,
0000
0000
1003
0100
0010
1000
0010
0100
1000
0010
0100
1000
0200
0000
0001
0000
,
0300
0000
0001
0010
0100
0010
0001
0100
0010
0001
0010
1000
0100
0010
0002
0000
,
0000
0000
0013
0100
2000
0000
0000
0000
3010
0100
1000
0000
0100
0000
0001
0000
,
2000
0000
0000
0000
3200
0000
0000
0000
0320
0000
0000
0000
0000
0000
0031
0010
,
0200
0000
0320
0000
0002
0030
2000
3003
,
2002
0003
3020
0230
0020
0300
2030
0000
,
3001
0000
0000
0011
0000
0000
0001
0000
0000
1001
0000
0000
0001
0000
0000
0101
,
0000
0000
0001
0000
0000
1001
0000
0000
0001
0000
0000
0011
0000
0000
0001
0010
,
0100
0000
0000
1010
0000
0000
1000
0000
0000
1001
0000
0000
1000
0000
0000
1100
,
0000
0000
1000
0000
0000
1001
0000
0000
1000
0000
0000
1010
0000
0000
1000
0010
,
0100
0000
0000
0101
0000
0000
0100
0000
0000
0110
0000
0000
0100
0000
0000
1100
,
0000
0000
0100
0000
0000
0110
0000
0000
0100
0000
0000
0101
0000
0000
0001
1000
,
0010
0000
0000
0011
0000
0000
0010
0000
0000
0110
0000
0000
0010
0000
0000
1010
,
0000
0000
1000
0000
0001
0000
0200
0000
0020
0000
0330
0000
1000
0001
1000
0001
,
0100
0000
0001
0010
0100
0010
0001
0100
0010
0001
0010
1000
0100
0010
0002
0000
,
0000
0000
0013
0100
2000
0000
0000
0000
3010
0100
2000
0000
0000
0000
0000
0000
,
0000
0000
3100
0010
1000
0100
0000
0110
0000
0010
0001
0000
1001
0000
0200
0000
,
0000
0000
0310
1000
0010
0100
0000
0101
0000
0001
0010
0000
0110
0000
0100
1000
,
0001
0000
1000
0100
0010
0100
1000
0010
0100
1000
0100
0001
0010
0100
2000
0000
,
0000
0000
3100
0010
0002
0000
0000
0000
0103
0010
0002
0000
0000
0000
0000
0000
,
0000
0000
0013
0100
0001
0010
0000
0110
0000
0100
1000
0000
1001
0000
0020
0000
,
0000
0000
0000
0000
0000
0000
0130
0000
0000
0001
0000
0000
0010
0000
0100
0000
1000
0000
0001
0000
0000
0100
0000
0000
0010
0000
0000
1000
0000
0000
0100
0000
0010
0000
0001
0000
0100
0000
0000
0001
0000
0000
1000
0000
0010
0000
0100
0000
,
0001
0000
1000
0010
0100
1000
0001
0010
0100
0001
0010
0100
0001
0100
0020
0000
,
0000
0000
0130
1000
0020
0000
0000
0000
0130
0010
2000
0000
0000
0000
0000
0000
,
0000
0000
3001
0010
0100
0001
0100
0010
0001
0100
0020
0000
0000
0000
2030
0000
,
0000
0000
3001
0010
0100
0001
0100
0010
0001
0100
0010
0001
0020
0000
1000
0000
,
0000
0000
1030
0010
0100
1000
0100
0010
1000
0100
0010
1000
0010
0100
2000
0000
,
0000
0000
3001
0100
0020
0000
0000
0000
0130
0001
0010
0000
0001
0000
1000
0000
,
0200
0000
0000
0000
2300
0000
0000
0000
3002
0000
0000
0000
0000
0000
1003
0010
,
0200
0000
0002
0300
2000
0003
0001
3000
,
0001
0000
0000
0000
0010
0000
0000
0000
0100
0000
0000
0000
1000
0000
0000
0000
0010
0000
0000
0000
0100
0000
0000
0000
0001
0000
0000
0000
0010
0000
0000
0000
0100
0000
0000
0000
1000
0000
0000
0001
0000
0000
0020
0000
0000
0000
0000
0000
,
0000
0000
0031
1000
0200
0000
0000
0000
1300
0001
0010
0000
0001
1000
0100
1000
,
0001
0000
0010
0100
1000
0001
0010
0100
0010
0001
0200
0000
0010
0000
0302
0000
,
0100
0000
1003
0010
0001
0010
0100
1000
0100
0001
0010
0100
2000
0000
0001
0000
,
3100
0000
1000
0100
0010
0001
0010
1000
0001
0100
0010
0001
0010
0100
2000
0000
,
0001
0000
3100
1000
0020
0000
1000
0000
0130
0001
0010
0000
0100
0000
2000
0000
,
0002
0000
3000
0000
0020
0000
0003
0000
0200
0000
0000
0000
0030
0000
1300
0001
,
0200
0000
0000
0000
0002
0000
0300
0000
2000
0000
0003
0000
3001
0010
0100
1000
;

//---------------dance-single - ----------------
#NOTEDATA:;
#CHARTNAME:;
#STEPSTYPE:dance-single;
#DESCRIPTION:;
#CHARTSTYLE:;
#DIFFICULTY:Medium;
#METER:12;
#RADARVALUES:0.462085,0.568480,0.080865,0.719698,0.258768,400.000000,390.000000,10.000000,89.000000,0.000000,0.000000,0.000000,0.000000,0.000000,0.462085,0.568480,0.080865,0.719698,0.258768,400.000000,390.000000,10.000000,89.000000,0.000000,0.000000,0.000000,0.000000,0.000000;
#CREDIT:;
#NOTES:
0000
0000
0000
0000
,
0000
0000
0000
0000
,
0000
0000
0000
0000
,
0000
0000
0000
0000
,
0000
0000
0000
0000
,
1000
0000
0000
0000
0001
0000
0000
0002
0000
0000
0000
0000
0000
0000
0000
0000
,
0013
0000
0000
0000
0100
0000
0000
0200
0000
0000
0000
0000
0000
0000
0000
0000
,
1300
0000
0000
0000
0001
0000
0000
0002
0000
0000
0000
0000
0000
0000
0000
0000
,
1003
1000
0001
0001
0101
0101
0110
0110
,
1001
0000
0000
0000
2000
0000
0000
3002
0000
0000
0100
0000
0103
0000
0000
0000
,
0010
0000
0000
0000
1000
0000
0000
0002
0000
0000
0000
0000
0103
0000
0010
0000
,
2000
0000
0000
0000
3002
0000
0000
0203
0000
0000
0300
0000
0010
0000
0000
0000
,
1000
0010
0100
0001
0010
0100
1000
0010
,
0100
0000
0000
0000
0020
0000
0000
2030
0000
0000
3000
0000
0100
0000
0020
0000
,
0032
0000
0000
0000
2003
0000
0000
3020
0000
0000
0030
0000
0000
0000
0100
0002
,
0000
0000
0000
0000
0000
0000
1003
0020
0000
0000
0000
0000
0000
0000
0130
0002
,
0000
0000
0000
0000
0000
0000
1003
0200
0000
0000
0300
0000
1001
0000
0000
0000
,
0001
0000
1000
0000
0001
0010
0000
0100
0000
1000
0000
0001
1000
0000
0100
0000
,
0010
0000
0000
0000
0001
1000
0000
0010
0000
0100
0000
0001
1000
0000
0010
0000
,
0100
0000
0000
0000
0010
1000
0000
0001
0000
1000
0000
0100
0010
0000
0100
0000
,
1000
0000
1001
0000
0100
0010
0000
0100
0000
0001
0000
0010
0100
0000
1000
0000
,
0001
0000
0000
0000
1000
0010
0000
0100
0000
0001
0000
1000
0010
0000
1000
0000
,
0010
0000
0000
0000
1000
0001
0000
0010
0000
0100
0000
1000
0001
0000
0100
0000
,
0010
0000
0000
0000
1000
0010
0000
1000
0000
0100
0000
0010
0001
0000
0100
0000
,
0010
1000
0001
0100
0001
2002
0000
3003
,
0001
0010
0100
1000
0001
0100
0001
0020
,
0000
0130
2000
0000
3010
0200
0000
0000
,
0000
0301
1000
0010
1000
0002
0000
0203
,
0000
0310
1000
0100
0010
0001
0200
0000
,
0000
0310
1000
0001
0010
0001
0010
0200
,
0000
1300
0020
0000
0130
0001
0010
0100
,
2000
0000
3002
0000
0203
0000
0000
0310
,
2000
0000
3002
0000
2000
0000
0000
3003
,
1000
0100
0010
0001
1000
0010
1000
0200
,
0000
0310
0002
0000
0103
0020
0000
0000
,
0000
1030
0001
0100
0001
2000
0000
3020
,
0000
0130
0001
0010
0100
1000
0020
0100
,
0000
0130
0001
1000
0100
1000
0100
0020
,
0000
0031
0200
0000
0310
1000
0100
0010
,
0002
0000
2003
0000
3020
0000
0000
0130
,
0002
0000
2003
0000
0002
0000
0000
3003
,
0220
0000
0000
0000
0000
0000
0000
0330
,
0001
0000
0000
0001
0000
0000
0010
0000
0000
0010
0000
0000
0100
0000
0000
0100
,
0000
0000
1000
0000
0000
1000
0000
0000
0010
0000
0000
0010
0000
0000
0100
0010
,
0100
0000
0000
0100
0000
0000
0010
0000
0000
0010
0000
0000
1000
0000
0000
1000
,
0000
0000
0001
0000
0000
0001
0000
0000
0100
0000
0000
0100
0000
0000
0001
1000
,
0001
0000
0000
0001
0000
0000
0010
0000
0000
0010
0000
0000
0100
0000
0000
0100
,
0000
0000
1000
0000
0000
1000
0000
0000
0001
0000
0000
0001
0000
0000
1000
0100
,
1000
0000
0000
1000
0000
0000
0010
0000
0000
0010
0000
0000
0100
0000
0000
0100
,
0000
0001
0100
0020
0000
0000
1030
0000
,
1000
0100
0010
0001
1000
0010
1000
0200
,
0000
0310
0002
0000
0103
0020
0000
0000
,
0000
0000
1030
0000
0001
0000
0000
0100
0000
0000
0010
0000
1000
0000
0020
0000
,
0000
0000
0130
0000
0001
0000
0000
0010
0000
0000
0001
0000
1000
0000
0100
0000
,
0100
0010
0001
1000
0100
1000
0100
0020
,
0000
0031
0200
0000
0310
2000
0000
0000
,
3000
0000
0001
0000
1000
0000
0000
0100
0000
0000
0010
0000
0001
0000
0100
0000
,
0000
0010
1000
0001
0100
0010
0100
0100
,
0001
0010
0100
1000
0001
0100
0001
0020
,
0000
0130
2000
0000
3010
0200
0000
0000
,
0000
0301
1000
0010
1000
0002
0000
0203
,
0000
0310
1000
0100
0010
0001
0200
0010
,
0000
0310
1000
0001
0010
0001
0010
0200
,
0000
1300
0020
0000
0130
0001
0010
0100
,
2000
0000
3002
0000
0203
0000
0000
0310
,
2000
0000
3002
0000
2000
0000
0000
3003
,
0220
0000
0000
0000
0000
0330
0100
0002
,
0000
0013
0200
0000
1300
0020
0000
0000
,
0000
1030
0001
0100
0010
2000
0000
3002
,
0000
0013
0100
1000
0100
0010
0002
0100
,
0000
0103
0010
1000
0100
0010
0001
0200
,
0000
0310
2000
0000
3001
0100
0010
0100
,
2000
0000
3200
0000
0302
0000
0000
0013
,
0200
2300
0002
0000
,
3003
0000
0000
0000
;

//---------------dance-single - ----------------
#NOTEDATA:;
#CHARTNAME:;
#STEPSTYPE:dance-single;
#DESCRIPTION:;
#CHARTSTYLE:;
#DIFFICULTY:Easy;
#METER:4;
#RADARVALUES:0.249526,0.418880,0.056605,0.606487,0.000000,216.000000,209.000000,7.000000,75.000000,0.000000,0.000000,0.000000,0.000000,0.000000,0.249526,0.418880,0.056605,0.606487,0.000000,216.000000,209.000000,7.000000,75.000000,0.000000,0.000000,0.000000,0.000000,0.000000;
#CREDIT:;
#NOTES:
0000
0000
0000
0000
,
0000
0000
0000
0000
,
0000
0000
0000
0000
,
0000
0000
0000
0000
,
0000
0000
0000
0000
,
0000
0000
0000
0000
,
0000
0000
0000
0000
,
0000
0000
0000
0000
,
0001
0001
1000
1000
0010
0010
0100
0100
,
0010
1000
0001
0011
,
1000
0001
1000
0110
,
0001
1000
0010
0110
,
0020
2030
3002
2003
,
3001
1000
0100
1100
,
1000
0001
0100
0110
,
0010
0100
0000
0100
,
0001
1000
0001
1001
,
0110
0000
0200
0000
0000
0000
0000
0010
,
0310
0000
2000
0000
0000
0000
0000
0001
,
3001
0000
0020
0000
0000
0000
0000
0100
,
0130
0100
2000
0000
0000
0000
0000
0001
,
3001
0000
0002
0000
0000
0000
0000
1000
,
1003
0000
0200
0000
0000
0000
0000
0010
,
0310
0000
2000
0000
0000
0000
0000
0001
,
3001
0100
0100
0010
0010
2000
0000
0000
,
3001
0000
0000
0000
1000
0000
0000
0200
,
0000
0300
0002
0000
0103
0000
0100
0000
,
0000
0000
0000
0000
0001
0000
0000
0020
,
0000
0030
0000
0000
0100
0000
0020
0000
,
0000
0030
0000
0000
0100
0000
0000
0020
,
0000
0030
0200
0000
0301
0000
1000
0000
,
0002
2003
3020
0000
,
0230
0320
2030
0000
,
3001
0000
0100
0000
0001
0000
0000
0020
,
0000
0030
0200
0000
0300
2000
0000
0000
,
3000
0000
1000
0000
1000
0002
0000
0203
,
0000
0300
0010
0000
0010
0000
0200
0000
,
0000
0300
0001
0000
1000
0000
0010
0200
,
0000
0300
0020
0000
0030
1000
0000
0000
,
2000
3002
0203
0000
,
2300
3002
2003
0000
,
3020
0000
0000
0000
0000
0000
0000
0030
,
1000
0000
0000
0001
0000
0000
0100
0000
,
0000
0010
0000
0000
1000
0000
0000
0001
,
0001
0000
0000
0010
0000
0000
0100
0000
,
0000
1000
0000
0000
0001
0000
0000
0100
,
0100
0000
0000
0010
0000
0000
1000
0000
,
0000
0100
0000
0000
1000
0000
0000
0100
,
0100
0000
0000
0010
0000
0000
0001
0000
,
0000
0010
0000
0200
0000
0000
1300
0000
,
0001
0000
0001
0000
1000
0000
0000
0200
,
0000
0300
0002
0000
0103
0000
0100
0000
,
0000
0010
0000
0000
0001
0000
0000
0020
,
0000
0030
0000
0000
0100
0000
0020
0000
,
0000
0030
0100
0000
0100
0000
0000
0020
,
0000
0030
0200
0000
0301
0000
0100
0000
,
0000
0001
0000
1000
0000
0001
0000
0200
,
0000
0320
0000
0000
,
0130
0000
0100
0000
0001
0000
0000
0020
,
0000
0030
0200
0000
0300
2000
0000
0000
,
3000
0000
1000
0000
1000
0002
0000
0203
,
0000
0300
0010
0000
0010
0000
0200
0000
,
0000
0300
0001
0000
1000
0000
0010
0200
,
0000
0300
0020
0000
0030
1000
0000
0000
,
2000
3002
0203
0000
,
2300
3002
2003
0000
,
3020
0000
0000
0000
0000
0000
0000
0030
,
0100
0000
0020
0000
0030
0200
0000
0000
,
0000
0300
1000
0000
0001
0002
0000
2003
,
0000
3000
0001
0000
1000
0000
0002
0000
,
0003
0000
0100
0000
0010
0000
1000
0020
,
0000
0030
0002
0000
0003
0000
1000
0000
,
0002
0000
0023
0000
0230
0000
0000
0300
,
1000
0002
2000
0000
,
3003
0000
0000
0000
;

//---------------dance-single - ----------------
#NOTEDATA:;
#CHARTNAME:;
#STEPSTYPE:dance-single;
#DESCRIPTION:;
#CHARTSTYLE:;
#DIFFICULTY:Beginner;
#METER:2;
#RADARVALUES:0.155954,0.209440,0.008086,0.420498,0.000000,135.000000,134.000000,1.000000,52.000000,0.000000,0.000000,0.000000,0.000000,0.000000,0.155954,0.209440,0.008086,0.420498,0.000000,135.000000,134.000000,1.000000,52.000000,0.000000,0.000000,0.000000,0.000000,0.000000;
#CREDIT:;
#NOTES:
// measure 0
0000
0000
0000
0000
,  // measure 1
0000
0000
0000
0000
,  // measure 2
0000
0000
0000
0000
,  // measure 3
0000
0000
0000
0000
,  // measure 4
0000
0000
0000
0000
,  // measure 5
0000
0000
0000
0000
,  // measure 6
0000
0000
0000
0000
,  // measure 7
0000
0000
0000
0000
,  // measure 8
0100
0100
0010
0010
,  // measure 9
0100
0000
1000
1000
,  // measure 10
0000
0000
0001
0001
,  // measure 11
0000
0000
0100
0100
,  // measure 12
0200
0300
2000
3000
,  // measure 13
0001
0000
0010
0010
,  // measure 14
0000
0000
0010
0010
,  // measure 15
0000
0010
0000
0010
,  // measure 16
0000
0001
0000
0000
,  // measure 17
1001
0020
0000
0000
,  // measure 18
0130
0002
0000
0000
,  // measure 19
1003
0200
0000
0000
,  // measure 20
0301
0002
0000
0000
,  // measure 21
1003
2000
0000
0000
,  // measure 22
3001
0020
0000
0000
,  // measure 23
0130
0002
0000
0000
,  // measure 24
1003
0000
0000
0000
0001
0002
0000
0000
,  // measure 25
1003
0000
0000
0000
0001
0000
0000
0020
,  // measure 26
0000
0030
1000
0000
1000
0000
0000
0000
,  // measure 27
0000
0000
0000
0000
1000
0000
0000
0200
,  // measure 28
0000
0300
0000
0000
0010
0000
0200
0000
,  // measure 29
0000
0300
0000
0000
0010
0000
0000
0200
,  // measure 30
0000
0300
0020
0000
0030
0000
0001
0000
,  // measure 31
0100
0000
0200
0000
,  // measure 32
0301
0000
0002
0000
,  // measure 33
1003
0000
1000
0000
,  // measure 34
0000
0000
0010
0000
0000
0002
0000
0000
,  // measure 35
0003
0001
0000
1000
,  // measure 36
0000
0100
0000
0020
,  // measure 37
0000
0030
1000
0000
0000
0000
0100
0000
,  // measure 38
0000
0200
0300
0001
,  // measure 39
0000
2000
3001
0000
,  // measure 40
0100
0000
0002
0000
,  // measure 41
2003
0000
0000
0000
0000
0000
0000
3000
,  // measure 42
0001
0000
0000
0010
,  // measure 43
0000
0000
0001
0000
,  // measure 44
1000
0000
0000
0010
,  // measure 45
0000
0000
1000
0000
,  // measure 46
0010
0000
0000
0001
,  // measure 47
0000
0000
0001
0000
,  // measure 48
0010
0000
0000
1000
,  // measure 49
0000
0000
0000
0002
,  // measure 50
1003
0000
0000
0000
0001
0000
0000
0020
,  // measure 51
0000
0030
2000
0000
3001
0000
0000
0000
,  // measure 52
0000
0100
0000
0000
1000
0000
0000
0200
,  // measure 53
0000
0300
0000
0000
0010
0000
0200
0000
,  // measure 54
0000
0300
0001
0000
0000
0000
0000
0200
,  // measure 55
0000
0300
0020
0000
0030
0000
0010
0000
,  // measure 56
0000
1000
0000
0000
0000
1000
0000
0020
,  // measure 57
0000
0230
0000
0000
,  // measure 58
0310
0000
1000
0000
,  // measure 59
0000
0000
0020
0000
0030
0002
0000
0000
,  // measure 60
0003
0000
0001
0000
0000
2000
0000
3020
,  // measure 61
0000
0030
0100
0000
0000
0000
0020
0000
,  // measure 62
0000
0030
1000
0000
0000
0000
0000
0020
,  // measure 63
0000
0030
0200
0000
0300
0001
0000
0000
,  // measure 64
0002
0003
0020
0000
,  // measure 65
0032
0003
0002
0000
,  // measure 66
0203
0000
0000
0000
0000
0000
0000
0300
,  // measure 67
0010
0000
0200
0000
0300
0020
0000
0000
,  // measure 68
0000
0030
0001
0000
0000
0000
0000
0002
,  // measure 69
0000
0003
1000
0000
0000
0000
2000
0000
,  // measure 70
3000
0000
0010
0000
0000
0000
0000
0200
,  // measure 71
0000
0300
0000
0000
0000
0000
0001
0000
,  // measure 72
2000
0000
3000
0000
0020
0000
0000
0030
,  // measure 73
0000
1000
0002
0000
,  // measure 74
0003
0000
0000
0000
;
