#TITLE:Mahoroba;
#SUBTITLE:;
#ARTIST:HHH+H;
#TITLETRANSLIT:;
#SUBTITLETRANSLIT:;
#ARTISTTRANSLIT:;
#GENRE:;
#CREDIT:;
#BANNER:Mahoroba-bn.png;
#BACKGROUND:Mahoroba-bg.png;
#LYRICSPATH:;
#CDTITLE:;
#MUSIC:Mahoroba.mp3;
#OFFSET:0.340000;
#SAMPLESTART:18.079998;
#SAMPLELENGTH:12.000000;
#SELECTABLE:YES;
#BPMS:0.000000=148.960007
;
#STOPS:
;
#BGCHANGES:0.000=Mahoroba.avi=1.000=0=0=1=====,
99999=-nosongbg-=1.000=0=0=0 // don't automatically add -songbackground-
;
#KEYSOUNDS:;
#ATTACKS:;

//---------------dance-single - ----------------
#NOTES:
     dance-single:
     :
     Hard:
     16:
     0.817248,0.885249,0.353238,0.422163,0.749554,574.000000,41.000000,49.000000,0.000000,0.000000,0.000000,0.817248,0.885249,0.353238,0.422163,0.749554,574.000000,41.000000,49.000000,0.000000,0.000000,0.000000:
0000
0000
0000
0000
,
0000
0000
0000
0000
1000
0010
0100
0001
0010
0100
1000
0010
0100
0001
0010
0100
,
1000
0010
0100
0001
1000
0000
0010
0000
0001
0000
0010
0000
0200
0000
0000
0000
,
0301
1000
0010
0000
0100
0000
0000
0001
0000
0000
0100
0000
0001
0000
1000
0000
,
0010
0100
0001
0000
1000
0000
0010
0000
0100
0000
0001
0000
2000
0000
0000
0000
,
3001
1000
0100
0000
1100
0000
0000
0011
0000
0000
1001
0000
0110
0000
0000
0000
,
2010
0000
3001
0100
0010
1000
0002
0000
,
1003
0010
0100
0000
0101
0000
0000
1010
0000
0000
0110
0000
1001
0000
0001
0000
,
0100
0010
0100
0000
0001
0000
1000
0000
0010
0000
0100
0000
0002
0000
0000
0010
,
0000
1000
2003
0000
0000
0000
0000
0000
,
0000
0000
0000
0000
3000
1010
0000
0000
1001
0000
0000
0000
0001
0000
0100
0000
,
0110
0000
0001
0100
1000
0100
0020
0000
,
1030
0001
0100
0000
0010
0000
0000
1000
0000
0000
0010
0000
1000
0000
0001
0000
,
0100
0010
1000
0000
0001
0000
0100
0000
0010
0000
1000
0000
0002
0000
0000
0000
,
1003
0001
0010
0000
0200
0000
0000
2300
0000
0000
3002
0000
0203
0000
0000
0000
,
0302
0000
1003
0010
0100
0001
2000
0000
,
3001
0100
0010
0000
0100
0000
0000
0010
0000
0000
1000
0000
0001
0000
1000
0000
,
0010
0100
0010
0000
1000
0000
0001
0000
0100
0000
0010
0000
2000
0000
0000
0000
,
0000
0001
3002
0000
0010
0000
0010
0000
,
0010
0000
0000
0000
0003
0011
0000
0000
1001
0000
0000
0000
1010
0000
0110
0000
,
0201
0000
0000
0000
0301
1000
0010
0100
0001
0010
0001
1000
0100
1000
0010
0100
,
0001
0010
0100
1000
0100
0010
0001
0100
1000
0100
0001
0010
1000
0010
0001
0000
,
0010
0000
0100
0000
1000
0100
0010
0100
1000
0001
0100
0010
0100
0001
1000
0100
,
1000
0001
0010
0001
0100
0000
0000
0100
0000
0010
0100
0001
1000
0010
0100
0001
,
0100
0000
0001
0000
1000
0010
1000
0001
0100
0001
1000
0100
0010
0001
0010
0100
,
1000
0010
0100
0010
0100
0001
0010
0001
1000
0100
1000
0010
0100
0001
0010
0000
,
0100
0000
0010
0000
0001
0010
0100
1000
0100
0010
0001
0010
1000
0001
0100
1000
,
0010
0100
0001
0010
0100
0000
0000
0100
0000
1000
0010
0100
0001
0010
0100
1000
,
0010
0100
0001
0010
0100
0000
0000
0000
1000
0000
0100
0000
0001
0000
0100
0000
,
2000
0000
3020
0000
0130
0010
0001
0010
,
1000
0001
0200
0000
0000
0310
0110
0000
,
0100
0000
0002
0000
0000
1003
1001
0000
,
0100
0100
0100
0000
0010
0001
0010
1000
,
0200
0000
0320
0000
0031
0010
0100
1000
,
0100
0010
0002
0000
0000
1000
2003
0000
,
0010
3010
0000
0100
0100
0000
0101
0000
,
0110
0000
1002
0000
0100
0000
0013
0100
,
0000
2100
0100
0000
0010
0000
0100
0000
,
0001
3000
1001
0000
0011
0000
0001
0100
,
0000
0220
0000
0330
0000
0010
0100
0002
,
0000
0000
0000
0000
1003
0010
0100
0001
0010
0100
1000
0010
0100
0001
0010
0100
,
1000
0010
0100
0001
1000
0000
0010
0000
1000
0000
0001
0000
0200
0000
0000
0000
,
0301
0010
0100
0000
1000
0000
0000
0001
0000
0000
0010
0000
0001
0000
0100
0000
,
0001
1000
0010
0000
1000
0000
0010
0000
0001
0000
0010
0000
2000
0000
0000
0000
,
3001
0010
0100
0000
2000
0000
0000
3002
0000
0000
2003
0000
3020
0000
0000
0000
,
0230
0000
0000
0300
0101
0000
0000
0011
0000
0000
0110
0000
2001
0000
0000
0000
,
3001
1000
0010
0000
0100
0000
0000
0010
0000
0000
1000
0000
0001
0000
0100
0000
,
0010
1000
0001
0000
0101
0000
0000
1010
0000
0000
1001
0000
0012
0000
0000
1000
,
0000
0000
0100
0000
0203
0000
0000
0000
0000
0000
0000
0000
0010
0000
0000
0010
,
0000
0000
0010
0000
0000
0010
0000
0000
0310
0000
0000
0000
1000
0000
0010
0000
,
0100
0000
0001
1000
0000
1010
0000
0000
0010
0000
0000
0000
1000
0000
0100
0000
,
0120
0000
0031
0100
1000
0100
0020
0000
,
1030
0001
0100
0000
0010
0000
0000
1000
0000
0000
0010
0000
1000
0000
0001
0000
,
0100
0010
1000
0000
0001
0000
0100
0000
0010
0000
1000
0000
0002
0000
0000
0000
,
1003
0001
0010
0000
0011
0000
0000
1100
0000
0000
1001
0000
0110
0000
0000
0000
,
0102
0000
1003
0010
0100
0001
2000
0000
,
3001
0100
0010
0000
0100
0000
0000
0010
0000
0000
1000
0000
0001
0000
1000
0000
,
0010
0100
0010
0000
1000
0000
0001
0000
0100
0000
0010
0000
2000
0000
0000
0001
,
0000
0010
3020
0000
0000
0000
0000
0000
,
0000
0000
0000
0000
1030
0001
0100
0010
1000
0100
1000
0001
0010
0001
0100
0010
,
1000
0100
0010
0001
0010
0100
1000
0010
0001
0010
1000
0100
0001
0100
1000
0000
,
0100
0000
0010
0000
0001
0010
0100
0010
0001
1000
0010
0100
0010
1000
0001
0010
,
0001
1000
0100
1000
0010
0000
0000
0010
0000
0100
0010
1000
0001
0100
0010
1000
,
0010
0000
1000
0000
0001
0100
0001
1000
0010
1000
0001
0010
0100
1000
0100
0010
,
0001
0100
0010
0100
0010
1000
0100
1000
0001
0010
0001
0100
0010
1000
0100
0000
,
0010
0000
0100
0000
1000
0100
0010
0001
0010
0100
1000
0100
0001
1000
0010
0001
,
0100
0010
1000
0100
0010
0000
0000
0010
0000
0001
0100
0010
1000
0100
0010
0001
,
0100
0010
1000
0000
0001
0100
0010
1000
0100
0010
0001
0100
0010
1000
0100
0010
,
0001
0100
0010
2000
0002
0000
0000
0000
3003
0000
0000
0000
0000
0000
0000
0000
;

//---------------dance-single - Copied from----------------
#NOTES:
     dance-single:
     Copied from:
     Medium:
     13:
     0.574781,0.531150,0.112002,0.422163,0.185235,405.000000,13.000000,49.000000,0.000000,0.000000,0.000000,0.574781,0.531150,0.112002,0.422163,0.185235,405.000000,13.000000,49.000000,0.000000,0.000000,0.000000:
0000
0000
0000
0000
,
0000
0000
0000
0000
,
0000
0000
0100
0001
1000
0001
0200
0000
,
0301
1000
0001
0000
0100
0000
0000
0100
0000
0000
0010
0000
2000
0000
0000
0000
,
0000
0000
3001
1000
0010
0100
0002
0000
,
1003
0001
1000
0000
0001
0000
0000
0001
0000
0000
1000
0000
0001
0000
0000
0000
,
0200
0000
0310
1000
0001
0100
0020
0000
,
1030
0010
1000
0000
0001
0000
0000
0001
0000
0000
0100
0000
0020
0000
0000
0000
,
0000
0000
0000
0000
1030
0000
0001
0000
0100
0000
0010
0000
1000
0000
0000
1000
,
0000
0001
0200
0000
0000
0000
0000
0000
,
0000
0000
0300
0000
0000
0010
0000
0000
0100
0000
0000
0000
0001
0000
1000
0000
,
1001
0000
0001
0100
0010
1000
0020
0000
,
1030
0001
1000
0000
0010
0000
0000
0010
0000
0000
0100
0000
0002
0000
0000
0000
,
0000
0000
1003
0001
0100
0010
2000
0000
,
3001
1000
0001
0000
1000
0000
0000
1000
0000
0000
0001
0000
1000
0000
0000
0000
,
0020
0000
0130
0001
1000
0010
0200
0000
,
0301
0100
0001
0000
1000
0000
0000
1000
0000
0000
0010
0000
0200
0000
0000
0000
,
0000
0000
0000
0000
0310
0000
1000
0000
0001
0000
0100
0000
0010
0000
0000
1000
,
0000
0001
0200
0000
0000
0000
0000
0000
,
0000
0000
0300
0000
0000
0001
0000
0000
1000
0000
0000
0000
0010
0000
0100
0000
,
0002
0000
1003
0010
1000
0001
0100
0001
,
0010
0100
1000
0100
0010
0001
1000
0001
,
1000
1010
1000
0001
1000
0010
0100
0001
,
0100
0000
0010
0000
1000
0000
0000
0001
0000
0000
1000
0000
0010
0000
0100
0000
,
0001
0101
0100
0010
1000
0001
0010
0100
,
0010
0001
1000
0100
1000
0001
0100
0001
,
1000
1001
0001
0100
0010
0100
1000
0100
,
0001
0000
0100
0000
1000
0000
0000
0100
0000
0000
0010
0000
1000
0000
0001
0000
,
0010
0100
1000
0000
0001
0010
0100
1000
,
0002
0000
0000
0000
1003
0010
0100
0010
,
1000
0001
0200
0000
0000
0310
2000
0000
,
0000
0000
3020
0000
0000
0130
0020
0000
,
1030
0001
1000
0000
0001
1000
0010
1000
,
0002
0000
0000
0000
0103
0010
1000
0001
,
1000
0010
0200
0000
0000
0301
2000
0000
,
3001
0200
0000
0301
1000
0000
1001
0000
,
0101
0000
2010
0000
0000
0000
3010
0200
,
0000
0301
0020
0000
0100
0000
0001
0000
,
0100
0030
2000
0000
0000
0000
3001
1000
,
0000
1001
0000
0000
0000
0010
0010
0010
,
0000
0000
1000
0010
0100
0001
1000
0010
,
0100
0001
0100
0010
1000
0010
2000
0000
,
3001
1000
0001
0000
0100
0000
0000
0010
0000
0000
1000
0000
0020
0000
0000
0000
,
0000
0000
0130
0001
0010
0100
2000
0000
,
3001
0100
0001
0000
0100
0000
0000
0010
0000
0000
0100
0000
0001
0000
0000
0000
,
1001
0000
0000
0000
1000
0000
0000
0001
0000
0000
1000
0000
0001
0000
0000
0000
,
1000
0010
1000
0000
0001
0000
0000
0100
0000
0000
0010
0000
2000
0000
0000
0000
,
0000
0000
3001
1000
0010
0100
0020
0000
,
0000
0000
1030
0000
0002
0000
0000
0000
0000
0000
0000
0000
2003
0000
3000
0010
,
0000
0000
2000
0000
3000
0010
0000
0000
2000
0000
3000
0000
0001
0000
0100
0000
,
0010
0000
0100
0001
0000
1000
0000
0000
0010
0000
0000
0000
1000
0000
0001
0000
,
0200
0000
0310
1000
0001
0010
0002
0000
,
0103
0010
0100
0000
0010
0000
0000
1000
0000
0000
0010
0000
2000
0000
0000
0000
,
0000
0000
3100
0010
0001
0100
0020
0000
,
1030
0001
1000
0000
0010
0000
0000
1000
0000
0000
0001
0000
0100
0000
0000
0000
,
0002
0000
0013
0100
1000
0100
0020
0000
,
0031
0100
0001
0000
1000
0000
0000
0010
0000
0000
1000
0000
0002
0000
0000
0000
,
0000
0000
0000
0000
0013
0000
0100
0000
1000
0000
0010
0000
0200
0000
0000
0010
,
0000
0310
2002
0000
0000
0000
0000
0000
,
0000
3003
0001
0100
0001
1000
0010
1000
,
0100
0010
0001
0010
0100
1000
0001
1000
,
0001
0101
0001
1000
0001
0100
0010
1000
,
0010
0000
0100
0000
0001
0000
0000
1000
0000
0000
0001
0000
0100
0000
0010
0000
,
1000
1010
0010
0100
0001
1000
0100
0010
,
0100
1000
0001
0010
0001
1000
0010
1000
,
0001
1001
1000
0010
0100
0010
0001
0010
,
1000
0000
0010
0000
0001
0000
0000
0010
0000
0000
0100
0000
0001
0000
1000
0000
,
0100
0000
0010
0000
0001
0010
0001
0000
0010
0100
0010
0000
0100
1000
0100
0000
,
0010
0001
1000
0002
2000
0000
0000
0000
3003
0000
0000
0000
0000
0000
0000
0000
;

//---------------dance-single - Copied from Copied f----------------
#NOTES:
     dance-single:
     Copied from Copied f:
     Easy:
     7:
     0.422163,0.413493,0.008616,0.473856,0.017231,287.000000,1.000000,55.000000,0.000000,0.000000,0.000000,0.422163,0.413493,0.008616,0.473856,0.017231,287.000000,1.000000,55.000000,0.000000,0.000000,0.000000:
0000
0000
0000
0000
,
0000
0000
0000
0000
,
0000
1000
0001
2000
,
0000
3001
0100
0020
,
0000
0000
0130
0000
0001
1000
0200
0000
,
0000
0000
0310
0000
0001
0000
1000
0001
,
0200
0000
0310
0000
0100
0010
0200
0000
,
0000
0000
0301
0000
1000
0001
0020
0000
,
0000
0000
0130
1000
0100
1000
0100
0000
,
0000
0010
0002
0000
0000
0000
0000
0000
,
0000
0000
0003
0000
1000
0000
0010
0010
,
1001
0001
1000
0002
,
0000
1003
0010
0200
,
0000
0000
0310
0000
1000
0001
0020
0000
,
0000
0000
0130
0000
1000
0000
0001
1000
,
0020
0000
0130
0000
0010
0100
0020
0000
,
0000
0000
1030
0000
0001
1000
0200
0000
,
0000
0000
0310
0001
0010
0001
0010
0000
,
0000
0100
2000
0000
0000
0000
0000
0000
,
0000
0000
3000
0000
0001
0000
1000
1000
,
0002
0000
1003
0010
1000
0000
0002
0000
,
0010
0000
1000
0000
0013
0000
0100
0100
,
0010
0010
2000
0000
0010
0000
0100
0000
,
3001
0000
0100
0010
0100
0000
0001
0001
,
0100
0100
0020
0000
1000
0000
0100
0000
,
1030
0000
0001
1000
0001
0000
1000
1000
,
0001
0001
0200
0000
0010
0000
0001
0000
,
0310
0000
1000
0001
1000
0000
0001
0001
,
0010
0010
0200
0000
1300
0000
0001
0000
,
0200
0000
0310
1000
,
0001
0100
0020
0000
0000
0130
0200
0000
,
0000
0000
0310
0000
0000
1000
0001
0000
,
0100
0100
0100
0000
0001
0000
1000
0000
,
0020
0000
0130
0001
,
1000
0001
0200
0000
0000
0310
0010
0000
,
1000
1000
0000
0001
0001
0000
0200
0000
,
0302
0000
0203
0000
0000
0000
0310
0010
,
0000
0200
0001
0001
,
0001
0000
0302
0000
0000
0000
1003
1000
,
0000
0010
0000
0000
0000
0100
0100
0100
,
0000
0010
1000
0001
,
0100
0001
1000
0002
,
0000
1003
0010
0200
,
0000
0000
0310
0000
1000
0001
0020
0000
,
0000
0000
0130
0000
1000
0000
0001
1000
,
0020
0000
0130
0000
0010
0100
0020
0000
,
0000
0000
1030
0000
0001
1000
0200
0000
,
0000
0000
0310
0001
0010
0001
0010
0000
,
0000
0001
0002
0000
0000
0000
0103
0000
,
0000
0100
0000
0000
0100
0000
0001
1000
,
0001
0000
0000
0100
0000
0100
0000
0000
0010
0000
0000
0000
0100
0000
0001
0000
,
0200
0000
0310
0000
1000
0010
0200
0000
,
0000
0000
0301
0000
1000
0100
0020
0000
,
0000
0000
0031
0000
0100
1000
0200
0000
,
0000
0000
0310
0000
1000
0000
0001
1000
,
0200
0000
0310
0000
0001
0010
0002
0000
,
0000
0000
1003
0000
0010
0100
0020
0000
,
0000
0000
0000
0000
1030
0000
0001
0000
1000
0000
0001
0000
0100
0000
0000
0010
,
0000
2000
0002
0000
0000
0000
0000
0000
,
0000
3003
1000
0010
1000
0000
0002
0000
,
0010
0000
1000
0000
0013
0000
0100
0100
,
0010
0010
2000
0000
0010
0000
0100
0000
,
3001
0000
0100
0010
0100
0000
0001
0001
,
0100
0100
0020
0000
1000
0000
0100
0000
,
1030
0000
0001
1000
0001
0000
1000
1000
,
0001
0001
0200
0000
0010
0000
0001
0000
,
0310
0000
0000
0000
1000
0000
0000
0010
0000
0000
1000
0000
0001
0000
1000
0000
,
0001
1000
0002
0000
0023
0000
0230
0000
,
2300
0000
0000
0000
0002
0000
0000
0000
0000
3003
0000
0000
0000
0000
0000
0000
;

//---------------dance-single - Copied from Copied f----------------
#NOTES:
     dance-single:
     :
     Beginner:
     3:
     0.316314,0.384308,0.000000,0.456625,0.017231,204.000000,0.000000,53.000000,0.000000,0.000000,0.000000,0.316314,0.384308,0.000000,0.456625,0.017231,204.000000,0.000000,53.000000,0.000000,0.000000,0.000000:
// measure 0
0000
0000
0000
0000
,  // measure 1
0000
0000
0000
0000
,  // measure 2
0000
0001
1000
0002
,  // measure 3
0000
0103
0001
0200
,  // measure 4
0000
0310
1000
0020
,  // measure 5
0000
0130
1000
0001
,  // measure 6
0020
0130
0100
0020
,  // measure 7
0000
1030
0001
0200
,  // measure 8
0000
0310
0001
1000
,  // measure 9
0000
1000
2000
0000
0000
0000
0000
0000
,  // measure 10
0000
3000
0001
0100
,  // measure 11
0010
0100
0001
2000
,  // measure 12
0000
3001
0100
0020
,  // measure 13
0000
0130
0001
0200
,  // measure 14
0000
0310
0001
1000
,  // measure 15
0200
0300
0010
0200
,  // measure 16
0000
0301
1000
0020
,  // measure 17
0000
0130
0100
0100
,  // measure 18
0000
0001
0002
0000
0000
0000
0000
0000
,  // measure 19
0000
0003
1000
0001
,  // measure 20
2000
3001
0001
2000
,  // measure 21
0010
0010
3100
0001
,  // measure 22
1000
0002
0100
0010
,  // measure 23
1003
0010
0100
0010
,  // measure 24
0010
0200
0001
0000
,  // measure 25
0310
0000
1000
0001
,  // measure 26
0010
0020
0000
0000
,  // measure 27
0130
0001
0001
1000
,  // measure 28
0010
0020
0130
0100
,  // measure 29
0020
0000
0130
0000
,  // measure 30
0100
0000
2000
0000
0000
3010
0020
0000
,  // measure 31
0000
0000
0130
0000
0000
0001
0001
0000
,  // measure 32
0100
0100
0001
1000
,  // measure 33
0020
0000
0130
0100
,  // measure 34
0010
0000
0020
0000
0000
0030
0100
0000
,  // measure 35
0001
0000
0100
0002
,  // measure 36
2003
3020
0000
0130
,  // measure 37
0000
0020
0000
0000
,  // measure 38
0100
0230
0000
0310
,  // measure 39
0000
0100
0000
0000
0000
0010
0010
0010
,  // measure 40
0000
0100
0000
1000
,  // measure 41
0000
0100
0000
0200
,  // measure 42
0000
0310
0000
0020
,  // measure 43
0000
0130
0100
0200
,  // measure 44
0000
0310
0000
0100
,  // measure 45
0200
0000
0300
0000
0000
0010
0020
0000
,  // measure 46
0000
0130
0100
0020
,  // measure 47
0000
0130
0010
0000
,  // measure 48
0000
0100
0200
0000
0000
0000
0310
0000
,  // measure 49
0000
0010
0000
0000
0010
0000
1000
0001
,  // measure 50
1000
0000
0000
0010
0000
0010
0000
0000
0100
0000
0000
0000
0010
0000
1000
0000
,  // measure 51
0020
0000
0130
0000
0001
0100
0020
0000
,  // measure 52
0000
0000
1030
0000
0001
0010
0200
0000
,  // measure 53
0000
0000
1300
0000
0010
0001
0020
0000
,  // measure 54
0000
0000
0130
0000
0001
0000
1000
0001
,  // measure 55
0020
0000
0130
0000
1000
0100
2000
0000
,  // measure 56
0000
0000
3001
0000
0000
0100
0200
0000
,  // measure 57
0000
0000
0000
0000
0301
0000
0000
0000
0000
0000
0000
0000
0100
0000
0000
0100
,  // measure 58
0000
0002
2000
0000
0000
0000
0000
0000
,  // measure 59
0000
3003
0001
0000
0001
0000
2000
0000
,  // measure 60
0100
0001
3100
0010
,  // measure 61
0000
0002
0000
0000
,  // measure 62
1003
0010
0000
0000
,  // measure 63
0010
0200
0000
0000
,  // measure 64
0301
0000
1000
0000
,  // measure 65
0010
0020
0000
0000
,  // measure 66
0130
0000
0000
0000
0010
0000
0000
0100
0000
0000
0000
0000
0010
0000
0000
0000
,  // measure 67
0010
0200
0000
0310
,  // measure 68
2000
0000
0002
0000
0000
3003
0000
0000
;
