#VERSION:0.83;
#TITLE:MagiCatz;
#SUBTITLE:;
#ARTIST:Sakuzyo;
#TITLETRANSLIT:;
#SUBTITLETRANSLIT:;
#ARTISTTRANSLIT:;
#GENRE:;
#ORIGIN:;
#CREDIT:;
#BANNER:;
#BACKGROUND:;
#PREVIEWVID:;
#JACKET:Magicatz-jacket.png;
#CDIMAGE:;
#DISCIMAGE:;
#LYRICSPATH:;
#CDTITLE:;
#MUSIC:MagiCatz.mp3;
#OFFSET:-0.080000;
#SAMPLESTART:92.818443;
#SAMPLELENGTH:12.000000;
#SELECTABLE:YES;
#BPMS:0.000=290.100,
252.000=145.050,
284.000=290.100,
597.000=134.050,
610.000=145.050,
622.500=290.100;
#STOPS:;
#DELAYS:;
#WARPS:;
#TIMESIGNATURES:0.000=4=4;
#TICKCOUNTS:0.000=4;
#COMBOS:0.000=1;
#SPEEDS:0.000=1.000=0.000=0;
#SCROLLS:0.000=1.000;
#FAKES:;
#LABELS:0.000=Song Start;
#BGCHANGES:;
#KEYSOUNDS:;
#ATTACKS:
;

//---------------dance-single - ----------------
#NOTEDATA:;
#CHARTNAME:;
#STEPSTYPE:dance-single;
#DESCRIPTION:;
#CHARTSTYLE:;
#DIFFICULTY:Hard;
#METER:16;
#RADARVALUES:0.790563,1.228451,0.630534,0.382345,0.566810,825.000000,731.000000,94.000000,57.000000,0.000000,0.000000,0.000000,0.000000,0.000000,0.790563,1.228451,0.630534,0.382345,0.566810,825.000000,731.000000,94.000000,57.000000,0.000000,0.000000,0.000000,0.000000,0.000000;
#CREDIT:;
#NOTES:
0000
0000
0000
0000
,
0000
0000
0000
0000
,
2000
0000
0000
0000
0002
0000
0000
3000
,
0013
0100
1000
0010
,
0100
0001
1000
0010
,
0000
1000
0100
0010
,
0002
0000
2003
0000
,
3002
0000
0000
0000
0103
0000
0010
0100
,
0010
0000
0000
1000
0000
0001
0100
0000
0010
0100
0000
0010
,
1000
0010
0100
0010
,
2000
0000
3200
0000
,
0320
0000
0032
0000
,
0103
0001
1000
2002
,
3003
0100
0010
1000
,
0002
0000
0203
0000
,
0320
0000
0130
0001
,
2000
0000
0000
0000
,
0010
0000
0000
0000
,
3002
0000
0000
0000
,
1000
0000
0000
0000
,
0203
0000
0000
0000
,
0000
0000
0000
0000
,
0020
0000
0000
0000
,
0000
0000
0000
0000
0000
0000
0000
0330
,
1000
0100
0010
0001
,
1000
0100
0010
0001
,
1000
0100
0010
0001
,
1000
0100
0010
0001
,
0011
0010
1000
0010
,
0001
0100
1000
0100
,
0101
0001
0010
1000
,
0010
0001
0100
1000
,
1100
0000
0000
0000
0000
0101
0000
0000
1000
0000
0000
0001
,
0100
0010
1000
0001
,
0000
0000
0100
0000
0000
0100
0010
0000
0000
0010
0000
1000
,
0000
0000
0100
0000
0000
0010
0001
0000
0010
0100
0000
1000
,
0010
0000
0000
0100
0000
0000
0001
0000
1000
0000
0000
0010
,
0000
0000
1000
0010
0000
0100
0001
0000
1000
0100
0000
0010
,
0001
0000
0000
1001
0000
0000
0010
0000
0100
0000
0000
0010
,
0000
0000
1000
0001
0000
1000
0100
0000
0010
0001
0000
1000
,
0001
0000
0000
0000
0000
1000
0000
0000
0010
0000
0000
0010
,
1000
0001
1000
0001
,
0000
0000
1000
0000
0000
1000
0100
0000
0000
0010
0000
0001
,
0000
0000
1000
0000
0000
0010
0100
0000
0001
1000
0000
0010
,
0000
0000
0000
0010
1000
0000
0001
0000
0100
0010
0000
0100
,
0000
0000
0010
1000
0000
0001
0100
0000
0010
0000
0000
1001
,
0000
0000
1000
0100
0000
0010
0001
0000
0100
0000
0000
0000
,
1001
0100
0110
0010
,
1001
0100
0001
0010
,
0011
0100
1000
0010
,
1010
0100
0001
1000
,
1001
0001
0101
0100
,
0110
0010
1000
0001
,
1100
0010
0001
1000
,
1001
0000
1000
0100
0000
0010
0001
0000
0001
0100
0000
0010
,
1000
0000
0010
0100
0000
0000
0010
0000
0010
0000
0000
0000
,
1010
0100
0001
0010
,
0101
0010
1000
0001
,
1100
0010
0001
1000
,
0110
0010
1001
1000
,
0101
1000
0010
0100
,
1010
1000
0100
0010
,
1001
0000
1000
0001
0010
0100
0010
0001
,
0000
0000
1000
0000
0001
0000
1001
0000
1000
0000
0100
0000
,
0110
0000
0010
0000
0001
0000
1001
0000
1000
0010
0100
0001
,
0010
0001
1000
0100
1000
0010
0100
0000
0010
0000
0100
0000
,
0101
0000
0001
0000
0010
0000
0011
0000
1000
0010
0100
0001
,
0010
0100
1000
0100
1000
0010
0100
0000
0100
0000
0010
0000
,
1010
0000
1000
0000
0001
0000
0011
0000
0010
0000
0100
0000
,
1100
0000
1000
0000
0001
0000
0101
0000
0100
0010
0100
0010
,
1000
0001
1000
0010
0100
0001
0100
0000
0010
0000
1000
0000
,
0002
0000
2003
0000
,
3001
1000
0001
1000
0001
1000
0001
1000
,
0001
0100
0010
0100
0010
0100
0010
0100
,
0010
1000
0100
1000
0100
1000
0100
1000
,
0001
0010
0001
0010
0001
0010
0001
0010
,
0001
0100
0010
0100
0010
0100
0010
0100
,
0010
1000
0001
1000
0001
1000
0001
1000
,
0001
0010
0100
0010
0100
0010
0100
0010
,
0100
1000
0100
1000
0100
1000
0100
1000
,
0001
0010
0001
1000
0100
0010
0001
1000
,
0010
0100
0001
1000
0001
0010
0100
0001
,
0100
1000
0010
1000
0100
1000
0001
0010
,
0100
0001
0100
1000
0010
0100
1000
0100
,
0001
0100
0010
1000
0100
1000
0001
0010
,
0001
0100
0010
1000
0100
1000
0010
0100
,
1000
0100
0010
1000
0100
0010
0001
0010
,
0100
1000
0001
0010
0100
1000
0010
0100
,
0002
0000
0000
0000
0203
0000
0000
0001
,
0001
0000
0000
0300
0102
0000
0000
1000
,
1000
0000
0000
0003
0021
0000
0000
0100
,
0100
0000
0000
0030
0210
0000
0000
1000
,
1000
0000
0000
0300
2001
0000
0000
0010
,
0010
0000
0000
3000
0102
0000
0000
1000
,
1000
0000
0000
0003
2010
0000
0000
0100
,
0100
0000
0000
3000
0120
0000
0000
0030
,
0001
0000
1000
0000
0001
0000
1000
0000
0100
0000
0000
0000
,
1000
0000
0100
0000
1000
0000
0100
0000
0010
0000
0000
0000
,
0001
0000
0100
0000
0001
0000
0100
0000
0010
0000
0000
0000
,
1000
0000
0010
0000
1000
0000
0010
0000
0100
0000
0000
0000
,
0220
0000
0000
0000
,
0000
0000
0000
0000
0000
0000
0000
0300
,
1030
1000
1000
1000
,
1000
0000
0010
0100
0001
0100
0010
0100
,
1001
0001
0101
1000
,
1100
0011
1100
0110
,
0011
0101
0110
1010
,
0100
0001
1000
0001
,
1001
0100
1010
0010
,
0101
0000
1000
0000
1100
0000
0001
1000
,
0001
0000
0000
0010
0000
0100
1000
0000
0100
0010
0000
0001
,
0010
0100
1000
0001
,
0110
1000
0101
0010
,
1010
0100
1001
1010
,
0101
0011
1100
1010
,
0100
0001
0010
0100
,
1100
0010
0011
0001
,
1010
1000
0110
1001
,
1001
2000
3020
0230
,
0302
0000
1000
1003
,
0110
0010
1001
1000
,
0201
0320
2030
3002
,
1003
0010
1000
0010
0100
0000
0001
0100
0001
0100
0010
0000
,
1000
0001
1000
0001
0100
0000
0010
0100
0010
0100
0001
0000
,
0010
0100
1000
0001
0010
0000
0100
1000
0001
1000
0010
0000
,
0100
0001
0010
0100
1000
0000
0010
0100
0001
0010
0100
0000
,
1000
0100
0010
0001
0010
0100
1000
0100
0010
0001
0010
0100
,
1000
0000
0000
0001
0000
0000
1000
0010
0100
0001
1000
0010
,
0100
0000
0000
0001
0000
0000
1000
0100
0010
0001
0010
0100
,
1000
0000
0000
0001
0000
0000
1000
0010
0100
0001
0010
0100
,
1000
1010
1001
0101
,
0010
1001
0110
0101
,
1002
0000
0203
0000
,
0320
0000
2030
3002
,
0203
0000
0000
0000
,
0010
0000
0000
0000
,
0302
0000
0000
0000
,
1000
0000
0000
0000
,
0203
0000
0000
0000
,
0001
0000
0000
0000
,
0320
0000
0000
0000
,
1000
0000
0000
0000
,
0130
0000
0110
0000
,
0010
1000
1001
0001
,
0010
0100
1100
1000
,
0000
0100
0110
0010
,
0001
0000
0101
0000
,
0100
0000
0000
0000
0110
0000
0010
1000
,
0001
0000
1001
0000
,
0000
0000
0001
0100
0010
2000
0000
3200
,
0000
0310
0001
0010
0100
1000
0010
0100
,
0002
0000
1003
0010
0100
0002
0000
0023
,
0000
0000
0230
0000
0000
0000
1300
0000
0001
2000
0002
0000
0000
0000
0000
0000
,
0000
0000
0000
0000
0000
0000
3003
0000
1001
0000
0001
0000
,
1000
0000
1100
0000
0100
0000
0010
0000
0011
0000
0001
0000
,
1000
0000
1010
0000
0010
0000
0200
0000
0000
0301
0000
0000
,
1000
0000
0000
0010
1000
0000
0000
0001
0000
0000
0000
0001
,
0010
0000
0100
1000
0000
0010
0100
0000
0001
0010
0000
0000
,
0100
0000
0100
1000
0000
1000
0001
0000
0001
0000
0000
0000
,
1001
1001
0000
0000
;

//---------------dance-single - ----------------
#NOTEDATA:;
#CHARTNAME:;
#STEPSTYPE:dance-single;
#DESCRIPTION:;
#CHARTSTYLE:;
#DIFFICULTY:Medium;
#METER:12;
#RADARVALUES:0.573038,0.961397,0.657365,0.972632,0.137510,598.000000,500.000000,98.000000,145.000000,0.000000,0.000000,0.000000,0.000000,0.000000,0.573038,0.961397,0.657365,0.972632,0.137510,598.000000,500.000000,98.000000,145.000000,0.000000,0.000000,0.000000,0.000000,0.000000;
#CREDIT:;
#NOTES:
0000
0000
0000
0000
,
0000
0000
0000
0000
,
0002
0000
2003
0000
,
3100
0010
0001
0100
,
0010
1000
0001
0100
,
0000
0001
0010
0100
,
2000
0000
3002
0000
,
2003
0000
0000
0000
3010
0000
0100
0010
,
0100
0002
2003
3020
,
0130
0100
0010
0100
,
0002
0000
0023
0000
,
0230
0000
2300
0000
,
3010
1000
0001
1001
,
0000
0010
0100
0001
,
2000
0000
3020
0000
,
0230
0000
0310
1000
,
0002
0000
0000
0000
,
0100
0000
0000
0000
,
2003
0000
0000
0000
,
0001
0000
0000
0000
,
3020
0000
0000
0000
,
0000
0000
0000
0000
,
0200
0000
0000
0000
,
0000
0000
0000
0000
0000
0000
0000
0330
,
0001
0010
0100
1000
,
0001
0010
0100
1000
,
0001
0010
0100
1000
,
0001
0010
0100
1000
,
0100
0100
0010
0001
,
1000
0010
0100
0010
,
1000
1000
0001
0100
,
0010
1000
0100
0010
,
1001
1001
1000
0010
,
0100
0010
1000
0001
,
0101
0101
0100
0010
,
1000
0010
0100
0001
,
0011
0011
0010
0100
,
1000
0010
0100
0010
,
1010
1010
1000
0001
,
0010
0001
0100
0010
,
0110
0110
0100
0001
,
1000
0010
0100
0001
,
1001
1001
1000
0010
,
0100
0010
0100
0010
,
1010
1010
1000
0001
,
0010
0001
0010
0001
,
0011
0011
0010
0100
,
2200
3300
2020
3030
,
2002
3003
0000
0010
,
0220
0330
0000
0100
,
0202
0303
0000
0001
,
2002
3003
2020
3030
,
0220
0330
0000
1000
,
0022
0033
0000
0001
,
2002
3003
0100
0010
,
1000
0001
1000
0001
,
0202
0303
0000
1000
,
2020
3030
0000
0001
,
0022
0033
0000
0100
,
0220
0330
2002
3003
,
2020
3030
0000
0001
,
0022
0033
0000
1000
,
2002
0000
3003
0000
0010
0100
0010
0100
,
0000
0000
0001
0000
1000
0000
1001
0000
0001
0000
0010
0000
,
0110
0000
0100
0000
1000
0000
1001
0000
0001
0000
0100
0000
,
0101
0000
0001
0000
0010
0000
0110
0000
0100
0000
1000
0000
,
1010
0000
0010
0000
0100
0000
0101
0000
0001
0000
0010
0000
,
0110
0000
0100
0000
1000
0000
1001
0000
0001
0000
0010
0000
,
0011
0000
0001
0000
1000
0000
1100
0000
0100
0000
0010
0000
,
0011
0000
0001
0000
1000
0000
1010
0000
0010
0000
0100
0000
,
0101
0000
0001
0000
1000
0000
1001
0000
0001
0000
1000
0000
,
0020
0000
0230
0000
,
0301
1000
0001
1000
,
0001
0100
0010
0100
,
0010
0100
0010
0100
,
0001
1000
0001
1000
,
0001
0100
0010
0100
,
0010
1000
0100
1000
,
0100
0010
0001
0010
,
0001
0100
0010
0100
,
0001
1000
0010
1000
,
0001
1000
0001
0000
1000
0000
0010
0000
,
0100
0001
0100
0000
0001
0000
1000
0000
,
0100
0010
0100
0000
0010
0000
0001
0000
,
1000
0001
1000
0000
0001
0000
0010
0000
,
0100
1000
0100
0000
0010
0000
0001
0000
,
1000
0001
1000
0000
0100
0000
0010
0000
,
0001
0100
0001
0000
1000
0000
0010
0000
,
0200
0000
0302
0000
,
1003
0000
2100
0000
,
3002
0000
0000
0003
2001
0000
0000
0000
,
3200
0000
0000
0300
0120
0000
0000
0000
,
0032
0000
0000
0003
2001
0000
0000
0000
,
3020
0000
0000
0030
0210
0000
0000
0000
,
0302
0000
0000
0003
2001
0000
0000
0000
,
3002
0000
0000
0003
0201
0000
0000
0000
,
0320
0000
0000
0000
,
2030
0000
0000
0000
,
3200
0000
0000
0000
,
0320
0000
0000
0000
,
0032
0000
0000
0000
,
0000
0000
0000
0000
,
0103
0100
0100
0100
,
0100
0000
0010
0100
0010
0100
0010
0100
,
2002
3003
2020
3030
,
0001
0100
0001
1000
,
0010
0100
1001
1001
,
0000
1000
0001
1000
,
2002
3003
0202
0303
,
2020
0000
3030
0000
0001
0000
1000
0001
,
1000
0020
2030
3002
,
0103
0010
1000
0001
,
0220
0330
2020
3030
,
0202
0303
0001
0100
,
0001
1000
0010
2020
,
3030
1000
0100
0010
,
0022
0033
2200
3300
,
0202
0303
0001
1000
,
1001
0002
0203
0320
,
2030
0000
0000
3000
,
0220
0330
2002
3003
,
1000
0001
1000
0001
,
0100
0010
1000
2020
,
3030
1000
0100
0010
,
0202
0303
2020
3030
,
0022
0033
0220
0330
,
0001
1000
0010
0100
,
0001
1000
0001
1000
,
2020
3030
0202
0303
,
2002
3003
0220
0330
,
0001
0010
0100
2200
,
3300
1000
0010
0100
,
0202
0303
0020
0000
,
2030
0000
3002
2003
,
3020
0000
0000
0000
,
0100
0000
0000
0000
,
2030
0000
0000
0000
,
0001
0000
0000
0000
,
3020
0000
0000
0000
,
1000
0000
0000
0000
,
0230
0000
0000
0000
,
0001
0000
0000
0000
,
0310
0000
1010
0000
,
0100
0001
1001
1000
,
0100
0010
0011
0001
,
0000
0010
0110
0100
,
1000
0000
1010
0000
,
0010
0000
0000
0000
0110
0000
0100
0010
,
0100
0000
1001
0000
,
0000
0000
1000
0100
0010
0001
0000
0010
,
0000
0100
1000
0001
0010
0001
1000
0010
,
1000
0000
0001
0010
0001
0100
0000
0010
,
0000
0000
1000
0000
0000
0000
0010
0000
0100
0002
2000
0000
0000
0000
0000
0000
,
0000
0000
0000
0000
0000
0000
3003
0000
1001
0000
1000
0000
,
0001
0000
0011
0000
0010
0000
0100
0000
1100
0000
1000
0000
,
0001
0000
0101
0000
0100
0000
0020
0000
0000
1030
0000
0000
,
0001
0100
0010
1000
,
0100
0010
0001
0010
,
0100
0000
1000
0000
0001
0100
0000
0000
,
1001
1001
0000
0000
;

//---------------dance-single - ----------------
#NOTEDATA:;
#CHARTNAME:;
#STEPSTYPE:dance-single;
#DESCRIPTION:;
#CHARTSTYLE:;
#DIFFICULTY:Easy;
#METER:5;
#RADARVALUES:0.244356,0.534109,0.207942,0.684196,0.013416,255.000000,224.000000,31.000000,102.000000,0.000000,0.000000,0.000000,0.000000,0.000000,0.244356,0.534109,0.207942,0.684196,0.013416,255.000000,224.000000,31.000000,102.000000,0.000000,0.000000,0.000000,0.000000,0.000000;
#CREDIT:;
#NOTES:
0000
0000
0000
0000
,
0000
0000
0000
0000
,
2000
0000
3002
0000
,
0013
0000
1000
0000
,
0100
0000
1000
0000
,
0000
0000
0100
0000
,
0002
0000
2003
0000
,
3002
0000
0103
0000
,
0020
0000
0000
0000
,
0030
0000
0100
0000
,
2000
0000
3200
0000
,
0320
0000
0032
0000
,
0103
0000
0000
1001
,
0000
0000
0000
0000
,
0002
0000
0003
0000
,
0020
0000
0030
0000
,
2000
0000
0000
0000
,
0000
0000
0000
0000
,
3002
0000
0000
0000
,
0000
0000
0000
0000
,
0203
0000
0000
0000
,
0000
0000
0000
0000
,
0320
0000
0000
0000
,
0000
0000
0000
0000
0000
0000
0000
0030
,
1000
0000
0001
0000
,
1000
0000
0100
0000
,
0010
0000
0001
0000
,
1000
0000
0010
0000
,
0100
0000
0010
0000
,
1000
0000
0001
0000
,
1000
0000
0001
0000
,
0100
0000
0010
0000
,
1001
0000
0000
0000
,
0000
0000
0000
0000
,
1000
1000
0000
0000
,
0000
0000
0000
0000
,
0100
0100
0000
0000
,
0000
0000
0000
0000
,
0001
0001
0000
0000
,
0000
0000
0000
0000
,
0010
0010
0000
0000
,
0000
0000
0000
0000
,
1000
1000
0000
0000
,
0000
0000
0000
0000
,
0001
0001
0000
0000
,
0000
0000
0000
0000
,
0100
0100
0000
0000
,
0002
0000
2003
0000
,
3020
0030
0000
0000
,
0220
0330
0000
0000
,
2000
3000
0000
0000
,
0002
0003
0200
0300
,
0020
0030
0000
0000
,
0200
0300
0000
0000
,
0002
0003
0000
0000
,
2000
3000
0002
0003
,
2000
3000
0000
0000
,
0002
0003
0000
0000
,
0200
0300
0000
0000
,
0020
0030
2000
3000
,
0002
0003
0000
0000
,
2000
3000
0000
0000
,
0002
0000
0003
0000
0000
0000
0000
0010
,
0000
0000
1001
0000
,
0110
0000
1001
0000
,
1010
0000
0110
0000
,
0101
0000
1010
0000
,
0110
0000
1001
0000
,
1100
0000
0011
0000
,
1100
0000
0101
0000
,
1010
0000
1001
0000
,
0020
0000
0000
0000
,
2030
0000
0000
0000
,
3002
0000
0000
0000
,
0023
0000
0000
0000
,
0230
0000
0000
0000
,
2300
0000
0000
0000
,
3020
0000
0000
0000
,
0230
0000
0000
0000
,
0302
0000
0000
0000
,
2003
0000
0000
0000
,
3001
0000
1000
0000
,
0001
0000
1000
0000
,
0010
0000
0100
0000
,
0001
0000
1000
0000
,
0100
0000
0010
0000
,
0001
0000
0010
0000
,
0001
0000
0100
0000
,
0200
0000
0320
0000
,
0230
0000
0302
0000
,
2003
0000
3002
0000
,
0023
0000
0230
0000
,
2300
0000
3002
0000
,
2003
0000
3200
0000
,
0320
0000
0032
0000
,
2003
0000
3020
0000
,
0230
0000
0000
0000
,
0302
0000
0000
0000
,
0023
0000
0000
0000
,
0230
0000
0000
0000
,
2300
0000
0000
0000
,
0000
0000
0000
0000
,
3001
0001
0001
0001
,
0001
1000
1000
1000
,
0002
0003
0200
0300
,
1000
0000
1000
0000
,
0100
0000
0000
1001
,
0000
0000
1000
0000
,
0002
0003
2000
3000
,
0002
0003
1000
0000
,
0002
0000
0000
0000
,
0003
0000
0001
0000
,
0020
0030
0002
0003
,
2000
3000
1000
0000
,
1000
0000
0000
0002
,
0003
0000
0010
0000
,
2000
3000
0002
0003
,
2000
3000
1000
0000
,
2002
0000
0000
0000
,
3003
0000
0000
0000
,
0200
0300
0002
0003
,
0001
0000
0001
0000
,
0010
0000
0000
0200
,
0300
0000
0010
0000
,
2000
3000
0002
0003
,
2000
3000
0020
0030
,
1000
0000
0100
0000
,
1000
0000
1000
0000
,
0002
0003
2000
3000
,
0002
0003
0200
0300
,
1000
0000
0000
0002
,
0003
0000
0100
0000
,
2000
0000
3000
0000
,
0002
0000
0003
0000
,
0200
0000
0000
0000
,
0000
0000
0000
0000
,
0302
0000
0000
0000
,
0000
0000
0000
0000
,
0203
0000
0000
0000
,
0000
0000
0000
0000
,
0320
0000
0000
0000
,
0000
0000
0000
0000
,
0030
0000
1001
0000
,
0000
0000
1001
0000
,
0000
0000
0110
0000
,
0000
0000
0110
0000
,
0000
0000
0101
0000
,
0000
0000
1010
0000
,
0000
0000
1001
0000
,
0000
0000
0001
0000
0000
1000
0000
0000
,
0000
0010
0000
0000
0000
1000
0000
0000
,
0000
0001
0000
0000
0000
0010
0000
0000
,
0000
1000
0000
0000
0000
0002
0000
0000
,
0000
0000
0000
0000
0000
0000
0003
0000
1001
0000
0000
0000
,
0000
0000
1100
0000
0000
0000
0000
0000
0011
0000
0000
0000
,
0000
0000
1010
0000
0000
0000
0000
0000
0000
0001
0000
0000
,
0000
0010
0000
0001
,
0000
0100
0000
0100
,
0000
0000
0000
0000
,
0001
0001
0000
0000
;

//---------------dance-single - ----------------
#NOTEDATA:;
#CHARTNAME:;
#STEPSTYPE:dance-single;
#DESCRIPTION:;
#CHARTSTYLE:;
#DIFFICULTY:Beginner;
#METER:3;
#RADARVALUES:0.160987,0.267055,0.020123,0.570164,0.013416,168.000000,165.000000,3.000000,85.000000,0.000000,0.000000,0.000000,0.000000,0.000000,0.160987,0.267055,0.020123,0.570164,0.013416,168.000000,165.000000,3.000000,85.000000,0.000000,0.000000,0.000000,0.000000,0.000000;
#CREDIT:;
#NOTES:
// measure 0
0000
0000
0000
0000
,  // measure 1
0000
0000
0000
0000
,  // measure 2
0010
0000
0000
0000
,  // measure 3
0100
0000
0000
0000
,  // measure 4
0010
0000
0000
0000
,  // measure 5
0000
0000
0000
0000
,  // measure 6
2000
0000
3000
0000
,  // measure 7
2000
0000
3000
0000
,  // measure 8
0200
0000
0000
0000
,  // measure 9
0300
0000
0000
0000
,  // measure 10
0002
0000
0003
0000
,  // measure 11
0200
0000
0300
0000
,  // measure 12
0010
0000
0000
1001
,  // measure 13
0000
0000
0000
0000
,  // measure 14
2000
0000
3000
0000
,  // measure 15
0200
0000
0300
0000
,  // measure 16
0002
0000
0000
0000
,  // measure 17
0000
0000
0000
0000
,  // measure 18
2003
0000
0000
0000
,  // measure 19
0000
0000
0000
0000
,  // measure 20
3020
0000
0000
0000
,  // measure 21
0000
0000
0000
0000
,  // measure 22
0230
0000
0000
0000
,  // measure 23
0000
0000
0000
0000
0000
0000
0000
0300
,  // measure 24
0001
0000
0000
0000
,  // measure 25
0001
0000
0000
0000
,  // measure 26
0100
0000
0000
0000
,  // measure 27
0001
0000
0000
0000
,  // measure 28
0010
0000
0000
0000
,  // measure 29
0001
0000
0000
0000
,  // measure 30
0001
0000
0000
0000
,  // measure 31
0010
0000
0000
0000
,  // measure 32
1001
0000
0000
0000
,  // measure 33
0000
0000
0000
0000
,  // measure 34
0001
0001
0000
0000
,  // measure 35
0000
0000
0000
0000
,  // measure 36
0010
0010
0000
0000
,  // measure 37
0000
0000
0000
0000
,  // measure 38
1000
1000
0000
0000
,  // measure 39
0000
0000
0000
0000
,  // measure 40
0100
0100
0000
0000
,  // measure 41
0000
0000
0000
0000
,  // measure 42
0001
0001
0000
0000
,  // measure 43
0000
0000
0000
0000
,  // measure 44
1000
1000
0000
0000
,  // measure 45
0000
0000
0000
0000
,  // measure 46
0010
0010
0000
0000
,  // measure 47
2000
0000
0000
0000
,  // measure 48
3001
0000
0000
0000
,  // measure 49
0200
0300
0000
0000
,  // measure 50
0002
0003
0000
0000
,  // measure 51
2000
3000
0000
0000
,  // measure 52
0200
0300
0000
0000
,  // measure 53
0020
0030
0000
0000
,  // measure 54
2000
3000
0000
0000
,  // measure 55
0002
0003
0000
0000
,  // measure 56
0002
0003
0000
0000
,  // measure 57
2000
3000
0000
0000
,  // measure 58
0020
0030
0000
0000
,  // measure 59
0200
0300
0000
0000
,  // measure 60
2000
3000
0000
0000
,  // measure 61
0002
0003
0000
0000
,  // measure 62
2000
3000
0000
0000
,  // measure 63
0001
0000
1000
0000
,  // measure 64
0010
0000
0001
0000
,  // measure 65
0100
0000
0010
0000
,  // measure 66
1000
0000
0001
0000
,  // measure 67
0100
0000
0001
0000
,  // measure 68
0010
0000
0100
0000
,  // measure 69
0001
0000
1000
0000
,  // measure 70
0001
0000
1000
0000
,  // measure 71
0200
0000
0000
0000
,  // measure 72
0302
0000
0000
0000
,  // measure 73
2003
0000
0000
0000
,  // measure 74
3200
0000
0000
0000
,  // measure 75
0320
0000
0000
0000
,  // measure 76
0032
0000
0000
0000
,  // measure 77
0203
0000
0000
0000
,  // measure 78
0320
0000
0000
0000
,  // measure 79
2030
0000
0000
0000
,  // measure 80
3002
0000
0000
0000
,  // measure 81
1003
0000
0000
0000
,  // measure 82
1000
0000
0000
0000
,  // measure 83
0100
0000
0000
0000
,  // measure 84
1000
0000
0000
0000
,  // measure 85
0010
0000
0000
0000
,  // measure 86
1000
0000
0000
0000
,  // measure 87
1000
0000
0000
0000
,  // measure 88
0020
0000
0230
0000
,  // measure 89
0320
0000
0030
0000
,  // measure 90
0002
0000
2003
0000
,  // measure 91
3200
0000
0300
0000
,  // measure 92
0002
0000
2003
0000
,  // measure 93
3002
0000
0003
0000
,  // measure 94
0200
0000
2300
0000
,  // measure 95
3002
0000
0003
0000
,  // measure 96
0020
0000
0000
0000
,  // measure 97
2030
0000
0000
0000
,  // measure 98
3200
0000
0000
0000
,  // measure 99
0320
0000
0000
0000
,  // measure 100
0032
0000
0000
0000
,  // measure 101
0000
0000
0000
0000
,  // measure 102
1003
0000
1000
0000
,  // measure 103
0001
0000
0001
0000
,  // measure 104
2000
3000
0000
0000
,  // measure 105
0001
0000
0000
0000
,  // measure 106
0010
0000
0000
1000
,  // measure 107
0000
0000
0000
0000
,  // measure 108
2000
3000
0000
0000
,  // measure 109
0002
0003
0000
0000
,  // measure 110
2000
0000
0000
0000
,  // measure 111
3000
0000
0001
0000
,  // measure 112
0200
0300
0000
0000
,  // measure 113
0002
0003
0000
0000
,  // measure 114
0001
0000
0000
2000
,  // measure 115
3000
0000
0000
0000
,  // measure 116
0002
0003
0000
0000
,  // measure 117
0002
0003
0000
0000
,  // measure 118
2002
0000
0000
0000
,  // measure 119
3003
0000
0000
0000
,  // measure 120
0020
0030
0000
0000
,  // measure 121
1000
0000
0000
0000
,  // measure 122
0100
0000
0000
0020
,  // measure 123
0030
0000
0000
0000
,  // measure 124
0002
0003
0000
0000
,  // measure 125
0002
0003
0000
0000
,  // measure 126
0001
0000
0000
0000
,  // measure 127
0001
0000
0000
0000
,  // measure 128
2000
3000
0000
0000
,  // measure 129
2000
3000
0000
0000
,  // measure 130
0001
0000
0000
2000
,  // measure 131
3000
0000
0000
0000
,  // measure 132
0002
0000
0003
0000
,  // measure 133
2000
0000
3000
0000
,  // measure 134
0020
0000
0000
0000
,  // measure 135
0000
0000
0000
0000
,  // measure 136
2030
0000
0000
0000
,  // measure 137
0000
0000
0000
0000
,  // measure 138
3020
0000
0000
0000
,  // measure 139
0000
0000
0000
0000
,  // measure 140
0230
0000
0000
0000
,  // measure 141
0000
0000
0000
0000
,  // measure 142
0300
0000
0002
0003
,  // measure 143
0000
0000
2000
3000
,  // measure 144
0000
0000
0020
0030
,  // measure 145
0000
0000
0200
0300
,  // measure 146
0000
0000
0020
0030
,  // measure 147
0000
0000
0002
0003
,  // measure 148
0000
0000
2000
3000
,  // measure 149
0000
0000
0000
0000
0000
0001
0000
0000
,  // measure 150
0000
0100
0000
0000
0000
0001
0000
0000
,  // measure 151
0000
1000
0000
0000
0000
0100
0000
0000
,  // measure 152
0000
0001
0000
0000
0000
2000
0000
0000
,  // measure 153
0000
0000
0000
0000
0000
0000
3000
0000
1000
0000
0000
0000
,  // measure 154
0000
0000
0001
0000
0000
0000
0000
0000
1000
0000
0000
0000
,  // measure 155
0000
0000
0001
0000
0000
0000
0000
0000
0000
1000
0000
0000
,  // measure 156
0000
0000
0000
1000
,  // measure 157
0000
0000
0000
0010
,  // measure 158
0000
0000
0000
0000
,  // measure 159
1000
1000
0000
0000
;
