#TITLE:MacuilxochitI;
#SUBTITLE:;
#ARTIST:TOMOSUKE;
#TITLETRANSLIT:;
#SUBTITLETRANSLIT:;
#ARTISTTRANSLIT:;
#CREDIT:;
#BANNER:Macuilxochiti-bn.png;
#BACKGROUND:;
#LYRICSPATH:;
#CDTITLE:;
#MUSIC:Macuilxochiti.mp3;
#OFFSET:-0.140;
#SAMPLESTART:41.000;
#SAMPLELENGTH:12.000;
#SELECTABLE:YES;
#BPMS:0.000=148.020;
#STOPS:;
#BGCHANGES:;

//---------------dance-single - ----------------
#NOTES:
     dance-single:
     :
     Challenge:
     18:
     1.000,0.973,0.603,0.377,1.000:
0000
0000
0000
0000
,
0000
0000
0000
0000
0110
0000
0000
1001
0000
0000
0101
0000
0000
0001
0010
0100
,
1000
0100
0010
0001
0000
1000
0010
0100
0001
0010
0100
1000
0100
0010
0001
0010
,
0001
1000
0001
0000
0000
0000
0000
0110
0000
0000
0101
0000
0000
1000
0010
1000
,
0001
0100
0001
0010
0000
0100
1000
0100
0010
0001
1000
0010
0100
1000
0100
0001
,
0010
0100
0010
0001
0100
0000
0010
1000
0010
1000
0001
0100
0001
0010
0100
1000
,
0100
1000
0100
0010
0001
0000
0100
0010
1000
0000
0010
0000
1000
0001
0100
0010
,
1000
0100
1000
0010
0100
0010
0000
0000
0110
0000
0000
0000
1002
0000
0000
0000
,
0203
0000
0000
0000
0320
0000
0000
0000
2030
0000
0000
0000
3000
1010
0000
1001
,
0000
0110
0000
0000
0100
0000
0200
0000
0000
0000
0000
0310
1000
0010
0100
0001
,
0100
0001
0010
0001
1000
0100
1000
0010
0100
0001
1000
0010
0000
0020
2000
0000
,
0000
0000
0000
0000
0000
0000
0000
0000
0000
0000
0000
0000
0000
0000
0030
3000
,
0001
0100
0000
0000
0000
0000
0000
0010
0000
1000
0000
0001
0100
0000
0010
0000
,
1000
0000
0001
0000
0010
0000
0100
1000
0000
1000
0100
0010
0001
0000
1000
0000
,
0001
0000
1000
0010
1000
0001
0010
0001
1000
0100
1000
0010
0100
0010
1000
0001
,
1000
0001
0010
0001
0100
0010
1000
0001
0100
0001
0100
0010
1000
0010
0100
0001
,
0010
0100
1000
0100
0010
0001
1000
0010
0100
0010
1000
0001
0100
0001
0000
1010
,
0000
0101
0000
0001
0000
1000
0000
0001
0000
0101
0000
0000
0001
1000
0001
1000
,
0000
0010
0000
0100
0000
0001
0000
1000
0000
1010
0000
0000
1000
0010
0100
0001
,
0000
0000
1000
0010
0100
0001
0010
0100
1000
0000
0001
0010
0100
0010
0001
1000
,
0010
0000
0100
0010
1000
0001
0100
0000
0010
1000
0001
0010
1000
0010
0001
0000
,
1001
0000
1000
0010
0100
0001
0010
1000
0001
0100
1000
0100
0010
0001
1000
0010
,
0100
0001
0010
0001
1000
0001
0010
0100
1000
0010
0100
0000
0001
1000
0000
1010
,
0000
0110
0000
0101
0000
0000
2002
0000
0000
0000
0000
3003
0000
1010
0000
0110
,
0000
1001
0000
0011
0000
0000
2002
0000
0000
0000
0003
0000
3001
0010
0100
1000
,
0100
0000
0010
0001
0000
0010
1000
0000
0000
0010
0001
0000
1000
0010
0100
0001
,
1000
0000
0001
0100
0000
0010
1000
0000
1000
0010
0000
0000
1000
0100
0010
0001
,
0010
0000
0100
1000
0000
0100
0001
0000
0000
0100
1000
0000
0001
0100
0010
1000
,
0001
0000
1000
0010
0000
0100
0001
0000
0001
0100
0000
0000
0010
1000
0001
0100
,
0010
1000
0001
0010
0100
1000
0100
0010
0001
1000
0010
0100
1000
0100
0001
0010
,
0001
1000
0100
0010
0100
1000
0001
0010
0100
0010
0001
1000
0010
0001
1000
0100
,
0001
0010
0100
1000
0001
0010
0100
1000
0001
0010
1000
0001
0100
1000
0010
0100
,
0001
1000
0010
0100
0020
0000
0030
0202
0000
0000
0303
0000
1000
0010
0000
0110
,
0000
0101
0000
1002
0000
0000
1003
0010
0100
0001
0010
0100
1000
0000
0100
1000
,
0000
0100
1000
0001
0100
0010
0100
0001
1000
0100
1000
0010
0100
0001
1000
0100
,
0010
0001
1000
0010
0100
0001
1000
0100
0010
0001
0010
0100
1000
0000
0100
1000
,
0000
0100
1000
0000
1000
0010
0100
0001
1000
0100
1000
0010
0100
0001
1000
0100
,
0010
0000
0100
0000
0010
0001
0100
0010
0100
0001
0010
0100
1000
0000
0100
1000
,
0000
0100
1000
0000
1000
0010
0100
0001
1000
0100
1000
0010
0100
0001
1000
0100
,
0010
0001
0010
0000
0110
0000
1001
0000
0001
0010
0100
1000
0010
0100
0001
0010
,
0001
1000
0001
0000
0101
0000
1001
0000
1000
0010
0100
0001
0010
0100
1000
0100
,
1000
0001
0100
0000
1001
0000
0110
0000
0100
0010
1000
0001
0100
0001
1000
0100
,
1000
0010
0100
0000
1001
0000
0110
0000
0010
1000
0010
0100
0001
0100
0001
1000
,
0100
0010
0001
0000
1001
0000
0000
0120
0000
0000
1000
0000
0000
0130
0000
0000
,
0100
0001
0000
0000
1001
0000
0000
1001
0000
0000
0011
0000
0000
1001
0000
0000
,
0000
1000
0010
0100
0001
0010
0100
1000
0100
0000
0010
0000
0001
0000
0010
0100
,
1000
0000
0100
0000
0010
0000
0001
0000
0100
0000
0001
0000
0010
0000
0100
0010
,
0001
0000
1000
0000
0010
0000
0100
0000
0001
0000
1000
0000
0010
1000
0010
1000
,
0002
0000
0000
0003
2002
0000
0000
3003
1000
0010
0001
0010
1000
0100
0001
0100
,
1000
0000
0010
0000
0001
0000
0010
0000
1010
0000
1000
0000
0010
0000
0100
0001
,
1000
0000
0001
0000
0010
0000
1000
0000
0001
0000
0100
0000
1000
0000
0010
0100
,
0001
0000
1000
0000
0010
0000
0001
0000
1000
0000
0100
0000
0001
0100
0001
0100
,
0020
0000
0000
0030
2002
0000
0000
3003
0001
0100
1000
0100
0001
0010
1000
0010
,
0001
0000
0100
0000
1000
0000
0100
0000
0001
1000
0001
0100
0000
0110
0000
0010
,
0000
1000
0010
0100
0002
0000
0000
0000
1003
0010
0000
0110
0000
0000
0102
0000
,
1003
0000
0000
2020
0000
3000
0030
0000
1000
0001
1000
0010
0000
0110
0000
0100
,
0000
0001
0100
0010
2000
0000
0000
0000
3001
0100
0000
0110
0000
0000
2010
0000
,
3001
0000
0000
0202
0000
0003
0300
0000
0001
1000
0001
0100
0000
0110
0000
0010
,
0000
1000
0010
0100
0002
0000
0000
0000
1003
0010
0000
0110
0000
0000
0102
0000
,
1003
0000
0000
2020
0000
3000
0030
0000
1000
0001
1000
0010
0000
0110
0000
0100
,
0000
0001
0100
0010
2000
0000
0000
0000
3001
0100
0000
0110
0000
0000
2010
0000
,
3001
0000
0000
0202
0000
0003
0300
0000
1010
0000
1010
0000
0000
0010
0100
0001
,
0010
0100
1000
0010
0100
0001
1000
0010
2002
0000
3003
0000
0000
0000
0000
0000
;

//---------------dance-single - Copied from----------------
#NOTES:
     dance-single:
     Copied from:
     Hard:
     16:
     0.856,0.855,0.264,0.198,1.000:
0000
0000
0000
0000
,
0000
0000
0000
0000
1001
0000
0000
0110
0000
0000
1001
0000
0000
0010
1000
0010
,
0000
1000
0001
1000
0000
0001
1000
0001
0000
0010
0100
0010
0000
0001
1000
0001
,
1000
0001
1000
0000
0000
0000
0000
0001
0000
0000
1001
0000
0000
1000
0001
1000
,
0001
0010
0001
0010
0000
0100
1000
0100
0010
0001
1000
0100
0010
0001
0010
0100
,
1000
0001
1000
0001
1000
0000
0010
1000
0010
0000
0100
0001
0100
0000
0001
1000
,
0001
1000
0100
0010
0001
0000
1000
0001
0100
0000
0001
0000
1000
0001
1000
0001
,
0100
0010
0100
0010
1000
0001
0000
0000
2000
0000
0000
0000
3020
0000
0000
0000
,
0032
0000
0000
0000
0023
0000
0000
0000
0230
0000
0000
0000
0000
0010
0000
0010
,
0000
0310
0000
0000
1000
0000
2000
0000
0000
0000
0000
3010
0100
0010
0000
0100
,
0001
0100
0000
0001
1000
0001
1000
0010
0100
0010
0100
0001
0000
0001
2000
0000
,
0000
0000
0000
0000
0000
0000
0000
0000
0000
0000
0000
0000
0000
0000
0000
3000
,
0001
1000
0000
0000
0000
0000
0000
0001
0000
0001
0000
1000
0100
0000
0010
0000
,
0001
0000
0010
0000
0100
0000
0000
1000
0000
0001
0100
0001
0100
0000
0000
0000
,
0000
0000
0001
1000
0001
1000
0010
0100
0010
0100
0001
1000
0001
0000
1000
0001
,
0100
0000
0001
1000
0100
0000
0010
0001
0100
0000
0010
1000
0001
0000
0100
0010
,
1000
0000
0001
1000
0010
0000
0100
0010
1000
0000
0010
0100
0001
0000
0000
1000
,
0000
1000
0000
0001
0000
0001
0000
0100
0000
0100
0000
0000
0010
1000
0010
1000
,
0000
0001
0000
0100
0000
0010
0000
1000
0000
1001
0000
0000
0001
1000
0001
1000
,
0000
0000
0010
1000
0001
0100
0000
0100
0010
0000
0100
0010
1000
0000
0001
1000
,
0010
0000
0100
0010
1000
0000
0001
0000
1000
0001
1000
0000
0010
0100
0010
0000
,
1001
0000
1000
0010
1000
0000
0001
0100
0001
0000
1000
0010
0100
0000
0001
1000
,
0100
0000
0010
0001
1000
0000
0001
1000
0010
0000
0100
0000
0001
1000
0000
1000
,
0000
0010
0000
0010
0000
0000
0220
0000
0000
0000
0000
0330
0000
0100
0000
0100
,
0000
0001
0000
0001
0000
0000
2002
0000
0000
0000
0003
0000
3001
0100
0001
0100
,
0010
0000
0010
1000
0000
0000
0001
0000
1000
0001
0000
0000
0001
1000
0001
1000
,
0001
0000
0001
0100
0000
0010
0000
0000
0100
0001
0000
0000
0001
0100
0001
0100
,
0010
0000
0010
1000
0000
0000
0001
0000
1000
0001
0000
0000
0001
1000
0001
1000
,
0001
0000
0001
0100
0000
0010
0000
0000
0100
0001
0000
0000
0001
1000
0001
0000
,
1000
0010
1000
0000
0001
1000
0001
0000
1000
0010
0100
0000
0001
0100
0010
0000
,
1000
0001
0100
0000
0001
1000
0001
1000
0010
0100
0010
0000
1000
0001
0100
0000
,
0001
0010
0100
0000
1000
0010
0001
0000
1000
0100
0001
0000
0010
0100
1000
0000
,
0010
0100
1000
0000
0100
0000
0000
0220
0000
0000
0330
0000
0020
0100
0000
0100
,
0000
1030
0000
0002
0000
0000
1003
0010
1000
0001
0100
0001
0100
0000
0000
0010
,
0000
0100
0010
0000
0100
0010
0100
0000
0001
1000
0001
0000
0100
0010
1000
0000
,
0010
0100
0001
0000
1000
0010
0001
0000
1000
0100
0001
0000
1000
0000
0000
0010
,
0000
0100
0001
0000
1000
0010
0100
0000
0001
1000
0010
0000
0100
0001
1000
0000
,
0001
0000
1000
0000
0010
0100
0010
0100
0001
1000
0001
1000
0100
0000
0000
0010
,
0000
0001
0100
0000
0001
0100
0010
0000
1000
0010
0100
0000
0001
1000
0010
0000
,
1000
0001
0100
0000
0010
0000
0010
0000
1000
0010
1000
0000
0001
0100
0001
0000
,
1000
0010
1000
0000
0001
0000
0001
0000
0010
0100
0010
0000
0100
1000
0100
0000
,
1000
0001
1000
0000
0100
0000
0100
0000
0010
0001
0010
0000
0100
1000
0100
0000
,
1000
0001
1000
0000
0001
0000
0001
0000
1000
0100
1000
0000
0100
0010
0100
0000
,
0010
0001
0010
0000
0002
0000
0000
1000
0000
0000
0100
0000
0000
0013
0000
0000
,
0001
1000
0000
0000
1010
0000
0000
0110
0000
0000
0101
0000
0000
1001
0000
0000
,
0000
1000
0010
1000
0010
0100
0001
0100
0001
0000
1000
0000
0001
0000
0010
0100
,
0010
0000
1000
0000
0010
0000
0001
0000
1001
0000
0000
0000
0001
0000
1000
0010
,
1000
0000
0010
0000
0001
0000
0010
0000
1001
0000
0000
0000
0001
1000
0001
1000
,
0020
0000
0000
0000
0230
0000
0000
0000
0301
1000
0001
0000
0100
0010
0100
0010
,
0100
0000
0010
0000
0001
0000
0010
0000
1010
0000
0000
0000
1000
0000
0010
0100
,
0010
0000
0001
0000
0010
0000
1000
0000
1001
0000
0000
0000
1000
0000
0010
0100
,
0010
0000
0001
0000
0010
0000
1000
0000
1001
0000
0000
0000
0001
0100
0001
0100
,
0020
0000
0000
0000
2030
0000
0000
3000
0100
0010
0100
0000
0010
0001
0010
0001
,
0010
0000
0100
0000
0100
0000
0100
0000
1000
0001
1000
0001
0000
0100
0000
0010
,
0000
0100
0010
0100
0010
0000
0000
0000
1000
0001
0000
0101
0000
0000
0100
0000
,
0001
0000
0000
1001
0000
0000
0000
0000
1000
0010
0100
0010
0000
1000
0000
0001
,
0000
0010
0100
1000
0100
0000
0000
0000
0010
0001
0000
0101
0000
0000
0100
0000
,
0010
0000
0000
1010
0000
0000
0000
0000
1000
0001
1000
0001
0000
0100
0000
0010
,
0000
0100
0010
0100
0010
0000
0000
0000
1000
0001
0000
0101
0000
0000
0100
0000
,
0001
0000
0000
1001
0000
0000
0000
0000
1000
0010
0100
0010
0000
1000
0000
0001
,
0000
0010
0100
1000
0100
0000
0000
0000
0010
0001
0000
0101
0000
0000
0100
0000
,
0010
0000
0000
1010
0000
0000
0000
0000
1001
0000
1001
0000
0000
0001
0010
0100
,
1000
0010
0100
0001
1000
0010
0100
0001
0200
0000
0300
0000
0000
0000
0000
0000
;

//---------------dance-single - Copied from Copied f----------------
#NOTES:
     dance-single:
     Copied from Copied f:
     Medium:
     12:
     0.580,0.501,0.104,0.160,0.301:
0000
0000
0000
0000
,
0000
0000
0000
0000
0010
0000
0000
0010
0000
0000
0010
0000
0000
0000
1000
0000
,
0010
0001
0010
1000
0100
0010
0001
1000
,
0010
0000
0100
0000
0000
0000
0000
0010
0000
0000
0010
0000
0000
0000
1000
0000
,
0001
0100
0000
0010
0100
0001
1000
0010
,
0100
0001
1001
0000
1000
0010
1000
0010
,
0100
0001
0011
0000
1000
0100
0010
0001
,
0010
0000
0100
0000
1000
0010
0000
0000
1010
0000
0000
0000
2000
0000
0000
0000
,
3002
0000
0000
0000
2003
0000
0000
0000
3002
0000
0000
0000
0003
0100
0000
0010
,
0000
0100
0000
0000
0001
0000
1000
0000
0000
0000
0000
0000
0001
0000
1000
0000
,
0010
0100
0001
1000
0010
0200
0000
0302
,
0000
0000
0000
0000
,
1003
0010
0000
0000
0000
0000
0000
0010
0000
1000
0000
0001
0100
0000
0010
0000
,
1000
0000
0001
0000
0100
0000
0000
0010
0000
0000
1000
0000
0001
0000
0000
0000
,
0000
0100
0010
0100
0001
1000
0001
1000
,
0010
0100
0001
1000
0010
0100
0001
0010
,
0100
0000
1000
0000
0010
0000
0100
0000
0010
0000
1000
0000
0001
0000
0000
1000
,
0000
0010
0000
1000
0000
0001
0000
0100
0000
0001
0000
0000
0000
0000
0000
0010
,
0000
0100
0000
0010
0000
0001
0000
1000
0000
0001
0000
0000
0010
0000
0001
0000
,
0001
1000
0010
0100
0100
0010
1000
0001
,
0010
0100
1000
0001
1000
0010
0100
0010
,
1010
0000
1000
0001
0100
0010
1000
0100
,
0010
0000
0001
0000
1000
0000
0010
0000
0100
0000
0001
0000
1000
0010
0000
0100
,
0000
0001
0000
1000
0000
0000
0002
0000
0000
0000
0000
0003
0000
0100
0000
0010
,
0000
1000
0000
0010
0000
0000
2002
0000
0000
0000
0003
0000
3001
0000
1000
0000
,
0010
0000
0100
0000
0000
0001
0000
0000
0000
1000
0001
0000
0000
0000
0001
0000
,
0100
0000
0001
0000
0000
0010
0000
0000
0100
1000
0000
0000
0000
0000
1000
0000
,
0010
0000
0100
0000
0000
0001
0000
0000
0100
0010
0000
0000
0000
0000
0010
0000
,
1000
0000
0001
0000
0000
0100
0000
0000
0001
0010
0000
0000
0100
0000
1000
0000
,
0100
0010
0100
1000
0100
0010
0001
0010
,
0100
1000
0100
0010
0001
1000
0010
0100
,
0001
1000
0010
0100
0010
0001
0010
1000
,
0001
0000
1000
0000
0010
0000
0000
0100
0000
0000
0000
0000
0010
0100
0000
0001
,
0000
0001
0000
1000
0000
0000
1000
0000
0001
0000
0100
0000
0010
0000
0000
0100
,
0000
0010
0100
0010
1000
0001
0100
0010
,
1000
0000
0100
0000
0010
0000
0001
0000
0010
0000
0100
0000
1000
0000
0000
0010
,
0000
0100
0001
1000
0001
0010
0100
1000
,
0001
0000
1000
0000
0010
0000
0100
0000
0001
0000
1000
0000
0100
0000
0000
0010
,
0000
0001
1000
0010
1000
0100
1000
0010
,
0100
0001
0010
0010
0001
0010
0100
1000
,
0100
0010
0001
0001
0010
0100
1000
0100
,
0010
0001
1000
1000
0010
0100
0001
1000
,
0010
0100
0001
0001
0010
0100
1000
0100
,
0010
0000
0001
0000
1000
0000
0000
1000
0000
0000
0001
0000
0000
0001
0000
0000
,
0100
0010
0000
0000
0100
0000
0000
0010
0000
0000
1000
0000
0000
0001
0000
0000
,
0000
0010
0100
1000
0100
0000
1000
0020
,
0100
0130
0001
1000
1001
0000
0000
1000
,
1000
0001
0001
0100
0100
0000
0001
1000
,
0002
0000
0203
0000
0301
1000
0001
0100
,
0010
0100
0001
1000
1010
0000
1000
0020
,
0100
0130
0001
1000
1001
0000
0000
0010
,
0010
0100
0100
0001
0001
0000
1000
0001
,
0200
0000
0302
0000
0103
0010
1000
0010
,
0100
0000
0001
0000
1000
0000
0100
0000
1000
0000
0001
0000
0000
0100
0000
0010
,
0000
1000
0001
0000
1000
0001
0100
0000
,
0001
0000
0000
1000
0000
0000
0000
0000
1000
0000
0010
0000
0000
0100
0000
0001
,
0000
0010
0100
0000
1000
0100
0010
0000
,
0001
0000
0000
1000
0000
0000
0000
0000
1000
0000
0001
0000
0000
0100
0000
0010
,
0000
1000
0001
0000
1000
0001
0100
0000
,
0001
0000
0000
1000
0000
0000
0000
0000
1000
0000
0010
0000
0000
0100
0000
0001
,
0000
0010
0100
0000
1000
0100
0010
0000
,
0001
0000
0000
1000
0000
0000
0000
0000
1001
0000
1001
0000
0000
0000
0001
0000
,
1000
0010
0100
0001
2002
3003
0000
0000
;

//---------------dance-single - Copied from Copied f----------------
#NOTES:
     dance-single:
     Copied from Copied f:
     Easy:
     6:
     0.429,0.413,0.047,0.141,0.193:
0000
0000
0000
0000
,
0000
0000
0002
0000
0000
2003
0000
3001
,
1000
0001
0000
1000
0010
1000
0000
0001
,
0100
0010
0000
0000
0000
0010
0000
1000
,
0001
0100
0000
0010
0100
0001
0000
1000
,
0001
0100
0002
0003
1000
0010
1000
0000
,
0001
1000
0200
0300
0010
0001
0010
0000
,
0100
1000
0200
0300
0010
0000
0001
0000
,
1000
0000
0000
0000
0001
0000
0000
0000
0100
0000
0000
0000
0000
0010
0000
0010
,
0000
0010
0000
0000
1000
0000
0001
0000
0000
0000
0000
0000
1000
0000
0000
0000
,
0010
0000
0100
0001
1000
2000
0000
3002
,
0000
0000
0000
0000
,
1003
0000
0000
0000
0000
0000
0000
1000
0000
0010
0000
0100
0000
0000
0000
0000
,
0001
0000
0000
0000
1000
0000
0000
0010
0000
0000
1000
0000
0001
0000
0000
0000
,
1000
0010
0100
0001
,
1000
0000
0010
0000
0100
0000
0001
1000
,
0100
0000
0000
0000
0010
0000
0001
0000
0100
0000
0000
0000
0010
0000
0000
1000
,
0000
0010
0000
0100
0000
0000
0000
0001
0000
0001
0000
0000
0000
0000
0000
1000
,
0000
0001
0000
0010
0000
0000
0000
0100
0000
0100
0000
0000
0001
0000
0000
0000
,
0001
1000
1000
0010
,
0100
0000
0001
1000
0010
0000
0100
0010
,
2000
3000
0001
0000
1000
0000
0010
0000
,
0100
0000
0000
0000
0001
0000
0100
0000
0010
0000
0000
0000
0000
1000
0000
0001
,
0000
1000
0000
0001
0000
0000
0200
0000
0300
0000
0000
0000
0000
0010
0000
0100
,
0000
0010
0000
1000
0000
0000
0002
0000
0000
0000
0000
0000
1003
0000
0000
0000
,
0010
0000
0100
0000
0000
0101
0000
0000
,
0001
0000
1000
0000
0000
1010
0000
0000
,
1000
0000
0001
0000
0100
0000
0000
0110
,
0000
0010
0110
1000
,
0100
0001
0010
1000
,
0100
0001
0010
1000
,
0001
1000
0001
0000
1000
0001
1000
0000
,
0010
0000
0100
0000
0010
0000
0000
0200
0000
0300
0000
0000
0000
0001
0000
1000
,
0000
0001
0000
1000
0000
0000
0010
0000
0100
0000
0010
0000
0100
0000
0000
0010
,
0000
0100
0010
0100
0000
0001
1000
0010
,
0000
0000
0100
0000
0001
0000
1000
0000
0000
0000
0001
0000
1000
0000
0000
0010
,
0000
0100
0001
1000
0000
0010
0100
0001
,
0000
0000
1000
0000
0010
0000
1000
0000
0000
0000
0001
0000
0100
0000
0000
0010
,
0000
0100
0001
1000
0000
0001
1000
0001
,
0000
0000
0010
0010
0001
0000
0010
0000
,
0100
0000
1000
1000
0010
0000
0100
0000
,
0001
0000
0100
0100
0010
0000
1000
0000
,
0100
0000
0010
0010
0001
0000
0010
0000
,
0100
0000
0000
0000
1000
0000
0000
0001
0000
0000
1000
0000
0000
0001
0000
0000
,
0100
0000
0000
0000
0010
0000
0000
0100
0000
0000
0010
0000
0000
1000
0000
0000
,
0000
0001
1000
0000
0010
0000
0100
0000
,
0010
0010
0100
0001
0001
0000
0000
0000
,
1000
0000
0001
0000
0100
0000
0001
0100
,
0002
1003
0001
0100
,
0010
0000
1000
0010
0100
0000
0000
0000
,
0010
0010
1000
0001
0001
0000
0000
0000
,
1000
0000
0010
0000
0100
0000
0001
1000
,
0200
0310
0001
0010
,
0100
0000
1000
0010
0100
0000
0000
0010
,
0000
1000
0001
0000
1000
0001
0100
0000
,
0001
0000
0000
0001
0000
0000
0000
0000
1000
0000
0010
0000
0000
0000
0100
0000
,
0000
0010
0100
0000
0001
1000
0010
0000
,
0100
0000
0000
0100
0000
0000
0000
0000
0010
0000
1000
0000
0000
0000
0001
0000
,
0000
1000
0001
0000
1000
0001
0100
0000
,
0001
0000
0000
0001
0000
0000
0000
0000
1000
0000
0010
0000
0000
0000
0100
0000
,
0000
0010
0100
0000
0001
1000
0010
0000
,
0100
0000
0000
0100
0000
0000
0000
0000
0010
0000
0010
0000
0000
0000
0100
0000
,
0100
0010
0010
1000
2002
3003
0000
0000
;

//---------------dance-single - Copied from Copied f----------------
#NOTES:
     dance-single:
     Copied from Copied f:
     Beginner:
     3:
     0.332,0.383,0.019,0.122,0.005: // measure 1
0000
0000
0000
0000
,  // measure 2
0000
0000
2000
0000
0000
3002
0000
0000
,  // measure 3
1003
0001
0100
0010
,  // measure 4
1000
0000
0000
0000
0000
0001
0100
0000
,  // measure 5
0010
1000
0100
0010
,  // measure 6
0001
1000
0020
0030
0100
0000
0001
0000
,  // measure 7
1000
0010
0200
0300
0010
0000
0010
0000
,  // measure 8
0100
0001
2000
3000
0010
0000
0100
0000
,  // measure 9
0001
1000
0010
0000
,  // measure 10
0000
0000
0010
0100
0000
0000
0100
0000
,  // measure 11
0010
0000
0100
0001
1000
0000
0002
0000
,  // measure 12
0000
0000
0000
0000
,  // measure 13
1003
0000
0000
0100
,  // measure 14
0001
1000
0001
0100
,  // measure 15
0010
0010
0100
0001
,  // measure 16
1000
0010
0100
0001
,  // measure 17
0001
1000
1000
0010
,  // measure 18
0000
0000
0000
0000
,  // measure 19
0000
0000
0000
0001
,  // measure 20
1000
0001
0100
0010
,  // measure 21
0100
0000
0001
0001
0001
0000
1000
1000
,  // measure 22
2000
3000
0001
0000
1000
0000
0010
0000
,  // measure 23
0100
0000
0001
0100
0100
0000
0000
0000
,  // measure 24
0000
0000
0000
2002
0000
3003
0000
0000
,  // measure 25
0000
0000
0000
0002
0000
0000
1003
0000
,  // measure 26
0010
0000
0100
0000
0000
0001
0000
0000
,  // measure 27
0001
0000
1000
0000
0000
0010
0000
0000
,  // measure 28
1000
0000
0001
0000
0100
0000
0000
0010
,  // measure 29
0000
0100
0010
1000
,  // measure 30
0100
0001
0010
1000
,  // measure 31
0100
0001
0010
1000
,  // measure 32
0001
0001
1000
1000
,  // measure 33
0010
0000
0010
0000
0010
0000
0000
0200
0000
0300
0000
0000
0000
0000
0000
0000
,  // measure 34
0000
0010
0100
0010
,  // measure 35
1000
0001
0100
0010
,  // measure 36
1000
0000
0001
0001
0000
1000
1000
0000
,  // measure 37
1000
0001
1000
0010
,  // measure 38
0100
0001
1000
0010
,  // measure 39
0100
0001
1000
0001
,  // measure 40
0100
0000
0001
0001
1000
0000
0010
0000
,  // measure 41
1000
0000
1000
1000
0001
0000
1000
0000
,  // measure 42
0010
0000
0100
0100
0001
0000
1000
0000
,  // measure 43
0010
0000
0010
0010
0001
0000
0010
0000
,  // measure 44
0100
0000
1000
0000
0000
1000
0000
0000
,  // measure 45
0100
0000
0010
0000
0000
0010
0000
0000
,  // measure 46
0000
0001
1000
0000
0010
0000
0100
0000
,  // measure 47
0010
0010
0000
1000
0001
0000
0000
0000
,  // measure 48
1000
0000
0001
0000
0100
0000
0001
0001
,  // measure 49
0001
0100
0001
0100
,  // measure 50
0010
0000
1000
1000
1000
0000
0000
0000
,  // measure 51
0010
0010
0000
1000
0001
0000
0000
0000
,  // measure 52
1000
0000
0010
0000
0100
0000
1000
1000
,  // measure 53
1000
0010
1000
0010
,  // measure 54
0100
0000
0001
1000
0100
0000
0000
0010
,  // measure 55
0000
0000
0001
0000
1000
0001
0100
0000
,  // measure 56
0001
0000
0000
0000
1000
0010
0000
0100
,  // measure 57
0000
0000
0100
0000
0001
1000
0010
0000
,  // measure 58
0100
0000
0000
0000
0010
1000
0000
0001
,  // measure 59
0000
0000
0001
0000
1000
0001
0100
0000
,  // measure 60
0001
0000
0000
0000
1000
0010
0000
0100
,  // measure 61
0000
0000
0100
0000
0001
1000
0010
0000
,  // measure 62
0100
0000
0000
0000
0010
0010
0000
0100
,  // measure 63
0000
0010
0000
1000
2002
3003
0000
0000
;
