#VERSION:0.83;
#TITLE:Lunatic Sprinter;
#SUBTITLE:;
#ARTIST:さわわ;
#TITLETRANSLIT:Lunatic Sprinter;
#SUBTITLETRANSLIT:;
#ARTISTTRANSLIT:Sawawa;
#GENRE:;
#ORIGIN:;
#CREDIT:;
#BANNER:;
#BACKGROUND:;
#PREVIEWVID:;
#JACKET:Lunatic Sprinter-jacket.png;
#CDIMAGE:;
#DISCIMAGE:;
#LYRICSPATH:;
#CDTITLE:;
#MUSIC:Lunatic Sprinter.mp3;
#OFFSET:1.699999;
#SAMPLESTART:23.439989;
#SAMPLELENGTH:12.000000;
#SELECTABLE:YES;
#BPMS:0.000=152.000,
32.000=153.000,
33.000=154.000,
34.000=156.000,
35.000=158.000,
36.000=160.000,
37.000=163.000,
38.000=165.000,
39.000=167.000,
40.000=169.000,
41.000=170.000,
42.000=172.000,
43.000=174.000,
44.000=177.000,
45.000=179.000,
46.000=182.000,
47.000=184.000,
48.000=185.000,
49.000=187.000,
50.000=190.000,
51.000=192.000,
52.000=193.000,
53.000=196.000,
54.000=199.000,
55.000=201.000,
56.000=202.000,
204.000=205.000;
#STOPS:;
#DELAYS:;
#WARPS:;
#TIMESIGNATURES:0.000=4=4;
#TICKCOUNTS:0.000=4;
#COMBOS:0.000=1;
#SPEEDS:0.000=1.000=0.000=0;
#SCROLLS:0.000=1.000;
#FAKES:;
#LABELS:0.000=Song Start;
#BGCHANGES:;
#KEYSOUNDS:;
#ATTACKS:
;

//---------------dance-single - ----------------
#NOTEDATA:;
#CHARTNAME:;
#STEPSTYPE:dance-single;
#DESCRIPTION:;
#CHARTSTYLE:;
#DIFFICULTY:Hard;
#METER:17;
#RADARVALUES:0.941793,1.349478,0.380499,0.397042,0.550069,797.000000,751.000000,46.000000,48.000000,0.000000,0.000000,0.000000,0.000000,0.000000,0.941793,1.349478,0.380499,0.397042,0.550069,797.000000,751.000000,46.000000,48.000000,0.000000,0.000000,0.000000,0.000000,0.000000;
#CREDIT:;
#NOTES:
0000
0000
0000
0000
,
0000
0000
0000
0000
0000
0000
0000
0000
0001
0000
1000
0100
1000
0000
0001
0000
,
0020
0000
0032
0000
,
2003
0000
0000
3010
0200
0000
0301
0100
,
0020
0000
1030
0001
0100
0010
1000
0100
,
0020
0000
0000
0000
0032
0000
0000
0000
1003
0000
0001
0100
0001
0000
1000
0000
,
1020
0000
0000
0000
0230
0000
0000
0300
,
0102
0000
0000
0000
1003
0000
0001
0000
0100
0000
0000
0000
0010
0000
0100
0001
,
0100
0000
0010
0000
1000
0000
0100
0000
0010
0000
0001
1000
0001
0000
1000
0000
,
0200
0000
0000
0000
0320
0000
0000
0000
0031
0000
1000
0001
1000
0000
0010
0100
,
0010
0100
0001
1000
0001
1000
0100
0000
1000
0100
1000
0100
0010
0001
0010
0000
,
0001
1000
0001
1000
0010
0100
0010
0000
1000
0010
1000
0010
0100
0001
0100
0000
,
0010
1000
0010
1000
0001
0010
0001
0000
0010
0100
0010
0100
1000
0001
1000
0000
,
0001
0100
0001
0100
0010
1000
0010
0000
0100
0010
0100
0010
1000
0001
1000
0000
,
0001
0000
0010
0000
0100
0000
1000
0000
0010
0000
0100
0010
0100
0000
0010
0000
,
1000
0001
1000
0010
0100
0001
0100
0010
,
1000
0001
1000
0100
0010
0100
0010
0001
,
1000
0010
1000
0000
0010
0100
0010
0000
0100
0001
0100
0000
0001
1000
0001
0000
,
1001
0100
0110
0001
,
1000
0000
0001
0010
0100
0000
1000
0001
,
0100
0000
0000
0000
0001
0000
1000
0000
0010
0000
1000
0001
0100
0000
0001
0000
,
0011
0000
0101
0000
1010
0000
1000
0010
,
0100
0001
1001
0100
,
1010
0000
0001
1000
0100
0000
0010
0001
,
1000
0000
0000
0000
0001
0000
1000
0000
0001
0000
0010
0100
1000
0000
0001
0000
,
0020
0000
0100
0000
0100
0000
0130
1000
,
1001
0010
0110
1000
,
0001
0000
1000
0100
0010
0000
0001
1000
,
0010
0000
0000
0000
1000
0000
0001
0000
0100
0000
0001
1000
0100
0000
1000
0000
,
1100
0000
1010
0000
0101
0000
0001
0100
,
0010
1000
1001
0100
,
0101
0000
1000
0001
0010
0000
0100
1000
,
0001
0000
0000
0000
1000
0000
0001
0000
1000
0000
0100
0010
0001
0000
1000
0000
,
0200
0000
0010
0000
0010
0000
0310
0001
,
0100
0001
1000
0100
1000
0010
0100
0001
,
0010
0001
1000
0100
1000
0010
0100
0010
,
1000
0001
0010
0001
1000
0010
1000
0002
,
0000
0103
0010
1000
1010
0000
1100
0000
,
0110
0010
0001
0010
0100
1000
0010
1000
,
1100
0000
0100
0000
0010
0000
0001
0000
0100
0000
0001
1000
0001
0000
0010
0000
,
0110
0000
0100
0000
1000
0000
0001
0000
0100
0000
0001
0010
0001
0000
0200
0000
,
0000
0000
0310
0000
1000
0000
0001
0000
1000
0000
0100
0000
0010
0000
0001
0100
,
0001
1000
0001
0010
0001
0100
0010
1000
,
0100
1000
0001
0010
0001
0100
0010
0100
,
0001
1000
0100
1000
0001
0100
0001
2000
,
0000
3010
0100
0001
1000
0010
1000
0100
,
0010
0100
1000
0100
0010
0001
0100
0001
,
0011
0010
0100
1000
0010
1000
0001
0100
,
0110
0000
0010
0000
0100
0000
0010
0000
0100
0000
0010
1000
0001
0000
1000
0001
,
0100
0010
0100
0010
0100
0010
0100
0010
0100
0000
0000
0001
0000
0000
1000
0000
,
2002
0000
0000
0000
0000
0000
3003
0001
1000
0000
0000
0000
0000
0000
0000
0000
,
0001
0100
0001
1000
,
0001
0010
0100
1000
0100
0010
0001
0000
,
0100
0000
0010
0000
1000
0000
0001
0100
,
0010
0000
1000
0000
0001
0000
0010
0100
1000
0001
1000
0001
0100
0010
0100
0010
,
1000
0010
0100
0001
,
0010
0100
0010
0001
1000
0010
1000
0000
,
0001
0000
0100
0000
0010
0000
1000
0001
,
2000
0010
0001
3001
,
0101
1010
0110
1001
,
0001
0010
0100
1000
0001
0100
0001
0000
,
0011
0000
1100
0000
0110
0000
1001
1000
,
0001
0000
0100
0000
0010
0000
1000
0010
0100
0001
1000
0001
1000
0100
0010
0100
,
1000
1010
0110
1001
,
0001
0010
0100
1000
0010
1000
0001
0000
,
1001
0000
0101
0000
1010
0000
0110
0010
,
2000
0000
0001
0000
0010
0010
0010
3010
,
1002
0100
1000
0100
,
1003
0000
0000
0100
0000
0000
0010
0000
0001
0000
1000
0000
0001
0000
0000
0000
,
0100
0100
0010
0010
1000
1000
0001
0000
,
0010
0000
0010
0000
0100
0000
0100
0000
1000
0000
1000
0000
0001
0000
0100
0010
,
0200
0001
0010
0001
,
0310
1000
0001
1000
0100
1000
0001
0000
,
0010
0010
0100
0100
1000
1000
0001
0001
,
0100
0000
0100
0000
0010
0000
0010
0000
1000
0000
1000
0001
0100
0000
0100
0001
,
2000
3200
0320
0032
,
0103
0000
0000
0010
0000
0000
1000
0000
0001
0000
1000
0000
0100
0000
0000
0000
,
0010
0001
0010
0100
1000
0010
1010
1000
,
0001
0100
0001
0100
0001
0100
0001
0000
1000
0000
0001
1000
0010
0000
1000
0000
,
1002
0203
0320
2030
,
3100
0010
0100
1000
0001
0100
0001
0000
,
1000
0000
0010
0000
0100
0000
0001
0000
1000
0000
0100
0010
0100
0000
1000
0000
,
0001
0000
0010
0000
0001
0000
1000
0000
0010
0000
0100
0010
0100
0000
0001
0000
,
0020
0230
2300
3002
,
0103
0000
0000
0010
0000
0000
1000
0000
0001
0000
0010
0000
0100
0000
0000
0000
,
2000
0000
3002
0000
0203
0000
0310
1000
,
0001
0000
0100
0000
0001
0000
1000
0001
1000
0001
1000
0001
0100
0010
0100
0010
,
0200
0320
2030
3002
,
1003
0010
0100
1000
0100
0001
0100
0000
,
0002
0000
0023
0000
0230
0000
1300
0001
,
2000
0000
0000
0000
0010
0000
0000
0000
3010
0000
0100
0010
0100
0000
0001
0000
,
1000
0001
1000
0001
1000
0001
1000
0001
1000
0001
1000
0001
1000
0001
1000
0001
,
0100
0010
0100
0010
0100
0010
0100
0010
0100
0010
0100
0010
0100
0010
0100
0010
,
0100
0001
0010
0001
0010
0001
0010
0001
0010
0001
0010
0001
0010
0001
0010
0001
,
1000
0100
1000
0100
1000
0100
1000
0100
1000
0100
1000
0100
1000
0100
1000
0100
,
1000
0010
0100
0010
0100
0010
0100
0010
0100
0010
0100
0010
0100
0010
0100
0010
,
0100
0001
1000
0001
1000
0001
1000
0001
1000
0001
1000
0001
1000
0001
1000
0001
,
1000
0001
0100
0001
0100
0001
0100
0001
0100
0001
0100
0001
0100
0001
0100
0000
,
0110
0000
1001
0000
0101
0000
0220
0330
;

//---------------dance-single - ----------------
#NOTEDATA:;
#CHARTNAME:;
#STEPSTYPE:dance-single;
#DESCRIPTION:;
#CHARTSTYLE:;
#DIFFICULTY:Medium;
#METER:13;
#RADARVALUES:0.775177,0.817865,0.322597,0.438401,0.028951,656.000000,617.000000,39.000000,53.000000,0.000000,0.000000,0.000000,0.000000,0.000000,0.775177,0.817865,0.322597,0.438401,0.028951,656.000000,617.000000,39.000000,53.000000,0.000000,0.000000,0.000000,0.000000,0.000000;
#CREDIT:;
#NOTES:
0000
0000
0000
0000
,
0000
0000
0000
0000
1000
0000
0010
0100
,
0002
0000
0203
0000
,
0320
0000
0000
1030
0200
0000
0310
0001
,
0020
0000
0130
1000
0010
1000
0001
0010
,
0200
0000
0320
0000
0032
0000
0103
0010
,
2000
0000
3002
0000
,
0203
0000
0310
1000
0001
0000
0100
0001
,
1000
0000
0001
0010
0100
1000
0001
0010
,
0200
2300
3200
0320
,
0031
0100
0001
0010
0001
0100
0001
1000
,
0010
0100
0010
1000
0010
0100
0001
1000
,
0100
0010
0100
1000
0010
0100
0001
1000
,
0001
0010
0100
0010
0001
1000
0010
0100
,
0010
1000
0001
0010
0001
0100
0010
0100
,
0001
0010
0100
1000
0010
0100
0001
1000
,
0010
0100
0001
1000
0100
1000
0001
0010
,
0001
1000
0100
1000
0010
0100
0010
0100
,
1001
0001
0101
0100
,
0010
0000
1000
0001
0100
0000
0010
1000
,
0001
0000
0010
0001
0100
0001
0010
0100
,
1100
0000
1001
0000
0011
0000
0010
0001
,
0100
0010
0110
0100
,
0101
0000
0001
1000
0100
0000
0010
0001
,
1000
0000
0010
1000
0001
0100
0001
0010
,
0200
0000
1000
0000
1000
0000
1300
0001
,
0010
0100
1100
1000
,
0001
0000
1000
0001
0100
0000
0010
1000
,
0001
0000
0100
0010
1000
0001
0010
0100
,
0110
0000
0011
0000
1001
0000
1000
0001
,
0100
0010
1010
1000
,
1001
0000
0001
0010
0100
0000
1000
0100
,
0010
0000
0001
0010
0100
1000
0010
0100
,
0002
0000
1000
0000
1000
0000
1003
0010
,
1000
0001
0100
0001
1000
0100
1000
0010
,
0100
0010
1000
0001
0010
0100
0010
0001
,
1000
0100
0010
0100
1000
0010
0100
0002
,
0000
1003
0010
1000
1001
0000
0110
0000
,
1001
0001
1000
0100
1000
0001
0100
0001
,
0101
0100
0010
1000
0001
1000
0010
1000
,
1010
0010
0100
0001
0010
0001
1000
0020
,
0000
0130
0001
0010
0100
1000
0001
0010
,
0001
1000
0010
1000
0001
0100
0001
0010
,
0100
1000
0010
0100
1000
0100
0001
0010
,
0100
0010
0001
1000
0001
0010
0100
2000
,
0000
3010
1000
0100
0010
1000
0010
0001
,
0100
0010
1000
0001
0010
0001
1000
0001
,
1001
1000
0010
0100
0001
0100
1000
0100
,
0110
0010
0100
0001
1000
0100
1000
0001
,
0010
0000
1000
0000
0010
0000
0001
0000
0010
0000
0000
0100
0000
0000
1000
0000
,
2002
0000
3003
0000
,
0001
1000
0001
1000
,
0001
0010
0100
1000
0001
0010
0100
0000
,
1000
0000
0010
0000
0100
0000
0001
1000
,
0010
0000
0100
0000
0001
0000
1000
0000
0010
0000
0100
0000
0001
0000
1000
0010
,
1000
0100
0010
0001
,
0100
0010
0100
0001
1000
0001
0010
0000
,
0100
0000
1000
0000
0010
0000
0100
0001
,
0200
0010
0010
0310
,
1010
1010
0101
0101
,
0001
1000
0010
1000
0001
0100
0001
0000
,
1001
0000
0110
0000
1010
0000
0101
0001
,
1000
0000
0010
0000
0100
0000
0001
0000
0010
0000
0001
0000
1000
0000
0010
0100
,
0010
0110
1010
0101
,
0001
0100
0001
1000
0100
1000
0010
0000
,
0110
0000
0101
0000
1001
0000
1010
0010
,
0200
0000
0302
0000
0103
0010
0100
0010
,
2000
0001
0001
0001
,
3001
0000
0000
0010
0000
0000
0001
0000
1000
0000
0001
0000
1000
0000
0000
0000
,
0001
0010
0001
1000
0100
1000
0001
0000
,
0100
0010
0100
1000
0100
0010
0100
0001
,
0020
0001
0001
0001
,
0031
0100
0001
1000
0010
1000
0001
0000
,
0100
0001
0100
0001
0010
0100
1000
0100
,
0010
0001
1000
0100
1000
0001
0010
0001
,
2000
3200
0320
0032
,
0013
0000
0000
0001
0000
0000
0100
0000
0010
0000
1000
0000
0010
0000
0000
0000
,
0100
0001
0100
0010
1000
0010
0100
0001
,
0010
0001
1000
0100
1000
0001
0100
0001
,
0020
0230
2300
3002
,
0013
0001
1000
0100
0010
0001
1000
0000
,
0001
0100
0001
1000
0100
1000
0001
0100
,
0010
0100
0001
0010
0100
1000
0001
1000
,
0002
0203
0320
2030
,
3010
0000
0000
0100
0000
0000
0010
0000
1000
0000
0001
0000
1000
0000
0000
0000
,
0020
0000
0230
0000
0302
0000
0013
0100
,
1000
0000
0010
0000
1000
0000
0010
0000
0100
0000
0001
0000
0010
0000
0100
1000
,
0200
0320
0032
2003
,
3001
0010
0001
1000
0010
1000
0002
0000
,
0023
0000
0230
0000
0320
0000
0031
1000
,
0002
1000
1000
1003
,
0001
0100
1000
0100
0001
0100
1000
0100
,
0001
0010
1000
0010
0001
0010
1000
0010
,
0001
1000
0100
1000
0001
1000
0100
1000
,
0001
0100
0010
0100
0001
0100
0010
0100
,
0001
0010
0100
0010
0001
0010
0100
0010
,
0001
1000
0100
1000
0001
1000
0100
1000
,
0001
0010
0100
1000
0001
0010
0100
1000
,
0001
0000
0101
0000
1001
0000
0220
0330
;

//---------------dance-single - ----------------
#NOTEDATA:;
#CHARTNAME:;
#STEPSTYPE:dance-single;
#DESCRIPTION:;
#CHARTSTYLE:;
#DIFFICULTY:Easy;
#METER:6;
#RADARVALUES:0.453762,0.572506,0.256423,0.413585,0.000000,384.000000,353.000000,31.000000,50.000000,0.000000,0.000000,0.000000,0.000000,0.000000,0.453762,0.572506,0.256423,0.413585,0.000000,384.000000,353.000000,31.000000,50.000000,0.000000,0.000000,0.000000,0.000000,0.000000;
#CREDIT:;
#NOTES:
0000
0000
0000
0000
,
0000
0000
0001
1000
,
0002
0000
2003
0000
,
3002
0000
0203
0302
,
0023
0230
2300
3002
,
0203
0320
2030
3002
,
2003
0000
3020
0000
,
0230
0310
1000
0100
,
1000
0001
0100
0001
,
0100
0010
0100
0010
,
1000
0001
1000
0001
,
1000
0001
1000
0001
,
1000
0001
1000
0001
,
1000
0001
1000
0001
,
1000
0010
0100
0010
,
1000
0010
0100
0001
,
0010
0001
1000
0100
,
1000
0010
0100
0010
,
1001
0000
0001
0000
,
1000
0000
0000
0001
1000
0000
0001
0000
,
0010
0001
1000
0010
,
1000
0001
0100
0010
,
0100
0010
0110
0000
,
1000
0000
0000
0001
0100
0000
0010
0000
,
1000
0010
1000
0001
,
0100
0010
1000
0010
,
0100
0000
1001
0000
,
0001
0000
0000
0001
0100
0000
0010
0000
,
1000
0100
1000
0010
,
1000
0001
0010
0001
,
1000
0000
0110
0000
,
0001
0000
0000
0010
0100
0000
1000
0000
,
0100
0010
0001
1000
,
0002
0000
0000
0000
,
1003
0100
1000
0010
,
0100
0010
1000
0001
,
0100
0000
0010
0000
1000
0000
0010
0200
,
0000
0300
0001
0000
1000
0000
1000
0000
,
1001
0001
0100
0010
,
1001
0100
0010
1000
,
1001
0000
0010
0000
0100
0000
0001
0020
,
0000
0030
0001
0000
1000
0000
0010
0000
,
0100
0010
1000
0001
,
0010
0100
1000
0010
,
0100
0000
0001
0000
0010
0000
0100
2000
,
0000
3000
1000
0000
0100
0000
0010
0000
,
0100
1000
0010
0100
,
1001
0010
0100
0001
,
1001
0100
1000
0010
,
0100
0001
1000
0010
,
2002
0000
3003
0000
,
0001
0100
0001
1000
,
0010
0100
0001
0010
,
0001
0010
0100
1000
,
0100
1000
0020
0000
,
0130
0001
0100
0010
,
1000
0010
1000
0001
,
0010
0001
1000
0100
,
2000
0000
0000
3000
,
1001
1001
0110
0110
,
0001
1000
0010
0100
,
1001
1001
0110
0110
,
0010
1000
0010
0100
,
0001
0100
0010
1000
,
0100
0010
0001
1000
,
0101
0101
1010
1010
,
0002
0000
0000
0003
,
1001
1001
0110
0110
,
0001
1000
0100
1000
,
0010
0100
0010
0100
,
0001
1000
0100
1000
,
0011
0011
1100
1100
,
0001
1000
0100
1000
,
0010
0100
0001
0100
,
0010
1000
0010
0100
,
0002
0003
2000
3000
,
0020
0030
0100
0000
,
0010
0100
0010
1000
,
0001
1000
0010
0100
,
0020
0030
2000
3000
,
0200
0300
0020
0030
,
0001
0010
0100
1000
,
0010
0100
0010
1000
,
0002
0203
0320
2030
,
3001
0000
0100
0001
,
2000
3020
0230
0301
,
1000
0100
1000
0010
,
0200
0320
0230
0302
,
1003
0010
1000
0002
,
0023
0230
0320
0130
,
2000
0000
0000
3000
,
0001
1000
0001
1000
,
0001
1000
0001
1000
,
0001
0100
0001
0100
,
0001
0010
0001
0010
,
0001
0100
0010
0100
,
0010
0100
0010
0100
,
0010
1000
0001
1000
,
0001
0000
0100
0000
0100
0000
2002
3003
;

//---------------dance-single - ----------------
#NOTEDATA:;
#CHARTNAME:;
#STEPSTYPE:dance-single;
#DESCRIPTION:;
#CHARTSTYLE:;
#DIFFICULTY:Beginner;
#METER:4;
#RADARVALUES:0.243425,0.286253,0.008272,0.297782,0.000000,206.000000,205.000000,1.000000,36.000000,0.000000,0.000000,0.000000,0.000000,0.000000,0.243425,0.286253,0.008272,0.297782,0.000000,206.000000,205.000000,1.000000,36.000000,0.000000,0.000000,0.000000,0.000000,0.000000;
#CREDIT:;
#NOTES:
// measure 0
0000
0000
0000
0000
,  // measure 1
0000
0000
0001
0000
,  // measure 2
2000
0000
3002
0000
,  // measure 3
2003
0000
3020
0030
,  // measure 4
0200
0300
0002
0003
,  // measure 5
0020
0030
0002
0003
,  // measure 6
0002
0000
0203
0000
,  // measure 7
0300
0100
0000
0010
,  // measure 8
0000
1000
0000
0001
,  // measure 9
0000
0100
0000
0001
,  // measure 10
0000
1000
0000
0001
,  // measure 11
0000
1000
0000
0001
,  // measure 12
0000
1000
0000
0001
,  // measure 13
0000
1000
0000
0001
,  // measure 14
0000
0100
0000
0001
,  // measure 15
0000
0100
0000
0001
,  // measure 16
0000
1000
0000
0010
,  // measure 17
0000
0100
0000
0010
,  // measure 18
0010
0000
1000
0000
,  // measure 19
0010
0000
0001
0000
,  // measure 20
0100
0000
0001
0000
,  // measure 21
0100
0000
0010
0000
,  // measure 22
0100
0000
0010
0000
,  // measure 23
0100
0000
0010
0000
,  // measure 24
0001
0000
0001
0000
,  // measure 25
0010
0000
0001
0000
,  // measure 26
0010
0000
0001
0000
,  // measure 27
1000
0000
0010
0000
,  // measure 28
0001
0000
1000
0000
,  // measure 29
0001
0000
0100
0000
,  // measure 30
0001
0000
0010
0000
,  // measure 31
1000
0000
0010
0000
,  // measure 32
0100
0000
1000
0000
,  // measure 33
2000
0000
0000
0000
,  // measure 34
3001
0000
1000
0000
,  // measure 35
0010
0000
1000
0000
,  // measure 36
0010
0000
0000
0000
0001
0000
0000
0020
,  // measure 37
0000
0030
1000
0000
0000
0000
0001
0000
,  // measure 38
0001
0000
0010
0000
,  // measure 39
0001
0000
0100
0000
,  // measure 40
0001
0000
0000
0000
0010
0000
0000
0200
,  // measure 41
0000
0300
1000
0000
0000
0000
0100
0000
,  // measure 42
0000
0001
0000
1000
,  // measure 43
0000
0010
0000
0100
,  // measure 44
0000
0000
1000
0000
0000
0000
0000
0002
,  // measure 45
0000
0003
0001
0000
0000
0000
0100
0000
,  // measure 46
0000
0001
0000
1000
,  // measure 47
1000
0000
0010
0000
,  // measure 48
0001
0000
1000
0000
,  // measure 49
0010
0000
0001
0000
,  // measure 50
2000
0000
3000
0000
,  // measure 51
1000
0000
0100
0000
,  // measure 52
1000
0000
0010
0000
,  // measure 53
1000
0000
0010
0000
,  // measure 54
0100
0000
0200
0000
,  // measure 55
0310
0000
0001
0000
,  // measure 56
0010
0000
0001
0000
,  // measure 57
0100
0000
0001
0000
,  // measure 58
0002
0000
0000
0003
,  // measure 59
1000
1000
0001
0001
,  // measure 60
1000
0000
0010
0000
,  // measure 61
0100
0100
0001
0001
,  // measure 62
0100
0000
0100
0000
,  // measure 63
1000
0000
0100
0000
,  // measure 64
0010
0000
1000
0000
,  // measure 65
1000
1000
0001
0001
,  // measure 66
2000
0000
0000
3000
,  // measure 67
1000
0010
0100
0010
,  // measure 68
1000
0000
0010
0000
,  // measure 69
0100
0000
0010
0000
,  // measure 70
1000
0000
0010
0000
,  // measure 71
1000
1000
0001
0001
,  // measure 72
1000
0000
0010
0000
,  // measure 73
0100
0000
1000
0000
,  // measure 74
0100
0000
0010
0000
,  // measure 75
2000
3000
0002
0003
,  // measure 76
0200
0300
0010
0000
,  // measure 77
0100
0000
0010
0000
,  // measure 78
1000
0000
0010
0000
,  // measure 79
0200
0300
0002
0003
,  // measure 80
0020
0030
0200
0300
,  // measure 81
1000
0000
0010
0000
,  // measure 82
0100
0000
0010
0000
,  // measure 83
2000
3000
0200
0302
,  // measure 84
0003
0000
0010
0000
,  // measure 85
0002
0003
0020
0030
,  // measure 86
0001
0000
0001
0000
,  // measure 87
0020
0030
0200
0300
,  // measure 88
0001
0000
0001
2000
,  // measure 89
3000
0010
0000
0100
,  // measure 90
0002
0000
0000
0003
,  // measure 91
1000
0000
0001
0000
,  // measure 92
1000
0000
0001
0000
,  // measure 93
1000
0000
0001
0000
,  // measure 94
1000
0000
0001
0000
,  // measure 95
1000
0000
0001
0000
,  // measure 96
0100
0000
0001
0000
,  // measure 97
0100
0000
0001
0000
,  // measure 98
1000
0000
0001
0000
0001
0000
2002
3003
;
