#TITLE:ロプノールの商隊;
#SUBTITLE:;
#ARTIST:Akhuta;
#TITLETRANSLIT:Lop Nur no shoutai;
#SUBTITLETRANSLIT:;
#ARTISTTRANSLIT:Akhuta;
#GENRE:;
#CREDIT:;
#BANNER:;
#BACKGROUND:;
#LYRICSPATH:;
#CDTITLE:;
#MUSIC:Lop Nur no shoutai.mp3;
#OFFSET:0.550000;
#SAMPLESTART:11.889999;
#SAMPLELENGTH:12.000000;
#SELECTABLE:YES;
#BPMS:0.000000=186.080002
;
#STOPS:
;
#BGCHANGES:0.000=Lop Nur no shoutai.avi=1.000=0=0=0=StretchNoLoop====,
99999=-nosongbg-=1.000=0=0=0 // don't automatically add -songbackground-
;
#KEYSOUNDS:;
#ATTACKS:;

//---------------dance-single - ----------------
#NOTES:
     dance-single:
     :
     Hard:
     16:
     0.856186,1.147367,0.377956,0.152982,0.566934,666.000000,624.000000,42.000000,17.000000,0.000000,0.000000,0.856186,1.147367,0.377956,0.152982,0.566934,666.000000,624.000000,42.000000,17.000000,0.000000,0.000000:
0000
0000
0000
0000
,
0100
0000
0000
0001
0000
0000
1000
0000
,
0000
0001
0000
0000
1000
0000
0010
0000
,
1000
0000
0000
0000
0001
0000
0000
0100
0000
0000
0010
0000
0000
1000
0000
0000
,
0001
0000
0010
0000
0100
0000
1000
0000
0100
0000
0010
0001
0010
0000
0000
0100
,
0000
0000
1000
0000
0000
0100
0000
0000
0010
0000
0001
0000
1000
0000
0010
0000
,
1000
0000
0000
0001
0000
0000
0010
0000
,
0000
0000
0000
0000
0000
0000
0100
0000
0000
0000
0000
0000
1000
0000
0000
0000
0010
0000
0000
0000
0100
0000
0000
0000
0001
0000
0000
0000
0000
0000
1000
0000
0000
0000
0000
0000
0000
0000
0000
0001
0000
0000
0000
0000
0000
0000
0000
0000
,
1000
0000
0000
0000
0000
0000
0000
0000
0000
0010
0000
0000
0000
0000
0000
0000
0000
0000
0100
0000
0000
0000
0000
0000
0001
0000
0000
0000
1000
0000
0000
0000
0010
0000
0000
0000
0100
0000
0000
0000
0001
0000
0000
0000
1000
0000
0000
0000
,
0010
0000
0010
0100
0001
0010
0100
1000
,
0001
0010
0100
0100
1000
1000
0001
1000
,
0001
0000
0100
0100
0010
1000
0001
0100
,
0010
0000
1000
0000
0001
0000
1000
0001
0100
0000
0000
0000
0110
0000
0000
0000
,
1000
0001
1000
0000
0100
0000
0010
0001
0010
0000
0001
0000
0100
0010
0100
0000
,
0001
0000
1000
0100
1000
0000
0100
0000
0010
0000
0010
0000
0001
0000
0001
0000
,
0010
0000
0100
0000
1000
0000
0010
1000
0001
0000
0100
0000
0010
0100
0001
0000
,
0010
0000
0100
1000
0010
0000
1000
0000
0100
0010
0001
0000
0100
0000
0100
0000
,
2002
0000
0000
0000
0000
0000
0000
3003
,
0110
0000
0000
0000
0000
0000
1000
0001
0100
0000
0000
0000
0101
0000
0000
0000
,
0001
0010
0100
1000
0010
0000
1010
0000
,
1100
0000
0000
0000
0000
0000
0100
0010
0001
0000
0000
0000
0011
0000
0000
0000
,
0010
0100
0010
0001
1000
0001
0100
0010
,
0100
0000
0000
0000
0000
0000
0010
0100
1000
0000
0000
0000
1100
0000
0000
0000
,
0100
0001
1000
0010
0200
0000
0320
0000
,
2030
0000
3001
0100
0000
0100
0010
1000
,
0100
0000
0010
0000
0001
0000
0010
0100
0010
0000
0100
1000
0100
0000
0010
0000
,
0110
0000
0000
0000
1000
0000
0001
1000
0010
0000
0000
0000
1010
0000
0000
0000
,
1000
0100
0010
0001
0100
0000
0101
0000
,
0011
0000
0000
0000
0001
0000
0010
0100
1000
0000
0000
0000
1100
0000
0000
0000
,
0100
0010
0100
1000
0001
1000
0010
0100
,
0010
0000
0000
0000
1000
0000
0100
0010
0001
0000
0000
0000
0011
0000
0000
0000
,
0010
0100
1000
0001
0020
0000
0230
0000
,
1300
0000
0010
0100
0001
0000
0010
0000
0100
0000
1000
0000
0010
0000
0100
0000
,
1000
0100
0001
0010
0100
0000
1100
0000
,
1001
0000
0000
0000
0010
0000
0000
0000
0101
0000
0001
1000
0001
0000
0010
0000
,
0100
0000
1000
0010
1000
0000
0010
0000
1000
0000
0001
0000
0010
0001
0010
0000
,
0000
0000
0110
0000
0000
0000
0100
1000
0100
0000
0000
0000
1000
0001
1000
0000
,
0010
0100
0010
0100
0001
0000
0000
1000
0000
0000
0010
0000
0000
1000
0000
0000
,
1001
0000
0000
0000
0001
0000
0000
0000
1010
0000
1000
0001
1000
0000
0010
0000
,
0100
0000
0001
1000
0001
0000
0000
0000
0101
0000
0000
0000
0100
0010
1000
0000
,
0000
0000
1100
0000
0000
0000
0100
0010
0001
0000
0000
0000
1000
0010
0100
0001
,
1000
0000
0000
0000
0001
0000
0000
0000
0011
0000
0010
0000
0000
0100
0000
0000
,
2200
0000
0000
0000
0000
0000
3300
0000
1001
0000
0000
1010
0000
0000
0110
0000
,
0000
1001
0000
0000
1010
0000
0000
0101
0000
0000
1010
0000
0000
0000
0000
0000
,
0100
0000
0001
0000
1000
0000
0100
0000
0010
0000
0001
1000
0010
0000
0100
0000
,
0010
1000
0100
0020
0000
0031
1000
0100
,
1000
0000
0010
0100
0001
0000
0010
0000
0100
0000
0010
0000
0001
0000
1000
0100
,
0010
0100
1000
0002
0000
0103
0010
1000
,
0010
0100
0001
0010
0100
1000
0001
0100
,
0010
1000
0001
0020
0000
0130
0010
0001
,
1000
0000
0010
0100
0010
0000
1000
0000
0100
0000
1000
0000
0001
0000
0100
0000
,
0001
0010
1000
0020
0000
0031
0100
0000
,
0001
1000
0001
1000
0100
0000
0000
0000
0010
0001
1000
0001
1000
0000
0000
0000
,
0010
0100
0010
1000
0001
0000
1000
0000
1001
0000
0000
0000
0000
0000
0000
0000
,
0001
0010
0000
0000
0000
0000
0100
0000
0000
0000
0000
0000
1000
0001
0000
0000
0000
0000
0100
0000
0000
0000
0000
0000
,
0010
0000
1000
0000
0000
0000
0000
0000
0000
0000
0000
0000
0100
0000
0000
0000
0000
0000
0010
0000
0000
0000
0000
0000
0001
0000
0000
0000
0000
0000
0000
0000
0000
0000
0000
0000
0100
0000
0000
0001
0000
0000
1000
0000
0000
0001
0000
0000
,
0100
0000
0010
1000
0001
0000
1000
0000
0100
0000
1000
0000
0001
0000
0100
0000
,
0001
0000
0000
0010
0000
0000
0100
0000
0010
0000
0000
0000
0001
0000
0000
0000
,
1000
0000
0010
1000
0001
0000
0100
0000
0010
0000
1000
0000
0001
0000
0100
0000
,
1000
0000
0000
0100
0000
0000
0001
0000
0010
0000
0000
0000
0100
1000
0100
0010
,
0001
0000
0100
0010
0100
0000
0001
0000
1000
0000
0100
0000
1000
0000
0010
0000
,
0100
0000
0000
0001
0000
0000
1000
0000
0100
0000
0000
0000
1000
0000
0000
0000
,
1010
0000
0000
0110
0000
0000
0001
0000
0100
0000
0000
0101
0000
0000
0001
0000
,
0010
0000
0000
0110
0000
0000
0100
0000
1000
0000
0000
0000
0010
1000
0001
1000
,
0010
0000
0100
0001
1000
0000
0001
0000
0010
0000
0001
0000
1000
0000
0010
0000
,
1000
0000
0000
0100
0000
0000
0010
0000
0001
0000
0000
0000
1100
0000
0000
0000
,
0001
0000
0100
0001
1000
0000
0010
0000
0100
0000
0001
0000
1000
0000
0010
0000
,
0001
0000
0000
0010
0000
0000
1000
0000
0100
0000
0000
0000
0010
0001
0010
0100
,
1000
0000
0010
0100
0010
0000
1000
0000
0001
0000
0010
0000
0001
0000
0100
0000
,
0010
0000
0000
1000
0000
0000
0001
0000
0010
0000
0000
0110
0000
0000
0100
0000
,
1100
0000
1000
1010
0000
0010
0110
0100
,
0001
0000
1000
0000
0100
0000
0010
0000
0001
0000
1000
0000
,
0010
0000
1000
0000
0010
0000
0100
0000
0001
0000
0000
0010
0000
0000
0100
0000
,
1000
0000
0001
1000
0001
0000
1000
0000
0010
0000
0100
0001
0100
0000
0010
0000
,
1000
0001
0010
0100
0010
0001
1000
0100
0010
0001
1000
0010
1000
0001
0010
0001
,
1000
0100
1000
0010
0100
0010
1000
0001
0200
0000
0000
0000
0302
0000
0000
0000
,
1003
0010
0100
0001
1000
0000
0001
0000
0010
0001
0010
0100
1000
0000
0100
0000
,
0010
0001
1000
0001
0100
0000
0010
0000
1000
0001
1000
0010
0100
0000
0001
0000
,
0100
0001
1000
0000
0010
0000
1000
0001
0100
0000
0010
0000
1000
0010
0100
0000
,
0010
0000
1000
0010
0100
0001
0100
0000
0010
0000
1000
0000
0100
0000
0010
0000
,
0001
0000
0000
0000
1000
0000
0001
0100
0010
0000
1000
0000
0100
0010
0001
0000
,
0010
0000
0100
1000
0001
0000
1000
0000
0010
0000
0010
0000
0100
0000
0100
0000
,
0001
1000
0010
0000
0100
0000
0001
0010
0100
0000
1000
0000
0010
0100
0001
0000
,
0010
0000
0100
1000
0010
0000
0100
0000
0001
0000
1000
0000
0220
0000
0000
0000
,
0000
0000
0000
0000
,
0330
0000
0000
0000
;

//---------------dance-single - ----------------
#NOTES:
     dance-single:
     :
     Medium:
     13:
     0.700633,0.726666,0.260970,0.152982,0.211475,545.000000,516.000000,29.000000,17.000000,0.000000,0.000000,0.700633,0.726666,0.260970,0.152982,0.211475,545.000000,516.000000,29.000000,17.000000,0.000000,0.000000:
0000
0000
0000
0000
,
1000
0000
0000
0100
0000
0000
0010
0000
,
0000
0001
0000
0000
1000
0000
0100
0000
,
1000
0000
0000
0000
0001
0000
0000
0100
0000
0000
0001
0000
0000
0100
0000
0000
,
0010
0000
1000
0000
0010
0000
1000
0000
0001
0000
0100
0000
0001
0000
0000
0010
,
0000
0000
0100
0000
0000
0010
0000
0000
0100
0000
1000
0000
0010
0000
1000
0000
,
0001
0000
0000
0100
0000
0000
0010
0000
,
0000
0000
1000
0000
0001
0000
0000
0000
1000
0000
0010
0000
0000
0100
0000
0000
,
0001
0000
0000
0010
0000
0000
0100
0000
1000
0000
0100
0000
0010
0000
0001
0000
,
1000
0000
0001
0100
0001
1000
0100
1000
,
0001
0010
0001
0001
1000
1000
0010
0100
,
0010
0000
1000
1000
0001
0100
0010
1000
,
0100
0000
1000
0000
0001
0000
0100
0010
0100
0000
0000
0000
1001
0000
0000
0000
,
0010
0001
0000
0000
0000
0000
0010
0100
0000
0000
0000
0000
0100
1000
0000
0000
,
0000
0000
1000
0001
0000
0000
0000
0000
0100
0000
0100
0000
0010
0000
0010
0000
,
1000
0001
1000
0010
0100
0001
0010
0001
,
1000
0100
1000
0010
0100
0010
0100
0001
,
2000
0000
0000
0000
,
3001
0000
0000
1000
0100
0000
0010
0000
,
0001
0010
0100
1000
0010
0000
1010
0000
,
1010
0000
0000
0100
0001
0000
0100
0000
,
0010
0100
0001
1000
0010
0100
0001
0010
,
0100
0000
0000
1000
0100
0000
0010
0000
,
0001
0010
0100
1000
0200
0000
0320
0000
,
0032
0000
1003
0001
0000
0001
1000
0010
,
1000
0001
0010
0001
1000
0100
1000
0010
,
0100
0000
0001
1000
0010
0000
0100
0000
,
0001
1000
0010
0100
0001
0000
0011
0000
,
0011
0000
0010
0100
1000
0000
0100
0000
,
0010
0001
0010
0100
1000
0001
1000
0010
,
0100
0000
0010
1000
0001
0000
0100
0000
,
0001
1000
0001
0100
0002
0000
2003
0000
,
3100
0010
0001
1000
0100
0010
0001
1000
,
0010
0100
0001
1000
0001
0000
0100
0000
,
1001
0001
0101
0100
,
0110
0010
1010
1000
,
1100
0100
0110
0010
,
0011
0000
0000
0000
0001
0000
0000
1000
0000
0000
0010
0000
0000
1000
0000
0000
,
1100
0100
0110
0010
,
0011
0001
0101
0100
,
0110
0010
1010
1000
,
1001
0000
0000
0000
0001
0000
0000
0000
1000
0000
0010
0000
0000
0100
0000
0000
,
0002
0000
0000
0000
0000
0000
0003
0000
1000
0000
0000
1000
0000
0000
1010
0000
,
0000
0010
0000
0000
0110
0000
0000
0100
0000
0000
0100
0000
0000
0000
0000
0000
,
0001
1000
0100
1000
0001
0100
0001
1000
,
0100
1000
0010
0200
0000
0301
1000
0001
,
0100
0010
1000
0100
0010
0100
1000
0001
,
0010
0001
0100
0020
0000
1030
0001
1000
,
0010
0100
0010
0100
0001
0010
0100
0010
,
0001
1000
0100
0020
0000
0031
1000
0010
,
0100
0001
1000
0010
0100
0001
0010
0100
,
0010
0001
0010
0200
0000
1300
0100
0000
,
0010
0001
0010
0000
0100
0000
0000
0000
1000
0100
1000
0000
0001
0000
0000
0000
,
0100
0010
0100
0000
0001
0000
1000
0000
0001
0000
0000
0000
0000
0000
0000
0000
,
1001
1000
1010
0010
,
0110
0000
0000
0000
0100
0000
0001
0000
1000
0000
0000
0000
0100
1000
0100
0000
,
0010
0000
0001
1000
0001
0000
0100
0000
0010
0000
0100
0000
0001
0000
1000
0000
,
0100
0000
0000
0010
0000
0000
0001
0000
1000
0000
0000
0000
0010
0000
0000
0000
,
0100
0001
1000
0010
1000
0001
0010
0100
,
0010
0000
0000
0100
0000
0000
1000
0000
0001
0000
0000
0000
0100
0001
0100
0000
,
0010
0000
1000
0010
1000
0000
0001
0000
1000
0000
0100
0000
1000
0000
0010
0000
,
0100
0000
0000
0001
0000
0000
0100
0000
0010
0000
0000
0000
1000
0000
0000
0000
,
0001
0000
0000
0001
0000
0000
1000
0000
0100
0000
0000
0100
0000
0000
0010
0000
,
0001
0000
0000
0001
0000
0000
0010
0000
0100
0000
0000
0000
1000
0100
1000
0000
,
0001
0000
0100
0001
0100
0000
0010
0000
1000
0000
0100
0000
0010
0000
0001
0000
,
1000
0000
0000
0010
0000
0000
0100
0000
0010
0000
0000
0000
1000
0000
0000
0000
,
0001
0100
0010
0100
0001
1000
0010
1000
,
0100
0000
0000
0010
0000
0000
0100
0000
1000
0000
0000
0000
1000
0001
1000
0000
,
0010
0000
0100
0001
0100
0000
0010
0000
1000
0000
0100
0000
1000
0000
0001
0000
,
0100
0000
0000
0100
0000
0000
0010
0000
1000
0000
0000
1000
0000
0000
0001
0000
,
0010
0000
0010
0100
0000
0100
1000
0001
,
0200
0000
0000
0000
0020
0000
0000
0330
,
0001
0000
1000
0000
0010
0000
1000
0000
0001
0000
0000
0100
0000
0000
0010
0000
,
0100
0000
0001
0010
0001
0000
0100
0000
0010
0000
1000
0100
1000
0000
0001
0000
,
0100
0010
0000
0000
0010
1000
0000
0000
1000
0001
0000
0000
0001
0010
0000
0000
,
0010
0100
0000
0000
0100
1000
0000
0000
2000
0000
0000
0000
3002
0000
0000
0000
,
1003
0010
0100
0001
0010
0001
1000
0100
,
1000
0010
0100
0010
1000
0001
1000
0010
,
0110
0000
1000
1001
0000
0010
1010
0000
,
0100
0101
0000
0001
0010
0100
0010
0001
,
1000
0000
0010
0100
0010
1000
0001
1000
,
0010
0100
0001
0010
0001
0001
1000
1000
,
0100
0010
0100
1000
0010
0100
0001
1000
,
0010
0100
0001
1000
0100
0010
2002
0000
,
0000
0000
0000
0000
,
3003
0000
0000
0000
;

//---------------dance-single - ----------------
#NOTES:
     dance-single:
     :
     Easy:
     6:
     0.411381,0.458947,0.215975,0.125985,0.000000,320.000000,296.000000,24.000000,14.000000,0.000000,0.000000,0.411381,0.458947,0.215975,0.125985,0.000000,320.000000,296.000000,24.000000,14.000000,0.000000,0.000000:
0000
0000
0000
0000
,
1000
0000
0000
0001
,
0000
0000
1000
0001
,
1000
0000
0000
0010
0000
0000
0100
0000
,
0000
0001
0000
1000
0000
0000
0001
0000
,
0000
0100
0000
0000
0010
0000
0000
1000
,
0000
0000
0000
0100
0000
0000
0010
0000
,
0000
0001
0000
0000
0100
0000
0000
0000
,
0001
0000
1000
0010
,
1000
0001
0100
0010
,
1000
0001
1000
0010
,
0100
0001
0010
0001
,
1000
0100
1000
1001
,
0010
0000
0000
0100
0000
0000
0001
0000
,
0000
1000
0000
0000
0100
0000
0010
0000
,
0001
1000
0100
0010
,
0001
1000
0010
0100
,
0020
0000
0000
0000
,
0130
0000
0000
0001
1000
0000
0010
0000
,
1000
0001
0000
1000
,
1001
0000
0000
0001
1000
0000
0100
0000
,
0010
0001
1000
0010
,
1000
0000
0000
0001
0100
0000
0010
0000
,
1000
0100
0010
0001
,
1000
0000
0001
0100
0000
0010
1000
0000
,
0001
0100
0010
1000
,
0100
0000
0000
0010
0001
0000
0010
0000
,
0100
0010
0001
0010
,
0110
0000
0000
0100
1000
0000
0100
0000
,
0010
0001
1000
0010
,
0100
0000
0000
0010
1000
0000
0001
0000
,
0100
0010
0100
0010
,
1000
0001
0100
0001
,
0010
0001
0100
0010
,
1010
0000
0110
0000
,
0101
0000
1001
0000
,
1100
0000
0110
0000
,
0011
0000
1001
0000
,
1100
0000
0110
0000
,
0011
0000
0101
0000
,
0110
0000
1010
0000
,
1001
0000
0101
0000
,
0020
0000
0000
0000
0230
0000
0000
0320
,
0000
0000
2030
0000
0000
3001
0000
0000
,
0001
0100
0001
1000
,
0100
0000
0010
0200
0000
0300
1000
0000
,
0001
0100
0010
1000
,
0001
0000
0100
0020
0000
0030
1000
0000
,
0100
1000
0001
0100
,
0001
0000
1000
0020
0000
0030
0100
0000
,
0001
1000
0100
1000
,
0010
0000
0100
0002
0000
0003
0010
0000
,
0100
1000
0100
0000
1000
0001
1000
0000
,
0010
0100
0010
0100
0010
0000
0000
0000
,
0001
0000
1000
0000
,
0010
0000
1000
0100
,
0010
0001
1000
0001
,
0100
0000
0000
0001
1000
0000
0010
0000
,
0100
0001
1000
0010
,
0100
0000
0000
0010
1000
0000
0100
0000
,
1000
0010
0100
0010
,
1000
0000
0000
0001
0010
0000
0100
0000
,
0010
0000
0000
0001
1000
0000
0000
0010
,
0100
0000
0000
0001
0100
0000
0010
0000
,
1000
0100
1000
0001
,
0100
0000
0000
0010
1000
0000
0100
0000
,
0010
0001
0010
0100
,
1000
0000
0000
0010
0100
0000
0001
0000
,
1000
0010
0100
0001
,
0010
0000
0000
0001
0010
0000
0000
0100
,
1000
0000
0010
0100
0000
0001
1000
0001
,
2000
0000
3001
0000
,
1000
0010
1000
0000
,
0001
0010
0001
1000
,
0100
1000
0100
0000
1000
0001
1000
0000
,
0010
0100
0010
0000
0200
0000
0320
0000
,
1030
0001
0100
0010
,
1000
0001
0100
0010
,
0110
0000
0000
1001
0000
0000
1010
0000
,
0000
0101
0000
0000
0010
0000
1000
0000
,
0100
0010
0001
1000
,
0010
0100
0001
1000
,
0001
1000
0010
0100
,
0010
1000
0001
2002
,
0000
0000
0000
0000
,
3003
0000
0000
0000
;

//---------------dance-single - ----------------
#NOTES:
     dance-single:
     :
     Beginner:
     3:
     0.226259,0.305965,0.008999,0.116986,0.000000,176.000000,175.000000,1.000000,13.000000,0.000000,0.000000,0.226259,0.305965,0.008999,0.116986,0.000000,176.000000,175.000000,1.000000,13.000000,0.000000,0.000000:
// measure 0
0000
0000
0000
0000
,  // measure 1
1000
0000
0000
0001
,  // measure 2
0000
0000
1000
0000
,  // measure 3
1000
0000
0000
0100
,  // measure 4
0000
0001
0000
0000
0000
0000
0001
0000
,  // measure 5
0000
0000
0000
0000
0010
0000
0000
1000
,  // measure 6
0000
0000
0000
0010
,  // measure 7
0000
0000
0100
0000
,  // measure 8
0001
0000
1000
0000
,  // measure 9
1000
0000
0100
0000
,  // measure 10
1000
0000
1000
0000
,  // measure 11
0100
0000
0010
0000
,  // measure 12
1000
0000
1000
0001
,  // measure 13
0010
0000
0000
0001
,  // measure 14
0000
0000
0100
0000
,  // measure 15
0001
1000
0000
0010
,  // measure 16
0000
1000
0000
0010
,  // measure 17
0020
0000
0000
0000
,  // measure 18
0130
0000
1000
0000
,  // measure 19
1000
0000
0000
1000
,  // measure 20
0001
0000
1000
0000
,  // measure 21
0010
0000
1000
0000
,  // measure 22
1000
0000
0100
0000
,  // measure 23
1000
0000
0010
0000
,  // measure 24
1000
0001
0000
1000
,  // measure 25
0000
0100
0000
1000
,  // measure 26
0000
0000
0001
0000
,  // measure 27
0100
0000
0001
0000
,  // measure 28
0100
0000
1000
0000
,  // measure 29
0010
0000
1000
0000
,  // measure 30
0100
0000
1000
0000
,  // measure 31
0100
0000
0010
0000
,  // measure 32
1000
0000
0100
0000
,  // measure 33
0010
0000
0100
0000
,  // measure 34
1000
0000
0010
0000
,  // measure 35
0100
0000
0001
0000
,  // measure 36
1000
0000
0010
0000
,  // measure 37
0001
0000
1000
0000
,  // measure 38
0100
0000
0010
0000
,  // measure 39
0001
0000
0100
0000
,  // measure 40
0010
0000
1000
0000
,  // measure 41
0001
0000
0100
0000
,  // measure 42
0020
0000
0230
0000
,  // measure 43
0300
0000
0020
0000
0000
0001
0030
0000
,  // measure 44
0001
0000
0001
0000
,  // measure 45
0100
0000
0000
0200
0000
0300
1000
0000
,  // measure 46
0001
0000
0010
0000
,  // measure 47
0001
0000
0000
0020
0000
0030
1000
0000
,  // measure 48
0100
0000
0001
0000
,  // measure 49
0001
0000
0000
0020
0000
0030
0100
0000
,  // measure 50
0001
0000
0100
0000
,  // measure 51
0010
0000
0000
0002
0000
0003
0010
0000
,  // measure 52
0100
0100
1000
1000
,  // measure 53
0010
0010
0010
0000
,  // measure 54
0001
0000
1000
0000
,  // measure 55
0010
0000
1000
0000
,  // measure 56
0010
0000
1000
0000
,  // measure 57
0100
0000
1000
0000
,  // measure 58
0100
0000
1000
0000
,  // measure 59
0100
0000
1000
0000
,  // measure 60
1000
0000
0100
0000
,  // measure 61
1000
0000
0010
0000
,  // measure 62
0010
0000
1000
0000
,  // measure 63
0100
0000
0100
0000
,  // measure 64
1000
0000
1000
0000
,  // measure 65
0100
0000
1000
0000
,  // measure 66
0010
0000
0010
0000
,  // measure 67
1000
0000
0100
0000
,  // measure 68
1000
0000
0100
0000
,  // measure 69
0010
0000
0010
0000
,  // measure 70
1000
0010
0000
1000
,  // measure 71
2000
0000
3001
0000
,  // measure 72
1000
0000
1000
0000
,  // measure 73
0001
0000
0001
1000
,  // measure 74
0000
0100
0000
1000
,  // measure 75
0000
0010
0200
0320
,  // measure 76
1030
0000
0100
0000
,  // measure 77
1000
0000
0100
0000
,  // measure 78
0010
0000
0000
0001
0000
0000
1000
0000
,  // measure 79
0000
0001
0000
0000
0010
0000
0000
0000
,  // measure 80
0100
0000
0001
0000
,  // measure 81
0010
0000
0100
0000
,  // measure 82
0001
0000
1000
0000
,  // measure 83
1000
0000
0010
2002
,  // measure 84
0000
0000
0000
0000
,  // measure 85
3003
0000
0000
0000
;
