#TITLE:L'erisia(Primal Logic);
#SUBTITLE:;
#ARTIST:Zektbach;
#TITLETRANSLIT:;
#SUBTITLETRANSLIT:;
#ARTISTTRANSLIT:;
#CREDIT:;
#BANNER:L'erisia(Primal Logic)-bn.png;
#BACKGROUND:L'erisia(Primal Logic)-bg.png;
#LYRICSPATH:;
#CDTITLE:;
#MUSIC:L'erisia(Primal Logic).mp3;
#OFFSET:0.000;
#SAMPLESTART:8.600;
#SAMPLELENGTH:12.000;
#SELECTABLE:YES;
#BPMS:0.000=234.001;
#STOPS:;
#BGCHANGES:;

//---------------dance-single - ----------------
#NOTES:
     dance-single:
     :
     Hard:
     15:
     0.953,0.891,0.360,0.549,0.038:
0000
0000
0000
1000
0010
1000
0001
0100
,
0001
0010
0100
0010
0001
0100
0001
1000
,
0010
1000
0010
0100
0010
1000
0010
0100
,
0001
0010
0100
1000
0010
0100
0001
0010
,
0100
1000
0100
0010
0100
1000
0001
0010
,
0100
0010
0001
1000
0010
0100
0001
0010
,
1000
0010
0001
0100
1000
0100
0001
0010
,
1000
0001
0100
1000
0001
0010
1000
0010
,
0001
0100
0010
0110
0100
0001
0100
0010
,
1000
0100
1000
0001
0100
0001
0010
1000
,
0010
0001
0010
1000
0001
0100
1000
0001
,
0010
1000
0010
0001
1000
0010
0001
1000
,
0100
0001
0010
0100
1000
0001
0010
1000
,
0001
0100
1000
0010
0001
1000
0100
0001
,
0100
1000
0001
0010
1000
0010
0100
1000
,
0100
0010
1000
0100
0010
0001
0010
0100
,
0001
1000
0010
0001
0010
0100
1000
0010
,
0100
1000
0001
0010
1000
0001
0010
0100
,
0001
0100
1000
0010
0100
0001
1000
0010
,
1000
0001
0100
0001
0010
0100
0010
0001
,
0100
0001
1000
0010
0100
0001
1000
0001
,
0010
0100
1000
0001
0010
0100
1000
0001
,
0010
0100
1000
1001
0000
0110
0000
0101
,
0000
1010
0000
0101
0000
0220
0000
0000
,
0000
0330
0000
0200
0000
0301
0000
0000
,
2002
0000
0003
3002
0000
0103
0000
0000
,
0220
0000
0300
2030
0000
3001
0000
0000
,
0022
0000
0003
0032
0000
1003
0000
0000
,
2200
0000
3000
2300
0000
3010
0000
0000
,
0220
0000
0030
0302
0000
1003
0000
0000
,
2002
0000
3000
2003
0000
3100
0000
0000
,
0220
0000
0030
0320
0000
0031
0000
0000
,
2002
0000
3000
1003
0010
1000
0010
1000
,
0010
1000
0010
0001
0010
0001
0010
0001
,
0010
0001
0010
0001
0100
0001
0100
0001
,
0100
0001
0100
1000
0100
1000
0100
1000
,
0100
1000
0100
2000
0000
3001
0100
0001
,
1000
0010
0100
0002
0000
1003
0100
1000
,
0010
0100
0001
0020
0000
1030
0001
0100
,
1000
0010
0100
0002
0000
1003
0010
0001
,
1000
0100
0010
0200
0000
1300
0100
0001
,
0010
0100
0001
2000
0000
3001
0100
1000
,
0001
0010
0001
0200
0000
0310
0001
1000
,
0001
0010
1000
0002
0000
0013
0100
1000
,
0100
0010
0100
2000
0000
0000
0000
0000
,
3001
0001
0200
0000
0000
0000
0000
0000
,
0310
0010
2000
0000
0000
0000
0000
0000
,
3001
0001
0020
0000
0000
0000
0000
0000
,
0130
1000
0001
2000
0000
3020
0000
0030
,
1010
0000
0000
0120
0000
0000
0000
0000
,
2030
0000
3000
0110
0000
1001
0000
0000
,
0020
0000
0000
2030
0000
0000
0000
0000
,
3020
0000
0030
1100
0000
0012
0000
0000
,
0023
0000
0000
0230
0000
0000
0000
0000
,
2300
0000
3000
0011
0000
1100
0000
0001
,
0002
0000
0000
2003
0000
0000
0000
0000
,
3002
0000
0003
1010
0000
0000
0101
0000
,
0110
2001
0000
3020
,
0000
0000
0130
0000
1001
0000
0100
0001
,
1000
0010
0100
0001
0010
0100
1000
0000
,
1000
0100
0000
1100
0000
0000
0011
0000
,
0101
0000
0000
1010
0000
0000
1001
0000
,
0010
1000
0010
0100
0001
1000
0100
0010
,
0001
0100
0010
1000
0010
0100
0001
0000
,
0001
1000
0000
1000
0100
0000
0000
1100
,
0000
0000
1001
0000
0010
0100
0001
1000
,
0010
1000
0001
0100
0001
0000
1000
0010
,
0001
0000
0011
0000
0001
0010
1000
0000
,
0010
2000
0000
0000
0000
3001
0010
1000
,
0010
0001
1000
0000
0001
0100
1000
0100
,
0001
1000
0000
0001
0010
0100
1000
0100
,
0010
0000
0000
0001
0000
0000
0010
0000
0000
0100
0000
0000
1000
0000
0010
0000
0100
0000
0001
0000
1000
0000
0010
0000
,
0100
0000
0001
0000
1000
0000
0010
0000
0100
0000
0001
0000
1000
0000
0000
0010
0000
0000
1000
0000
0000
0001
0000
0000
,
0100
0001
1000
0100
1000
0010
0100
0010
,
1000
0001
1000
0001
0010
0001
1000
0100
,
1000
0010
0100
0001
0100
1000
0100
0001
,
1000
0100
0001
1000
0010
0001
1000
0010
,
0001
1000
0100
0010
1000
0100
0010
0100
,
0010
0001
0100
0010
0001
1000
0100
0001
,
1000
0100
0001
1000
0010
0001
1000
0010
,
0001
1000
0100
0010
1000
0001
0100
0010
,
1000
0100
1000
0001
0100
0001
0010
1000
,
0010
0001
0010
1000
0001
0100
1000
0001
,
0010
1000
0010
0001
1000
0010
0001
1000
,
0100
0001
0010
0100
1000
0001
0010
1000
,
0001
0100
1000
0010
0001
1000
0100
0001
,
0100
1000
0001
0010
1000
0010
0100
1000
,
0100
0010
1000
0100
0010
0001
0010
0100
,
0001
1000
0010
0001
0100
1000
0000
0100
,
1000
0010
0000
1000
0010
0001
0000
0010
,
0001
0100
0000
0100
0001
0010
0000
0001
,
0010
1000
0000
0010
1000
0100
0000
1000
,
0100
0001
0000
1000
1000
1000
0000
0010
,
0010
0010
0000
0100
0100
0100
0000
0001
,
0001
0001
0000
0010
0010
0010
0000
0100
,
0100
0100
0000
1001
0000
0001
0100
0010
,
0000
0100
0010
1000
0000
2020
0000
0000
,
0000
0000
0000
0000
3000
1030
0010
0100
,
0000
0010
0100
0001
0010
0100
2000
0000
,
0000
3000
0000
0000
0000
0000
0000
0000
;

//---------------dance-single - Copied from----------------
#NOTES:
     dance-single:
     Copied from:
     Medium:
     13:
     0.719,0.797,0.445,0.435,0.000: // measure 1
0000
0000
0000
0010
0000
0100
0000
0000
,  // measure 2
0010
0000
0000
2002
0000
0000
0000
3003
,  // measure 3
0010
0000
0000
0100
0000
0010
0000
0000
,  // measure 4
0100
0000
0000
2020
0000
0000
0000
3030
,  // measure 5
0100
0000
0000
0001
0000
1000
0000
0000
,  // measure 6
0001
0000
0000
0220
0000
0000
0000
0330
,  // measure 7
0010
0000
0000
1000
0000
0001
0000
0000
,  // measure 8
0100
0000
0000
2002
0000
0000
0000
3003
,  // measure 9
0010
0000
0000
1000
0000
0101
0000
0000
,  // measure 10
0001
0100
0000
0010
0000
0101
0000
0000
,  // measure 11
0001
0010
0000
0001
0000
1001
0000
0000
,  // measure 12
0100
0010
0000
1000
0000
0101
0000
0000
,  // measure 13
1000
0010
0000
0100
0000
1001
0000
0000
,  // measure 14
0010
1000
0000
0010
0000
0110
0000
0000
,  // measure 15
0100
0001
0000
1000
0000
1010
0000
0000
,  // measure 16
0100
0010
0000
0100
0000
1001
0000
0000
,  // measure 17
0010
0100
0000
1001
0000
0020
0000
0000
,  // measure 18
0130
0001
0000
0101
0000
2000
0000
0000
,  // measure 19
3010
0100
0000
0110
0000
0020
0000
0000
,  // measure 20
1030
0100
0000
0011
0000
0002
0000
0000
,  // measure 21
0013
0100
0000
1001
0000
0020
0000
0000
,  // measure 22
0130
0001
0000
0101
0000
2000
0000
0000
,  // measure 23
3010
0100
0000
1001
0000
0010
0000
1001
,  // measure 24
0000
0010
0000
0110
0000
2002
0000
0000
,  // measure 25
0000
3003
0000
0100
0000
0100
0000
0000
,  // measure 26
0010
0000
0000
0010
0000
1000
0000
0000
,  // measure 27
0100
0000
0000
0010
0000
0001
0000
0000
,  // measure 28
1000
0000
0000
0010
0000
0100
0000
0000
,  // measure 29
0001
0000
0000
1000
0000
0010
0000
0000
,  // measure 30
0001
0000
0000
0010
0000
1000
0000
0000
,  // measure 31
0100
0000
0000
0001
0000
0100
0000
0000
,  // measure 32
1000
0000
0000
0100
0000
0010
0000
0000
,  // measure 33
1001
0000
0000
1000
0100
1000
0000
1000
,  // measure 34
0000
1000
0000
0001
0010
0001
0000
0001
,  // measure 35
0000
0001
0000
0010
0100
0010
0000
0010
,  // measure 36
0000
0010
0000
0100
1000
0100
0000
0100
,  // measure 37
0000
0100
0000
2000
0000
3001
0100
0001
,  // measure 38
0000
0010
0000
0002
0000
1003
0010
1000
,  // measure 39
0000
0001
0000
0020
0000
0130
1000
0100
,  // measure 40
0000
0010
0000
0002
0000
0013
0100
0010
,  // measure 41
0000
0100
0000
0020
0000
0031
1000
0001
,  // measure 42
0000
0100
0000
0002
0000
1003
0010
1000
,  // measure 43
0000
0001
0000
0200
0000
0310
1000
0010
,  // measure 44
0000
0100
0000
0002
0000
0013
0001
1000
,  // measure 45
0000
0010
0000
2000
0000
0000
0000
0000
,  // measure 46
3001
1000
0002
0000
0000
0000
0000
0000
,  // measure 47
0103
0010
0200
0000
0000
0000
0000
0000
,  // measure 48
1300
0100
0002
0000
0000
0000
0000
0000
,  // measure 49
0013
0100
1000
0001
0000
0010
0000
0000
,  // measure 50
1000
0000
0000
0012
0000
0000
0000
0000
,  // measure 51
1003
0000
0000
0010
0000
1000
0000
0000
,  // measure 52
0001
0000
0000
1020
0000
0000
0000
0000
,  // measure 53
0130
0000
0000
0001
0000
1000
0000
0000
,  // measure 54
0010
0000
0000
0210
0000
0000
0000
0000
,  // measure 55
0301
0000
0000
1000
0000
0010
0000
0000
,  // measure 56
0100
0000
0000
2001
0000
0000
0000
0000
,  // measure 57
3001
0000
0000
1001
0000
0000
0100
0000
,  // measure 58
0100
2001
0000
3020
,  // measure 59
0000
0000
0130
0000
1001
0000
1000
0010
,  // measure 60
1000
0010
1000
0001
0100
0010
0100
0000
,  // measure 61
0001
0200
0000
0000
0000
0000
0310
0000
,  // measure 62
0010
0000
0000
1001
0000
0000
0100
0000
,  // measure 63
0010
1000
0010
1000
0001
1000
0100
0010
,  // measure 64
0001
0010
0100
1000
0100
0010
0001
0000
,  // measure 65
1000
0001
0000
0100
0010
0000
0000
1001
,  // measure 66
0000
0000
1001
0000
0001
0100
0010
1000
,  // measure 67
0001
1000
0001
0100
0001
0000
1000
0010
,  // measure 68
1000
0000
0001
0000
0100
0010
0100
0000
,  // measure 69
0001
2000
0000
0000
0000
3001
0010
0001
,  // measure 70
0010
0001
0010
0000
0100
1000
0100
1000
,  // measure 71
0100
1000
0000
0001
1000
0010
1000
0001
,  // measure 72
0100
0001
1000
1001
0000
0110
0000
1001
,  // measure 73
0000
0110
0000
0010
0000
0101
0000
0000
,  // measure 74
0002
0100
0000
1000
0003
0110
0000
0000
,  // measure 75
0020
1000
0000
0100
0030
1010
0000
0000
,  // measure 76
0002
1000
0000
0100
0003
0101
0000
0000
,  // measure 77
2000
0001
0000
0010
3000
1010
0000
0000
,  // measure 78
0020
1000
0000
0100
0030
0110
0000
0000
,  // measure 79
0002
0010
0000
1000
0003
1010
0000
0000
,  // measure 80
0200
0010
0000
0001
0300
1001
0000
0000
,  // measure 81
0010
0100
0000
0001
0100
0001
1000
0010
,  // measure 82
1000
0001
0100
0001
0010
0100
1000
0100
,  // measure 83
0010
0001
0100
0010
1000
0010
0100
0001
,  // measure 84
0010
0100
1000
0100
0010
0001
1000
0100
,  // measure 85
0010
0100
1000
0100
0010
0001
0010
0100
,  // measure 86
0010
0001
1000
0010
0001
0010
1000
0010
,  // measure 87
1000
0001
0100
0001
0010
0100
0010
0100
,  // measure 88
0010
0100
1000
0001
1000
0001
1000
0010
,  // measure 89
0100
0010
0100
0001
0010
0001
0000
1000
,  // measure 90
0100
1000
0000
0010
0100
0010
0000
1000
,  // measure 91
0001
1000
0000
0010
0100
0010
0000
0100
,  // measure 92
0001
0100
0000
0010
1000
0010
0000
1000
,  // measure 93
0001
1000
0000
0010
0100
0001
0000
0010
,  // measure 94
0100
1000
0000
0100
0010
0001
0000
1000
,  // measure 95
0010
0100
0000
0001
1000
0010
0000
0100
,  // measure 96
0001
1000
0000
1001
0000
0010
0100
0010
,  // measure 97
0000
0100
0010
0100
0000
2002
0000
0000
,  // measure 98
0000
0000
0000
0000
3003
0100
0010
0100
,  // measure 99
0000
0010
0100
0010
1000
0001
2000
0000
,  // measure 100
0000
3000
0000
0000
0000
0000
0000
0000
;

//---------------dance-single - Copied from Copied f----------------
#NOTES:
     dance-single:
     Copied from Copied f:
     Easy:
     8:
     0.431,0.515,0.095,0.218,0.000:
0000
0000
0000
0000
,
0000
0000
0000
0000
,
0000
0000
0000
0000
,
0000
0000
0000
0000
,
0000
0000
0000
0000
,
0000
0000
0000
0000
,
0000
0000
0000
0000
,
0000
0000
0000
0000
,
0000
0000
0000
1000
0000
0001
0000
0000
,
0000
0100
0000
0010
0000
0100
0000
0000
,
0000
0010
0000
1000
0000
0001
0000
0000
,
0000
0010
0000
1000
0000
0001
0000
0000
,
0000
0010
0000
0100
0000
1000
0000
0000
,
0000
0001
0000
0010
0000
0100
0000
0000
,
0000
1000
0000
0001
0000
0010
0000
0000
,
0000
1000
0000
0001
0000
0100
0000
0000
,
0000
0010
0000
0100
0000
0001
0000
0000
,
0000
1000
0000
0001
0000
0100
0000
0000
,
0000
0010
0000
0100
0000
0001
0000
0000
,
0000
1000
0000
0001
0000
0100
0000
0000
,
0000
0010
0000
1000
0000
0001
0000
0000
,
0000
1000
0000
0001
0000
0010
0000
0000
,
0000
0100
0000
1000
0000
1000
0000
1001
,
0000
0001
0000
0101
0000
2002
0000
0000
,
0000
3003
0000
0100
0000
0100
0000
0000
,
0000
0000
0000
0010
0000
0010
0000
0000
,
0000
0000
0000
1000
0000
1000
0000
0000
,
0000
0000
0000
0001
0000
0001
0000
0000
,
0000
0000
0000
0100
0000
0100
0000
0000
,
0000
0000
0000
0010
0000
0010
0000
0000
,
0000
0000
0000
1000
0000
1000
0000
0000
,
0000
0000
0000
0001
0000
0001
0000
0000
,
1001
0000
0000
0100
0000
0100
0000
0100
,
0000
0100
0000
0010
0000
0010
0000
0010
,
0000
0010
0000
1000
0000
1000
0000
1000
,
0000
1000
0000
0001
0000
0001
0000
0001
,
0000
0001
0000
2000
0000
3000
0000
0001
,
0000
0000
0000
0002
0000
0003
0000
0010
,
0000
0000
0000
0020
0000
0030
0000
0100
,
0000
0000
0000
2000
0000
3000
0000
0010
,
0000
0000
0000
0020
0000
0030
0000
0100
,
0000
0000
0000
0002
0000
0003
0000
1000
,
0000
0000
0000
0020
0000
0030
0000
0100
,
0000
0000
0000
0002
0000
0003
0000
0000
,
0000
1000
0000
0020
0000
0000
0000
0000
,
0130
0200
0000
0000
,
0310
0020
0000
0000
,
1030
2000
0000
0000
,
3001
0000
0001
1000
0000
0010
0000
0000
,
1000
0000
0000
0002
0000
0000
0000
0000
,
1003
0000
0000
0010
0000
1000
0000
0000
,
0001
0000
0000
2000
0000
0000
0000
0000
,
3100
0000
0000
0010
0000
0001
0000
0000
,
0010
0000
0000
0200
0000
0000
0000
0000
,
1300
0000
0000
0010
0000
0001
0000
0000
,
0100
0000
0000
2000
0000
0000
0000
0000
,
3100
0000
0000
1001
0000
0000
0010
0000
,
0010
0010
0000
0200
,
0000
0000
0301
0000
1001
0000
1000
0010
,
0000
1000
0010
0000
1000
0010
0000
0000
,
0010
0200
0000
0000
0000
0000
0301
0000
,
0001
0000
0000
1001
0000
0000
1000
0000
,
0010
1000
0000
0010
0000
1000
0000
0010
,
0000
0100
0000
0001
0000
0010
0000
0000
,
1000
0001
0000
0100
0010
0000
0000
1001
,
0000
0000
1001
0000
0001
0100
0000
0010
,
0000
1000
0000
0001
0100
0000
0000
0010
,
1000
0000
0000
0000
0000
0010
0100
0000
,
0001
2000
0000
0000
0000
3001
0000
1000
,
0000
0001
1000
0000
0010
0000
0100
0000
,
0001
1000
0000
0001
0000
0010
0000
0100
,
0000
1000
0000
1000
0000
0100
0000
0100
,
0000
0010
0000
0010
0000
0001
0000
0000
,
0000
0100
0000
0010
0000
0100
0000
0000
,
0000
0001
0000
1000
0000
0010
0000
0000
,
0000
0100
0000
0001
0000
0100
0000
0000
,
0000
0010
0000
1000
0000
0001
0000
0000
,
0000
0010
0000
0100
0000
1000
0000
0000
,
0000
0001
0000
0010
0000
0100
0000
0000
,
0000
1000
0000
0010
0000
0100
0000
0000
,
0100
0001
0000
1000
0000
0010
0000
0100
,
0000
0001
0000
0010
0000
0100
0000
1000
,
0000
0100
0000
0001
0000
0100
0000
1000
,
0000
0010
0000
1000
0000
0010
0000
1000
,
0000
0001
0000
0100
0000
0001
0000
0100
,
0000
0010
0000
1000
0000
0100
0000
1000
,
0000
0100
0000
0010
0000
0100
0000
0010
,
0000
0001
0000
0010
0000
0100
0000
0010
,
0000
0001
0000
1000
0010
0000
0000
0100
,
0001
0000
0000
1000
0010
0000
0000
0100
,
0010
0000
0000
0100
0001
0000
0000
0010
,
0100
0000
0000
0100
1000
0000
0000
1000
,
0100
0000
0000
0100
0010
0000
0000
0010
,
0001
0000
0000
0001
1000
0000
0000
1000
,
0010
0000
0000
0010
0100
0000
0000
0100
,
0001
0000
0000
1001
0000
1000
0010
1000
,
0000
0001
0100
0001
0000
0200
0000
0000
,
0000
0000
0000
0300
0000
0010
0000
0010
,
0000
0100
0000
0100
0000
0010
0200
0000
,
0300
0000
0000
0000
;

//---------------dance-single - Copied from Copied f----------------
#NOTES:
     dance-single:
     Copied from Copied f:
     Beginner:
     3:
     0.280,0.375,0.057,0.227,0.000:
0000
0000
0000
0000
,
0000
0000
0000
0000
,
0000
0000
0000
0000
,
0000
0000
0000
0000
,
0000
0000
0000
0000
,
0000
0000
0000
0000
,
0000
0000
0000
0000
,
0000
0000
0000
0000
,
0000
0000
0000
1000
0000
0001
0000
0000
,
0000
0100
0000
0000
0000
0100
0000
0000
,
0000
0010
0000
0000
0000
0001
0000
0000
,
0000
0010
0000
0000
0000
0001
0000
0000
,
0000
0010
0000
0000
0000
1000
0000
0000
,
0000
0001
0000
0000
0000
0100
0000
0000
,
0000
1000
0000
0000
0000
0010
0000
0000
,
0000
1000
0000
0000
0000
0100
0000
0000
,
0000
0010
0000
0000
0000
0001
0000
0000
,
0000
1000
0000
0000
0000
0100
0000
0000
,
0000
0010
0000
0000
0000
0001
0000
0000
,
0000
1000
0000
0000
0000
0100
0000
0000
,
0000
0010
0000
0000
0000
0001
0000
0000
,
0000
1000
0000
0000
0000
0010
0000
0000
,
0000
0100
0000
0010
0000
0000
0000
1001
,
0000
0000
0000
0100
0000
2002
0000
0000
,
0000
3003
0000
0100
0000
0100
0000
0000
,
0000
0000
0000
0010
0000
0010
0000
0000
,
0000
0000
0000
1000
0000
1000
0000
0000
,
0000
0000
0000
0001
0000
0001
0000
0000
,
0000
0000
0000
0100
0000
0100
0000
0000
,
0000
0000
0000
0010
0000
0010
0000
0000
,
0000
0000
0000
1000
0000
1000
0000
0000
,
0000
0000
0000
0001
0000
0001
0000
0000
,
0000
0000
0000
0100
0000
0000
0000
0100
,
0000
0000
0000
0010
0000
0000
0000
0010
,
0000
0000
0000
1000
0000
0000
0000
1000
,
0000
0000
0000
0001
0000
0000
0000
0001
,
0000
0000
0000
2000
0000
3000
0000
0000
,
0000
0000
0000
0002
0000
0003
0000
0000
,
0000
0000
0000
0020
0000
0030
0000
0000
,
0000
0000
0000
2000
0000
3000
0000
0000
,
0000
0000
0000
0020
0000
0030
0000
0000
,
0000
0000
0000
0002
0000
0003
0000
0000
,
0000
0000
0000
0020
0000
0030
0000
0000
,
0000
0000
0000
0002
0000
0003
0000
0000
,
0000
0000
0000
0020
0000
0000
0000
0000
,
0030
0200
0000
0000
,
0300
0020
0000
0000
,
0030
2000
0000
0000
,
3001
0000
0000
1000
0000
0010
0000
0000
,
0000
0000
0000
0200
0000
0000
0000
0000
,
0300
0000
0000
0001
0000
1000
0000
0000
,
0000
0000
0000
0020
0000
0000
0000
0000
,
0030
0000
0000
0100
0000
0001
0000
0000
,
0000
0000
0000
2000
0000
0000
0000
0000
,
3000
0000
0000
0001
0000
0010
0000
0000
,
0000
0000
0000
0200
0000
0000
0000
0000
,
0300
0000
0000
1000
0000
0000
0001
0000
,
0001
0001
0000
0200
,
0000
0301
0000
0010
,
0000
1000
0001
0000
,
0010
0200
0000
0000
0000
0000
0301
0000
,
0001
0000
0000
1001
0000
0000
1000
0000
,
0000
1000
0000
0000
0000
0010
0000
0000
,
0000
0100
0000
0000
0000
0001
0000
0000
,
0000
0001
0000
0100
0000
0000
0000
1001
,
0000
0000
1001
0000
0000
0100
0000
0000
,
0000
0010
0000
0100
0000
0000
0000
0010
,
0000
0000
0000
0000
0000
0010
0000
0000
,
0000
2000
0000
0000
0000
3001
0000
0000
,
0000
0001
0000
0000
0000
1000
0000
0000
,
0000
1000
0000
0000
0000
0010
0000
0000
,
0000
0010
0000
0100
0000
0100
0000
0100
,
0000
0100
0000
0100
0000
0001
0000
0000
,
0000
0100
0000
0000
0000
0100
0000
0000
,
0000
0001
0000
0000
0000
0010
0000
0000
,
0000
0100
0000
0000
0000
1000
0000
0000
,
0000
0100
0000
0000
0000
0010
0000
0000
,
0000
0001
0000
0000
0000
1000
0000
0000
,
0000
0100
0000
0000
0000
0010
0000
0000
,
0000
0001
0000
0000
0000
1000
0000
0000
,
0000
0001
0000
0000
0000
0010
0000
0000
,
0000
0100
0000
0000
0000
1000
0000
0000
,
0000
0100
0000
0000
0000
0010
0000
0000
,
0000
0001
0000
0000
0000
0010
0000
0000
,
0000
0100
0000
0000
0000
1000
0000
0000
,
0000
0001
0000
0000
0000
0100
0000
0000
,
0000
0001
0000
0000
0000
0010
0000
0000
,
0000
0100
0000
0000
0000
1000
0000
0000
,
0000
0100
0000
0010
0000
0000
0000
0001
,
0000
0000
0000
0001
0000
0000
0000
1000
,
0000
0000
0000
1000
0000
0000
0000
0010
,
0000
0000
0000
0010
0000
0000
0000
0100
,
0000
0000
0000
0100
0000
0000
0000
0001
,
0000
0000
0000
0001
0000
0000
0000
1000
,
0000
0000
0000
1000
0000
0000
0000
0010
,
0000
0000
0000
1002
0000
0000
0000
0103
,
0000
0000
0000
0100
0000
0200
0000
0000
,
0000
0000
0000
0300
0000
0001
0000
0001
,
0000
1000
0000
1000
0000
0000
0020
0000
,
0030
0000
0000
0000
;
