#TITLE:L'avide;
#SUBTITLE:;
#ARTIST:Zektbach;
#TITLETRANSLIT:;
#SUBTITLETRANSLIT:;
#ARTISTTRANSLIT:;
#CREDIT:;
#BANNER:L'avide-bn.png;
#BACKGROUND:L'avide-bg.png;
#LYRICSPATH:;
#CDTITLE:;
#MUSIC:L'avide .mp3;
#OFFSET:0.000;
#SAMPLESTART:3.500;
#SAMPLELENGTH:12.000;
#SELECTABLE:YES;
#BPMS:0.000=170.001;
#STOPS:;
#BGCHANGES:;

//---------------dance-single - ----------------
#NOTES:
     dance-single:
     :
     Hard:
     13:
     0.766,0.693,0.425,0.443,0.155:
0000
0000
0000
0000
,
0000
0000
0000
0000
,
0000
0000
0200
0000
0310
1000
0010
0100
,
0001
0010
0100
1000
0000
1000
0001
0010
,
0100
1000
0100
0010
0000
0001
1000
0100
,
0000
0010
0100
1000
0000
0100
0010
0001
,
0100
1000
0100
0001
0100
0000
0001
0000
1000
0000
0100
0000
0001
0000
0100
0000
,
1000
0001
0010
1000
0000
0010
1000
0010
,
0001
0100
0010
1010
0000
0001
0100
0101
,
0000
0010
1000
1001
0000
0010
0100
0001
,
0010
0100
1000
0100
0010
0000
0001
0000
0020
0000
0000
0000
0230
0000
0000
0000
,
2300
0000
3010
0001
1000
0100
0001
1000
,
1020
0000
0230
0302
,
0023
0000
0031
0010
0100
0010
0001
1000
,
1200
0000
0000
0000
0000
0000
0000
0000
0310
0000
0001
0100
0001
0000
1000
0000
,
0100
0010
0001
1000
0000
1000
0010
0000
,
0010
0000
1000
0001
0100
0000
0001
0000
0010
0000
0100
0000
1000
0000
0010
0000
,
0100
1000
0001
0010
1000
1001
0000
0100
,
0100
0000
0010
1000
0010
0000
0100
0000
0001
0000
0000
0000
0001
0000
1000
0000
,
0100
0000
0010
0000
0001
0000
0001
0000
0010
0100
1000
0000
0010
0000
0001
0000
,
0010
1000
0010
0010
0100
0102
0000
1003
,
0000
0110
0000
0001
1000
1010
0000
2002
,
0000
0000
0000
0000
0000
0000
3003
0000
0110
0000
0100
0010
0100
0000
0001
0000
,
0010
0100
1000
0001
0000
0001
0100
0000
,
0100
0000
0001
1000
0010
0000
1000
0000
0100
0000
0010
0000
0001
0000
0100
0000
,
0010
0001
1000
0100
0001
1001
0000
0010
,
0010
0000
0100
0001
0100
0000
0010
0000
1000
0000
0000
0000
1000
0000
0001
0000
,
0010
0000
0100
0000
1000
0000
1000
0000
0100
0010
0001
0000
0100
0000
1000
0000
,
0100
0001
0100
0100
0010
2010
0000
3001
,
0000
0110
0000
1000
0001
0101
0000
2002
,
0000
0000
0000
0000
0000
0000
3003
0000
1000
0000
0001
0100
0001
0000
1000
0000
,
0100
0000
0010
0000
0001
0000
0200
0000
0000
0000
0310
1000
0010
0000
0100
0000
,
0100
0000
0001
0000
2000
0000
0000
0000
3010
0000
0100
0010
1000
0000
0010
0000
,
0100
1000
0001
0010
1000
0010
0001
0010
,
1000
0000
0001
0000
0010
0000
0100
0000
1000
0000
0100
0010
0001
0000
0010
0000
,
0010
0000
0100
0000
2000
0000
0000
0000
3010
0000
1000
0001
1000
0000
0001
0000
,
0010
0000
0100
0000
0020
0000
0000
0000
0130
0000
0010
0001
0010
0000
0100
0000
,
0100
1000
0100
0010
0010
0001
1000
0010
,
0001
0000
0010
0000
1000
0000
0001
0000
0100
0000
1000
0100
0010
0000
1000
0000
,
1000
0000
0001
0000
0100
0000
0020
0000
0000
0000
0130
0001
0100
0000
0010
0000
,
0010
0000
1000
0000
0002
0000
0000
0000
1003
0000
0010
0100
0001
0000
0100
0000
,
0010
0001
1000
0100
0001
0100
1000
0100
,
0001
0000
1000
0000
0100
0000
0010
0000
0001
0000
0010
0100
1000
0000
0100
0000
,
0100
0000
0010
0000
0002
0000
0000
0000
0103
0000
0001
1000
0001
0000
1000
0000
,
0100
0010
0200
0000
0310
0010
0001
0001
,
1000
0100
0010
0001
0000
0001
1000
0100
,
0010
0001
0010
0100
0000
1000
0001
0010
,
0000
0100
0010
0001
0000
0010
0100
1000
,
0010
0001
0010
1000
0010
0000
1000
0000
0001
0000
0010
0000
1000
0000
0010
0000
,
0001
1000
0100
0001
0000
0100
0001
0100
,
1000
0010
0100
0101
0000
1000
0010
1010
,
0000
0100
0001
1001
0000
0100
0010
1000
,
0100
0010
0001
0010
0100
0000
1000
0000
0020
0000
0000
0000
0130
0000
0000
0000
,
1000
0010
0210
0000
0302
0000
0103
0000
,
2010
0000
3002
0000
1003
0010
2010
0000
,
3002
0013
0210
1300
,
0001
0010
0210
0000
2300
0000
3001
0000
,
0210
0000
0302
0000
1003
0010
0220
0000
,
0000
0300
1030
0010
0012
0000
0023
0000
,
1030
0010
0100
0000
2100
0000
3100
0000
,
0102
0000
1003
0000
0100
0010
0110
0000
,
0011
1001
0120
1030
,
0010
1000
0010
0000
0101
0000
0100
0000
,
1001
0000
1010
0000
0010
1000
2002
0000
,
0000
0000
0000
3003
0100
1000
0010
0000
,
0110
0000
1001
0000
0010
0100
0001
1000
,
0010
0000
0100
0000
0001
0010
0100
0010
0001
0000
0100
0000
0100
0000
0000
0000
,
0010
1000
1000
0001
0100
0001
0010
0100
,
0010
0000
0001
0000
1000
0010
0100
0010
1000
0000
0010
0000
0010
0000
0000
0000
,
0100
0001
0001
0000
1010
0000
0101
0000
,
0100
0000
0001
0000
1000
0010
0100
0001
0010
0000
0100
0000
2100
0000
0000
0000
,
3010
0100
0102
0000
2000
0000
0003
0000
,
0020
0000
0000
0030
3010
1000
0010
0100
,
0001
0010
0100
1100
0000
1001
0001
0010
,
0100
1000
0100
0011
0000
0001
1000
0110
,
0000
0010
1000
1100
0000
0100
0010
0001
,
0100
1000
0100
0001
0100
0000
0020
0000
2000
0000
0000
0000
0000
0000
0000
0000
,
0000
0000
0000
0000
,
0000
3030
0000
0000
;

//---------------dance-single - Copied from----------------
#NOTES:
     dance-single:
     Copied from:
     Medium:
     9:
     0.523,0.588,0.177,0.532,0.000:
0000
0000
0000
0000
,
0000
0000
0000
0000
,
0000
0000
1001
0000
0010
0010
0000
0100
,
0001
0000
0100
1000
0000
0000
0001
1000
,
0000
0000
0010
0100
0000
0001
1000
0001
,
0000
1000
0001
1000
0000
0001
0100
0001
,
0100
0010
0100
0000
1000
0100
0000
0100
,
0010
0000
0010
0001
0000
0000
1000
0001
,
0000
0000
0001
1000
0000
0001
0100
0001
,
0000
1000
0010
1000
0000
0010
0100
0001
,
0010
0100
0010
0001
2000
0000
3002
0000
,
2003
0000
3010
0100
0010
0100
0001
1000
,
0002
0000
2003
3200
,
0320
0000
0031
1000
0010
1000
0001
1000
,
0200
0000
0320
0000
,
0031
1000
0000
1001
0000
0000
0010
0000
,
1000
0000
0001
0000
0010
0000
1000
0010
,
0000
0010
1000
0000
1000
0010
0000
2002
,
0000
0000
0000
3003
0020
0000
0000
0000
,
0130
0010
0000
0011
0000
0000
0001
0000
,
1000
0000
0010
0000
0100
0002
0000
1003
,
0000
0110
0000
0000
0100
0010
0000
2002
,
0000
0000
0000
3003
0200
0000
0000
0000
,
1300
0001
0000
1001
0000
0000
0100
0000
,
0001
0000
1000
0000
0100
0000
0001
0100
,
0000
0100
0001
0000
0001
0100
0000
2002
,
0000
0000
0000
3003
0200
0000
0000
0000
,
0310
0100
0000
1100
0000
0000
1000
0000
,
0001
0000
0100
0000
0010
2000
0000
3001
,
0000
0110
0000
0000
0010
0100
0000
2002
,
0000
0000
0000
3003
0020
0000
0000
0000
,
0000
0030
0001
0200
0000
0300
0010
0000
,
0100
0000
0002
0000
1003
0000
0000
0100
,
0000
0000
0010
0100
0010
0100
0010
0001
,
1000
0001
1000
0001
1000
0000
0010
0000
,
0000
0000
1000
0001
0000
0000
1000
0000
,
0010
0000
0100
0000
0001
0000
0000
1000
,
0000
1001
0000
0001
1000
0001
1000
0001
,
0100
0010
0100
0010
0100
0000
0010
0000
,
0000
0000
0100
0020
0000
0030
0001
0000
,
1000
0000
0020
0000
0130
0000
0000
0010
,
0000
0000
0001
0010
0001
0010
0001
1000
,
0100
1000
0100
1000
0001
0000
0000
0000
,
0000
0010
0000
1001
0000
0000
0001
0000
,
1000
0000
0200
0000
0310
0010
0000
0100
,
0001
0000
0100
1000
0000
0000
0001
1000
,
0000
0000
0010
0100
0000
0001
1000
0001
,
0000
1000
0001
1000
0000
0001
0100
0001
,
0100
0010
0100
0000
1000
0100
0000
0100
,
0010
0000
0010
0001
0000
0000
1000
0001
,
0000
0000
0001
1000
0000
0001
0100
0001
,
0000
1000
0010
1000
0000
0010
0100
0001
,
0010
0100
0010
0001
0020
0000
0030
0000
,
0001
1000
0200
0000
0320
0000
0032
0000
,
2003
0000
3000
0000
1000
0010
2000
0000
,
3002
2003
3002
0003
,
0001
0010
0200
0000
2300
0000
3002
0000
,
0203
0000
0300
0000
0001
1000
0020
0000
,
0000
0000
1030
0010
0200
0000
0300
0000
,
0001
1000
0010
0000
2000
0000
3020
0000
,
0230
0000
0300
0000
0010
0100
0020
0000
,
2030
3001
2002
3003
,
0001
1000
0010
0000
0100
0000
0010
0000
,
0200
0000
0310
2002
,
0000
0000
0000
3003
0010
0100
0010
0000
,
0100
1001
0020
0230
,
0302
0000
0003
0000
1000
0010
0010
0000
,
1000
0001
0001
0000
2002
0000
0000
0000
,
0000
0000
3003
0000
1000
0010
0010
0000
,
0100
0001
0001
0000
1010
0000
0101
0000
,
0110
0000
0010
0100
0010
0100
0010
0000
,
1000
0001
0100
0000
0020
0000
0000
0000
,
0000
0000
0000
0030
0100
0100
0000
0010
,
1000
0000
0010
0001
0000
0000
1000
0001
,
0000
0000
0100
0010
0000
1000
0001
1000
,
0000
0001
1000
0001
0000
1000
0010
1000
,
0010
0100
0010
1000
0002
0000
0000
0000
,
0000
0000
0000
0000
,
0003
0000
0000
0000
;

//---------------dance-single - Copied from Copied f----------------
#NOTES:
     dance-single:
     Copied from Copied f:
     Easy:
     4:
     0.390,0.441,0.115,0.532,0.000:
0000
0000
0000
0000
,
0000
0000
0000
0000
,
0000
0000
0100
0010
,
1000
0010
0000
0001
,
1000
0000
0001
0000
0000
0000
0010
0100
,
0000
0000
0010
0100
0000
0000
0010
0000
,
0010
0010
1000
0001
,
0100
0010
0000
0001
,
1000
0000
0001
0000
0000
0000
0001
1000
,
0000
0000
0001
1000
0000
0000
0010
0000
,
0100
0100
0002
2003
,
3002
0003
0100
0001
,
2000
0000
3002
0023
,
0230
1300
0001
1000
,
0020
0000
0230
0000
,
1300
0001
0000
1001
0000
0000
0100
0000
,
0001
1000
0100
0001
,
0100
0000
0001
0000
0100
0000
0000
2002
,
0000
0000
0000
3003
0200
0000
0000
0000
,
0310
0000
0000
1001
0000
0000
1000
0000
,
0001
0100
0002
0000
,
2003
0000
0000
0000
3010
0000
0000
2002
,
0000
0000
0000
3003
0020
0000
0000
0000
,
0130
0000
0000
1001
0000
0000
0010
0000
,
1000
0001
0010
1000
,
0010
0000
1000
0000
0010
0000
0000
2002
,
0000
0000
0000
3003
0020
0000
0000
0000
,
0130
0000
0000
1001
0000
0000
0001
0000
,
1000
0010
0200
0000
,
0302
0000
0000
0000
0103
0000
0000
2002
,
0000
0000
0000
3003
0200
0000
0000
0000
,
0000
0300
1000
0000
0010
0000
0100
0000
,
0010
0000
2000
0000
3001
0000
0000
0010
,
0000
0100
0100
0100
,
1000
1000
1000
0000
,
0000
0000
0001
1000
0000
0000
0001
0000
,
0100
0000
0010
0000
1000
0000
0000
0001
,
0000
0100
0100
0100
,
0010
0010
0010
0000
,
0000
0000
0100
0200
0000
0300
0010
0000
,
0001
0000
0200
0000
0310
0000
0000
0100
,
0000
0001
0001
0001
,
1000
1000
1000
0000
,
0000
0100
0000
1001
0000
0000
1000
0000
,
0001
0020
0030
0100
,
0001
0100
0000
1000
,
0001
0000
1000
0000
0000
0000
0100
0010
,
0000
0000
0100
0010
0000
0000
0100
0000
,
0100
0100
0001
1000
,
0010
0100
0000
1000
,
0001
0000
1000
0000
0000
0000
1000
0001
,
0000
0000
1000
0001
0000
0000
0100
0000
,
0010
0100
0200
0300
,
1000
0002
2003
3002
,
0203
0300
0100
0002
,
2003
3020
2030
3000
,
0010
0020
0230
0302
,
2003
3000
0010
0200
,
0000
0301
2000
3000
,
0001
0100
0002
0203
,
0320
0030
0100
0200
,
0302
1003
2002
3003
,
1000
0100
0010
0001
,
0020
0000
0130
2002
,
0000
0000
0000
3003
0100
0000
0010
0000
,
0100
0001
0200
0320
,
2030
3000
0001
0100
,
0001
1000
2002
0000
,
0000
3003
0001
1000
,
0010
0010
0100
1001
,
0010
0100
0100
0100
,
0010
1000
0020
0000
,
0000
0030
0100
0010
,
1000
0010
0000
0001
,
1000
0000
0001
0000
0000
0000
0010
0100
,
0000
0000
0010
0100
0000
0000
0010
0000
,
0010
0010
1000
0000
;

//---------------dance-single - Copied from Copied from Copied f----------------
#NOTES:
     dance-single:
     Copied from Copied from Copied f:
     Beginner:
     2:
     0.272,0.373,0.071,0.452,0.000: // measure 1
0000
0000
0000
0000
,  // measure 2
0000
0000
0000
0000
,  // measure 3
0000
0000
0100
0000
,  // measure 4
1000
0000
0000
0001
,  // measure 5
0000
0000
1000
0000
0000
0000
0000
0100
,  // measure 6
0000
0000
0000
0100
0000
0000
0010
0000
,  // measure 7
0010
0000
1000
0000
,  // measure 8
0100
0000
0000
0001
,  // measure 9
0000
0000
0001
0000
0000
0000
0000
1000
,  // measure 10
0000
0000
0000
1000
0000
0000
0010
0000
,  // measure 11
0100
0000
0002
0003
,  // measure 12
2000
3000
0100
0001
,  // measure 13
2000
0000
3002
0003
,  // measure 14
0020
0130
0000
0100
,  // measure 15
0020
0000
0032
0000
,  // measure 16
1003
0000
0000
0010
0000
0000
0100
0000
,  // measure 17
0001
0000
0100
0001
,  // measure 18
0000
0000
0001
0000
0100
0000
0000
2002
,  // measure 19
0000
0000
0000
3003
0200
0000
0000
0000
,  // measure 20
0310
0000
0000
0100
0000
0000
0001
0000
,  // measure 21
0000
0100
0002
0000
,  // measure 22
2003
0000
0000
0000
3010
0000
0000
2002
,  // measure 23
0000
0000
0000
3003
0010
0000
0000
0000
,  // measure 24
0100
0000
0000
0010
0000
0000
0100
0000
,  // measure 25
0000
0010
0000
1000
,  // measure 26
0000
0000
0001
0000
0100
0000
0000
2002
,  // measure 27
0000
0000
0000
3003
0020
0000
0000
0000
,  // measure 28
0130
0000
0000
0010
0000
0000
1000
0000
,  // measure 29
0000
0010
0200
0000
,  // measure 30
0302
0000
0000
0000
0003
0000
0000
2002
,  // measure 31
0000
0000
0000
3003
0200
0000
0000
0000
,  // measure 32
0000
0300
1000
0000
0000
0000
0100
0000
,  // measure 33
0000
0000
1000
0000
0001
0000
0000
0010
,  // measure 34
0000
0100
0000
0001
,  // measure 35
0000
1000
0000
0000
,  // measure 36
0000
0000
0000
1000
0000
0000
0001
0000
,  // measure 37
0000
0000
0010
0000
0000
0000
0000
0001
,  // measure 38
0000
0000
0100
0000
,  // measure 39
0010
0000
0100
0000
,  // measure 40
0000
0000
0000
0100
0000
0000
0010
0000
,  // measure 41
0000
0000
1000
0000
0001
0000
0000
0100
,  // measure 42
0000
0000
0001
0000
,  // measure 43
1000
0000
0010
0000
,  // measure 44
0000
0100
0000
0010
0000
0000
1000
0000
,  // measure 45
0001
2000
3000
0100
,  // measure 46
0000
0100
0000
1000
,  // measure 47
0000
0000
1000
0000
0000
0000
0000
0010
,  // measure 48
0000
0000
0000
0010
0000
0000
0100
0000
,  // measure 49
0100
0000
0001
0000
,  // measure 50
0010
0000
0000
1000
,  // measure 51
0000
0000
1000
0000
0000
0000
0000
0001
,  // measure 52
0000
0000
0000
0001
0000
0000
0100
0000
,  // measure 53
0010
0000
0020
0030
,  // measure 54
1000
0002
0003
2000
,  // measure 55
3002
0003
0100
0002
,  // measure 56
0003
2000
3002
0003
,  // measure 57
0000
2000
3000
0002
,  // measure 58
0203
0300
0000
0200
,  // measure 59
0000
0300
0002
0003
,  // measure 60
1000
0020
0030
0200
,  // measure 61
0302
0003
0000
2000
,  // measure 62
3002
0003
2002
3003
,  // measure 63
0100
0000
0010
0000
,  // measure 64
0020
0000
0130
2002
,  // measure 65
0000
0000
0000
3003
0100
0000
0000
0000
,  // measure 66
0100
0000
0200
0300
,  // measure 67
0002
0003
0001
0000
,  // measure 68
0200
0300
2002
0000
,  // measure 69
0000
3003
0001
0000
,  // measure 70
1000
0000
0100
0000
,  // measure 71
0001
0000
1000
0000
,  // measure 72
0010
0000
0200
0000
,  // measure 73
0000
0300
0001
0000
,  // measure 74
0010
0100
0000
0001
,  // measure 75
0000
0000
0001
0000
0000
0000
0000
0100
,  // measure 76
0000
0000
0000
0100
0000
0000
0000
0000
,  // measure 77
0010
0000
1001
0000
;
