#TITLE:Kurokami Midareshi Shura To Narite;
#SUBTITLE:;
#ARTIST:Muramasa Kuoria;
#TITLETRANSLIT:;
#SUBTITLETRANSLIT:;
#ARTISTTRANSLIT:;
#GENRE:;
#CREDIT:;
#BANNER:Kurokami Midareshi Shura no Narite-bn.png;
#BACKGROUND:Kurokami Midareshi Shura to Narite-bg.png;
#LYRICSPATH:;
#CDTITLE:;
#MUSIC:Kurokami Midareshi Shura to Narite.mp3;
#OFFSET:-0.050000;
#SAMPLESTART:44.470001;
#SAMPLELENGTH:12.000000;
#SELECTABLE:YES;
#BPMS:0.000000=300.000000
,540.500000=150.000000
,554.500000=300.000000
;
#STOPS:
;
#BGCHANGES:;
#KEYSOUNDS:;
#ATTACKS:;

//---------------dance-single - ----------------
#NOTES:
     dance-single:
     :
     Challenge:
     18:
     1.000000,1.000000,0.335250,0.393554,0.134829,914.000000,46.000000,54.000000,0.000000,0.000000,0.000000,1.000000,1.000000,0.335250,0.393554,0.134829,914.000000,46.000000,54.000000,0.000000,0.000000,0.000000:
0000
0000
0000
0000
0000
0010
0000
0000
0000
0000
0000
0000
0000
0100
0000
0000
0000
0010
0000
0000
0000
0100
0000
0000
,
0000
0001
0000
0000
0000
1000
0000
0000
0000
0010
0000
0000
0000
0100
0000
0000
0000
0001
0000
0000
0000
0010
0000
0000
,
0000
0100
0000
0000
0000
1000
0000
0000
0000
0000
0000
0000
0000
1000
0000
0000
0000
0100
0000
0000
0000
0010
0000
0000
,
0000
0001
0000
0000
0000
0010
0000
0000
0000
0000
0000
0000
0000
0100
0000
0000
0000
1000
0000
0000
0000
0010
0000
0000
,
0000
0001
0000
0000
0000
0010
0000
0000
0000
0000
0000
0000
0000
1000
0000
0000
0000
0010
0000
0000
0000
0100
0000
0000
,
0000
0001
0000
0000
0000
0010
0000
0000
0000
0100
0000
0000
0000
0001
0000
0000
0000
1000
0000
0000
0000
0010
0000
0000
,
0000
0001
0000
0000
0000
0100
0000
0000
0000
1000
0000
0000
0000
0100
0000
0000
0000
0001
0000
0000
0000
1000
0000
0000
,
0000
0100
0000
0000
0000
0001
0000
0000
0000
1000
0000
0000
0000
0010
0000
0000
0000
0001
0000
0010
0000
0100
0000
1000
,
0000
0001
0000
0100
0000
0000
0001
0000
0000
1000
0000
0000
0000
0000
0000
0001
0000
0000
0100
0000
0000
0002
0000
0000
,
0000
0000
0000
1003
0001
0010
0100
1000
,
0010
0001
0010
1000
0000
0100
0010
0200
,
0000
0000
0000
1300
0010
0100
0001
0010
,
0100
1000
0100
0010
0000
0001
0100
0020
,
0000
0000
0000
1030
0010
0001
0010
1000
,
0100
0001
0100
1000
0000
0001
0100
0020
,
0000
0000
0000
1030
0010
0100
0001
0010
,
0100
1000
0100
0010
0000
0001
1000
0200
,
0000
0000
0000
1300
0010
0001
0010
1000
,
0100
0001
0100
1000
0000
0010
0100
0002
,
0000
0000
0000
1003
0010
0100
0001
0010
,
0100
1000
0100
0010
0000
1000
0010
0002
,
0000
0000
0000
1003
0010
0001
0010
1000
,
0100
0001
0100
1000
0000
0010
1000
0200
,
0000
0000
0000
1300
0010
0100
0001
0010
,
0100
2000
0000
3001
0010
0100
1000
0100
,
0010
0002
0000
0003
0110
0000
0000
2100
,
0000
0000
0000
3100
1000
0001
0100
0010
,
1000
0020
0000
0030
0101
0000
0000
1020
,
0000
0000
0000
1030
0010
0001
0010
0100
,
1000
0200
0000
0300
0110
0000
0000
1001
,
0000
0010
1000
0010
0000
0100
0001
0100
,
0010
1000
0100
0001
0100
1000
0001
0010
,
0100
0000
0000
1000
0001
0100
0001
1000
,
0010
0200
0000
0300
1001
0000
0000
1020
,
0000
0000
0000
1030
0001
1000
0010
0100
,
0001
2000
0000
3000
0101
0000
0000
0021
,
0000
0000
0000
0031
0100
1000
0100
0010
,
0001
0020
0000
0030
1010
0000
0000
1001
,
0000
0100
0001
0100
0000
0010
1000
0010
,
0100
0001
0010
1000
0010
0001
1000
0100
,
0010
0001
0000
0010
0000
0100
0000
1000
,
0100
0010
0000
0100
0000
0001
0000
0100
,
1000
0010
0000
0100
0000
0001
0000
0010
,
0001
1000
0000
0010
0000
0100
0000
1000
,
0100
0001
0000
1000
0000
0010
0000
0100
,
0001
1000
0000
0100
0000
0010
0000
0001
,
0010
0100
0000
1000
0000
0100
0000
1001
,
0000
0010
1000
0100
0001
0100
1000
0010
,
0100
0001
0000
0010
0000
1000
0000
0010
,
0001
1000
0000
0010
0000
0100
0000
0010
,
0100
0001
0000
0010
0000
0100
0000
1000
,
0100
1000
0000
0100
0000
0010
0000
0001
,
0010
0001
0000
0010
0000
0100
0000
1000
,
0100
0010
0000
0001
0000
1000
0000
0010
,
0100
0001
1000
0010
0001
0010
1000
0100
,
2000
0002
0000
0000
3003
0110
0000
1001
,
0000
0010
1000
0001
0010
0100
1000
0100
,
0010
0001
0010
1000
0010
0001
0100
1000
,
0100
0001
0010
1000
0001
0100
1000
0010
,
0100
1000
0100
0010
1000
0001
0100
0010
,
0001
1000
0100
0001
0010
0100
1000
0010
,
0000
1010
0000
0110
0000
0101
0000
2010
,
0000
3010
1000
0001
0100
1000
0100
0001
,
0010
0100
1000
0001
1000
0100
0001
0100
,
1000
0001
0000
0010
0000
1000
0000
0010
,
0001
1000
0000
0010
0000
0100
0000
0010
,
0100
0001
0000
0010
0000
0100
0000
1000
,
0100
1000
0000
0100
0000
0010
0000
0001
,
0010
0001
0000
0010
0000
0100
0000
1000
,
0100
0010
0000
0001
0000
1000
0000
0010
,
0100
0001
0000
1000
0002
0000
1003
0010
,
0100
0002
0000
0103
0000
2002
0000
3003
,
0000
1000
0001
0100
0010
0100
0001
0010
,
0100
1000
0000
0011
0000
2100
0000
0000
,
3000
1010
0000
0100
0020
0000
1030
0010
,
0001
0020
0000
1030
0000
0202
0000
0303
,
0000
0001
1000
0010
1000
0001
0010
0001
,
1000
0100
0000
0110
0000
2001
0000
0000
,
3000
0101
0000
1000
0002
0000
1003
0010
,
0100
0002
0000
0103
0000
2002
0000
3003
,
0000
1000
0001
0100
0010
1000
0001
0010
,
0100
1000
0000
0011
0000
2100
0000
0000
,
3000
0110
0000
1000
0002
0000
0103
0010
,
0001
0020
0000
0130
0000
2020
0000
3030
,
0000
0001
0100
0010
1000
0001
0010
0001
,
1000
0100
0000
0110
0000
2001
0000
0000
,
0000
3010
0100
0010
0100
0001
1000
0001
,
1000
0010
0100
0010
0100
0001
0010
0100
,
1000
0001
1000
0010
0100
0001
0010
0100
,
1000
0100
0010
0001
1000
0100
0010
0001
,
0010
0100
1000
0010
0100
0001
0100
1000
,
0100
0001
0010
1000
0010
0001
0010
0100
,
0001
1000
0010
0001
1000
0010
0001
1000
,
0100
0001
1000
0100
0001
0100
1000
0020
,
0000
0130
0010
1000
0000
0010
0100
0001
,
0010
0100
1000
0010
0100
0001
0010
0100
,
0010
0001
0000
1000
0000
0010
0000
0100
,
0001
0010
0000
0100
0000
1000
0000
0100
,
0010
0001
0000
0010
0000
1000
0000
0010
,
0001
1000
0000
0000
1001
0000
0000
0001
,
1000
0010
0000
0100
0000
0001
0000
0010
,
0100
1000
0000
0010
0000
0100
0000
0110
,
0000
0010
1000
0001
0000
1000
0010
0100
,
0001
0100
0010
0001
0010
1000
0001
0010
,
1000
0010
0000
0100
0000
0001
0000
0100
,
1000
0001
0000
0100
0000
0010
0000
0100
,
0010
1000
0000
0100
0000
0010
0000
0001
,
0010
0001
0000
0010
0000
0100
0000
1000
,
0100
1000
0000
0100
0000
0010
0000
0001
,
0010
0100
0000
1000
0000
0001
0000
0100
,
0010
1000
0000
0001
0000
0100
0000
0101
,
0000
0001
0100
0010
1000
0001
0010
1000
,
0001
0100
0000
0010
0000
1000
0000
0010
,
0001
1000
0000
0010
0000
0100
0000
0010
,
0100
0001
0000
0010
0000
0100
0000
1000
,
0100
1000
0000
0100
0000
0010
0000
0001
,
0010
0001
0000
0010
0000
0100
0000
1000
,
0100
0010
0000
0001
0000
1000
0000
0010
,
0100
0002
0000
1000
0000
0010
0000
0103
,
0000
0010
1000
0001
0010
0100
1000
0010
,
0000
1001
0000
0110
0000
0100
0001
0010
,
1000
0001
0000
0200
0000
1300
0010
0001
,
0010
1000
0000
0001
0100
0010
1000
0010
,
0000
0100
0001
0100
0000
0010
1000
0200
,
0000
0000
0000
0310
0001
1000
0100
1000
,
0001
1000
0010
0100
0010
0001
0010
1000
,
0001
2000
0000
3100
0010
0001
0010
0100
,
0010
0002
0000
1003
0010
0100
0010
0001
,
1000
0100
0000
0110
0000
0010
1000
0001
,
0100
0010
0000
1010
0000
1000
0010
0100
,
0001
0010
0000
0011
0000
0001
1000
0100
,
1000
0001
0000
1000
0010
1000
0001
0200
,
0000
0000
0000
0301
1000
0001
0010
1000
,
0010
0001
1000
0100
0001
0100
1000
0100
,
0010
0001
0000
1000
0100
0010
0001
0010
,
0100
2000
0000
3200
0000
0320
0000
0000
,
0031
1000
0001
0000
0100
0000
0010
0000
1000
0000
0010
0000
0001
0000
0010
0000
,
1000
0010
0100
0000
1000
0000
0001
0000
0010
0000
0100
0000
0001
0000
1000
0000
,
0010
0100
0010
0000
1001
0000
0101
0000
1010
0000
1000
0000
0100
0000
0010
0000
,
0001
0100
0010
1000
0100
0010
0001
0100
,
0010
1000
0000
0010
0000
0110
0000
0100
,
0010
0100
0001
0010
0100
1000
0100
0010
,
0001
1000
0010
0100
0001
1000
0010
0001
,
0010
1000
0100
0001
0100
1000
0010
0100
,
0001
0010
0100
0010
0001
1000
0100
0010
,
0100
1000
0001
1000
0010
0100
0010
0100
,
1000
0100
0001
0010
0100
1000
0010
0100
,
0000
0010
0100
0001
0000
0000
0000
1000
,
0001
0010
0100
1000
0000
0010
1000
0010
,
0000
0100
0001
0100
0000
0000
0000
0010
,
1000
0001
0010
0100
0000
1000
0100
0010
,
0000
0001
0100
0010
0000
0000
0000
1000
,
0010
0001
0010
1000
0000
0001
1000
0010
,
0000
1000
0001
0100
0000
0000
0000
0001
,
0100
0010
1000
0100
2000
0002
0000
0000
,
0000
0000
0000
0000
,
0000
0000
0000
3003
;

//---------------dance-single - Copied from----------------
#NOTES:
     dance-single:
     Copied from:
     Hard:
     17:
     0.975557,1.000000,0.145761,0.437283,0.120253,857.000000,20.000000,60.000000,0.000000,0.000000,0.000000,0.975557,1.000000,0.145761,0.437283,0.120253,857.000000,20.000000,60.000000,0.000000,0.000000,0.000000:
0000
0000
0000
0000
0000
0010
0000
0000
0000
0000
0000
0000
0000
1000
0000
0000
0000
0001
0000
0000
0000
0100
0000
0000
,
0000
0010
0000
0000
0000
0100
0000
0000
0000
0001
0000
0000
0000
0010
0000
0000
0000
0100
0000
0000
0000
1000
0000
0000
,
0000
0100
0000
0000
0000
0010
0000
0000
0000
0000
0000
0000
0000
0010
0000
0000
0000
0001
0000
0000
0000
1000
0000
0000
,
0000
0001
0000
0000
0000
0010
0000
0000
0000
0000
0000
0000
0000
0100
0000
0000
0000
1000
0000
0000
0000
0010
0000
0000
,
0000
0100
0000
0000
0000
0001
0000
0000
0000
0000
0000
0000
0000
1000
0000
0000
0000
0010
0000
0000
0000
1000
0000
0000
,
0000
0001
0000
0000
0000
0100
0000
0000
0000
0001
0000
0000
0000
1000
0000
0000
0000
0010
0000
0000
0000
0100
0000
0000
,
0000
0010
0000
0000
0000
1000
0000
0000
0000
0001
0000
0000
0000
0010
0000
0000
0000
0100
0000
0000
0000
1000
0000
0000
,
0000
0100
0000
0000
0000
0010
0000
0000
0000
0001
0000
0000
0000
0010
0000
0000
0000
0000
1001
0000
0000
0000
0000
0000
,
0000
0010
1000
0010
0000
0100
0001
0100
,
0000
0000
0000
1000
0010
0100
0001
0010
,
0100
1000
0010
0100
0000
0001
1000
0001
,
0000
0000
0000
1000
0001
0100
0001
0010
,
0100
1000
0001
1000
0000
0010
0100
0010
,
0000
0000
0000
1000
0010
1000
0001
0100
,
0001
1000
0100
1000
0000
0001
0100
0001
,
0000
0000
0000
0100
1000
0100
0010
1000
,
0001
0100
0010
1000
0000
0001
1000
0010
,
0000
0000
0000
1000
0010
0100
0001
1000
,
0010
0100
0001
1000
0000
0010
1000
0100
,
0000
0000
0000
0010
0100
1000
0001
0010
,
0100
1000
0001
0010
0000
0100
1000
0001
,
0000
0000
0000
0010
0100
1000
0100
0010
,
0001
0010
0100
1000
0000
0001
1000
0001
,
0000
0000
0000
0010
0100
1000
0010
0100
,
0001
1000
0000
0001
0010
0100
1000
0100
,
0010
0002
0000
0000
0023
0000
0000
0230
,
0000
0000
0300
0100
1000
0001
0100
0001
,
1000
0020
0000
0000
0230
0000
0000
0320
,
0000
0000
0000
1030
0010
1000
0001
0100
,
0001
0200
0000
0000
0320
0000
0000
2030
,
0000
3010
1000
0010
0000
0100
0001
0100
,
0010
0100
1000
0100
0001
0010
0100
1000
,
0100
0000
0000
0010
0001
0010
0100
1000
,
0001
0200
0000
0000
0302
0000
0000
2003
,
0000
0000
0000
3100
0010
0001
0010
0100
,
1000
0002
0000
0000
0203
0000
0000
0320
,
0000
0000
0000
1030
0001
1000
0100
0010
,
0001
0020
0000
0000
0230
0000
0300
1001
,
0000
1000
0001
0100
0000
0001
1000
0010
,
0100
0001
1000
0001
1000
0010
1000
0010
,
0100
0001
0000
0010
0000
0100
0000
1000
,
0100
0010
0000
0100
0000
0001
0000
0100
,
1000
0010
0000
0100
0000
0001
0000
0010
,
0001
1000
0000
0010
0000
0100
0000
1000
,
0100
0001
0000
1000
0000
0010
0000
0100
,
0001
1000
0000
0100
0000
0010
0000
0001
,
0010
0100
0000
1000
0000
0100
0000
1001
,
0000
0001
1000
0010
1000
0100
1000
0001
,
0100
0001
0000
0010
0000
1000
0000
0010
,
0001
1000
0000
0010
0000
0100
0000
0010
,
0100
0001
0000
0010
0000
0100
0000
1000
,
0100
1000
0000
0100
0000
0010
0000
0001
,
0010
0001
0000
0010
0000
0100
0000
1000
,
0100
0010
0000
0001
0000
1000
0000
0010
,
0000
0100
0000
0001
1000
0001
1000
0001
,
0200
0020
0000
0000
0300
0100
0000
0100
,
0000
0130
0000
1000
0000
0001
0000
0100
,
0010
0100
0000
0001
0000
1000
0000
0010
,
1000
0001
0000
0100
0000
0001
0000
0010
,
0100
1000
0000
0010
0000
0100
0000
0010
,
1000
0001
0000
0010
0000
0100
1000
0100
,
0010
0002
0000
0203
0000
0302
0000
2003
,
0000
3001
1000
0001
0010
0100
1000
0001
,
0010
0100
1000
0010
0100
0001
1000
0010
,
0100
0001
0000
0010
0000
1000
0000
0010
,
0001
1000
0000
0010
0000
0100
0000
0010
,
0100
0001
0000
0010
0000
0100
0000
1000
,
0100
1000
0000
0100
0000
0010
0000
0001
,
0010
0001
0000
0010
0000
0100
0000
1000
,
0100
0010
0000
0001
0000
1000
0000
0010
,
0100
0001
0000
1000
0001
0000
1000
0010
,
0100
0010
0000
0100
0000
2002
0000
3003
,
0000
0100
0000
0001
1000
0000
1000
0010
,
0000
0100
0000
0010
0000
2002
0000
0000
,
3003
0010
0000
0100
0010
0000
0100
0001
,
1000
0001
0000
1000
0000
0202
0000
0000
,
0303
0010
0000
1000
0010
0000
0010
0100
,
0000
0001
0000
1000
0000
2002
0000
0000
,
3003
0100
0000
0001
1000
0000
0001
0100
,
0010
0100
0000
0010
0000
2002
0000
3003
,
0000
0010
0000
1000
0001
0000
0001
0100
,
0000
0010
0000
0100
0000
2002
0000
0000
,
3003
0100
0000
0010
0100
0000
0010
1000
,
0001
1000
0000
0001
0000
2020
0000
0000
,
3030
0100
0000
0001
0100
0000
0100
0010
,
0000
1000
0000
0001
0000
2001
0000
0000
,
0000
3020
0000
0230
0000
0302
0000
0023
,
0000
0230
0000
2300
0000
3200
0000
0320
,
0000
0031
0010
0001
0100
0010
1000
0100
,
0010
0001
0010
0100
1000
0100
0010
0001
,
1000
0010
0100
0001
0010
0001
1000
0010
,
1000
0001
0100
0001
1000
0001
0010
0100
,
1000
0100
0010
0001
1000
0010
1000
0001
,
0100
0001
1000
0010
1000
0001
0010
0002
,
0000
1003
0100
0010
0000
0001
0010
0100
,
1000
0001
0100
1000
0100
0001
0010
0100
,
0010
0001
0000
1000
0000
0010
0000
0100
,
0001
0010
0000
0100
0000
1000
0000
0100
,
0010
0001
0000
0010
0000
1000
0000
0010
,
0001
1000
0000
0000
1001
0000
0000
0001
,
1000
0010
0000
0100
0000
0001
0000
0010
,
0100
1000
0000
0010
0000
0100
0000
0110
,
0000
0010
1000
0010
0000
0100
0001
0010
,
0001
0100
0010
1000
0010
0100
0001
1000
,
0001
1000
0000
0100
0000
0001
0000
0100
,
1000
0001
0000
0100
0000
0010
0000
0100
,
0010
1000
0000
0100
0000
0010
0000
0001
,
0010
0001
0000
0010
0000
0100
0000
1000
,
0100
1000
0000
0100
0000
0010
0000
0001
,
0010
0100
0000
1000
0000
0001
0000
0100
,
0010
1000
0000
0001
0000
0100
0000
0101
,
0000
0001
1000
0010
1000
0001
0010
0100
,
1000
0001
0000
0010
0000
1000
0000
0010
,
0001
1000
0000
0010
0000
0100
0000
0010
,
0100
0001
0000
0010
0000
0100
0000
1000
,
0100
1000
0000
0100
0000
0010
0000
0001
,
0010
0001
0000
0010
0000
0100
0000
1000
,
0100
0010
0000
0001
0000
1000
0000
0010
,
0100
0001
0000
1000
0000
0001
0000
0100
,
0000
0010
1000
0001
0010
0100
1000
0010
,
0000
1001
0000
0110
0000
0100
0001
0010
,
1000
0001
0000
0200
0000
1300
0010
0001
,
0010
1000
0000
0001
0100
0010
1000
0010
,
0000
0100
0001
0100
0000
0010
1000
0200
,
0000
0000
0000
0310
0001
1000
0100
1000
,
0001
1000
0010
0100
0010
0001
0010
1000
,
0001
2000
0000
3100
0010
0001
0010
0100
,
0010
0002
0000
1003
0010
0100
0010
0001
,
1000
0100
0000
0110
0000
0010
1000
0001
,
0100
0010
0000
1010
0000
1000
0010
0100
,
0001
0010
0000
0011
0000
0001
1000
0100
,
1000
0001
0000
1000
0010
1000
0001
0200
,
0000
0000
0000
0301
1000
0001
0010
1000
,
0010
0001
1000
0100
0001
0100
1000
0100
,
0010
0001
0000
1000
0100
0010
0001
0010
,
0100
2000
0000
3002
0000
0203
0000
0000
,
0301
1000
0001
0000
0100
0000
0010
0000
1000
0000
0010
0000
0001
0000
0010
0000
,
1000
0010
0100
0000
1000
0000
0001
0000
0010
0000
0100
0000
0001
0000
1000
0000
,
0010
0100
0010
0000
2000
0000
3002
0000
0203
0000
0301
0000
0010
0000
0100
0000
,
1000
0010
0100
0001
0010
0100
1000
0010
,
0100
0001
0000
0100
0000
0110
0000
0010
,
0000
0100
0000
0001
0100
1000
0000
0001
,
0000
0010
0000
1000
0100
0001
0000
1000
,
0000
0001
0000
0100
1000
0001
0000
0100
,
0000
0010
0000
1000
0001
0100
0000
0010
,
0000
0100
0000
0001
0010
1000
0000
0001
,
0000
0100
0000
1000
0000
0001
0100
0010
,
0000
0100
0010
1000
0000
0000
0000
0001
,
1000
0100
0010
0001
0000
0100
0001
0100
,
0000
0010
1000
0010
0000
0000
0000
0100
,
0001
1000
0100
0010
0000
0001
0010
0100
,
0000
1000
0010
0100
0000
0000
0000
0001
,
0100
1000
0100
0001
0000
1000
0001
0100
,
0000
0001
1000
0010
0000
0000
0000
1000
,
0010
0100
0001
0010
0002
2000
0000
0000
,
0000
0000
0000
0000
,
0000
0000
0000
3003
;

//---------------dance-single - Copied from Copied f----------------
#NOTES:
     dance-single:
     Copied from Copied f:
     Medium:
     14:
     0.699652,0.971041,0.029152,0.364402,0.094745,618.000000,4.000000,50.000000,0.000000,0.000000,0.000000,0.699652,0.971041,0.029152,0.364402,0.094745,618.000000,4.000000,50.000000,0.000000,0.000000,0.000000:
// measure 0
0000
0000
0000
0000
0000
0001
0000
0000
0000
0000
0000
0000
0000
1000
0000
0000
0000
0100
0000
0000
0000
1000
0000
0000
,  // measure 1
0000
0000
0000
0000
0000
0001
0000
0000
0000
0100
0000
0000
0000
0001
0000
0000
0000
0000
0000
0000
0000
1000
0000
0000
,  // measure 2
0000
0010
0000
0000
0000
0100
0000
0000
0000
0000
0000
0000
0000
0001
0000
0000
0000
1000
0000
0000
0000
0001
0000
0000
,  // measure 3
0000
1000
0000
0000
0000
0010
0000
0000
0000
0000
0000
0000
0000
0100
0000
0000
0000
0001
0000
0000
0000
1000
0000
0000
,  // measure 4
0000
0010
0000
0000
0000
0100
0000
0000
0000
0000
0000
0000
0000
0001
0000
0000
0000
1000
0000
0000
0000
0010
0000
0000
,  // measure 5
0000
0000
0000
0000
0000
0100
0000
0000
0000
0001
0000
0000
0000
1000
0000
0000
0000
0000
0000
0000
0000
0010
0000
0000
,  // measure 6
0000
0100
0000
0000
0000
0001
0000
0000
0000
0000
0000
0000
0000
1000
0000
0000
0000
0010
0000
0000
0000
0100
0000
0000
,  // measure 7
0000
0000
0000
0000
0000
0001
0000
0000
0000
1000
0000
0000
0000
0010
0000
0000
0000
0000
0000
0000
0000
0100
0000
0000
,  // measure 8
0010
1000
0010
0100
,  // measure 9
0001
0000
0000
1000
0000
0001
0000
0100
,  // measure 10
0000
0010
0000
1000
0000
0010
0100
0010
,  // measure 11
0000
0000
0000
0100
0000
0001
0000
0010
,  // measure 12
0000
0100
0000
1000
0000
0001
0100
0001
,  // measure 13
0000
0000
0000
1000
0000
0010
0000
0100
,  // measure 14
0000
0001
0000
1000
0000
0001
1000
0001
,  // measure 15
0000
0000
0000
1000
0000
0010
0000
0100
,  // measure 16
0000
0001
0000
0010
0000
0100
1000
0010
,  // measure 17
0000
0000
0000
1000
0000
0001
0000
0010
,  // measure 18
0000
0001
0000
1000
0000
0001
1000
0100
,  // measure 19
0000
0000
0000
0010
0000
0001
0000
1000
,  // measure 20
0000
0001
0000
1000
0000
0010
1000
0100
,  // measure 21
0000
0000
0000
0010
0000
0001
0000
1000
,  // measure 22
0000
0010
0000
1000
0000
0100
1000
0100
,  // measure 23
0000
0000
0000
0010
0000
0001
0000
0010
,  // measure 24
0000
0100
0000
1000
0000
0100
0000
0010
,  // measure 25
0000
0002
0000
0000
2003
0000
0000
3020
,  // measure 26
0000
0000
0000
0130
0000
0100
0000
0001
,  // measure 27
0000
0002
0000
0000
2003
0000
0000
3002
,  // measure 28
0000
0000
0000
1003
0000
1000
0000
0010
,  // measure 29
0000
0020
0000
0000
0230
0000
0000
0302
,  // measure 30
0000
1003
0000
0010
0000
0000
0100
0000
,  // measure 31
0000
0010
0000
0000
1000
0000
0000
0100
,  // measure 32
0000
0000
0000
1000
0001
1000
0001
1000
,  // measure 33
0001
0020
0000
0000
0230
0000
0000
2300
,  // measure 34
0000
0000
0000
3100
0000
0100
0000
0010
,  // measure 35
0000
0020
0000
0000
0032
0000
0000
2003
,  // measure 36
0000
0000
0000
3001
0100
0001
0100
0001
,  // measure 37
0100
0002
0000
0000
2003
0000
0000
3001
,  // measure 38
0000
1000
0001
1000
0000
0001
0000
0001
,  // measure 39
0000
0010
0000
0010
0000
0100
0000
0100
,  // measure 40
0000
0010
0000
0000
0000
0000
0000
0001
,  // measure 41
1000
0010
0000
0000
0000
0000
0000
0100
,  // measure 42
0001
1000
0000
0000
0000
0000
0000
0010
,  // measure 43
1000
0020
0000
0000
0000
2030
0000
0000
,  // measure 44
0000
3001
0000
0000
0000
0000
0000
0100
,  // measure 45
0010
0100
0000
0000
0000
0000
0000
0001
,  // measure 46
1000
0001
0000
0000
0000
0000
0000
1000
,  // measure 47
0000
0001
0000
0010
0000
0100
0000
1000
,  // measure 48
0000
0001
0000
0000
0000
0000
0000
0010
,  // measure 49
0001
1000
0000
0000
0000
0000
0000
0010
,  // measure 50
1000
0001
0000
0000
0000
0000
0000
0100
,  // measure 51
0010
0200
0000
0000
0000
0320
0000
0000
,  // measure 52
0000
1030
0000
0000
0000
0000
0000
0001
,  // measure 53
0100
0001
0000
0000
0000
0000
0000
1000
,  // measure 54
0010
2000
0000
0001
0000
0001
0000
0001
,  // measure 55
0000
3002
0000
0000
0000
0100
0000
0100
,  // measure 56
0000
0103
0000
0000
0000
0000
0000
0010
,  // measure 57
0100
0010
0000
0000
0000
1000
0000
0001
,  // measure 58
0000
0100
0000
0000
0000
0000
0000
0010
,  // measure 59
1000
0001
0000
0000
0000
0010
0000
0100
,  // measure 60
0000
1000
0000
0000
0000
0000
0000
0100
,  // measure 61
0010
0001
0000
1000
0000
0001
0000
1000
,  // measure 62
0000
0001
0010
0000
0010
0100
0000
0100
,  // measure 63
1000
0000
1000
0100
0000
0100
0010
0000
,  // measure 64
0010
0001
0000
0000
0000
0000
0000
1000
,  // measure 65
0001
1000
0000
0000
0000
0100
0000
0010
,  // measure 66
0000
0001
0000
0000
0000
0000
0000
1000
,  // measure 67
0010
1000
0000
0000
0000
0010
0000
0100
,  // measure 68
0000
0001
0000
0000
0000
0000
0000
1000
,  // measure 69
0001
0100
0000
0000
0001
0000
0000
0010
,  // measure 70
0000
0001
0000
1000
0001
0000
1000
0010
,  // measure 71
0000
0100
0000
0010
0000
2000
0000
0000
,  // measure 72
0000
3001
0000
0100
0010
0000
0100
0010
,  // measure 73
0000
1000
0000
0001
0000
0102
0000
0000
,  // measure 74
0000
0013
0000
0100
1000
0000
0100
1000
,  // measure 75
0000
0010
0000
0100
0000
0020
0000
0000
,  // measure 76
0000
0130
0000
0001
1000
0000
0001
1000
,  // measure 77
0000
0010
0000
0100
0000
1002
0000
0000
,  // measure 78
0000
0013
0000
0100
1000
0000
0100
1000
,  // measure 79
0000
0001
0000
0100
0000
0020
0000
0000
,  // measure 80
0000
0130
0000
0001
0010
0000
0100
1000
,  // measure 81
0000
0010
0000
0100
0000
2001
0000
0000
,  // measure 82
0000
3010
0000
0100
0001
0000
1000
0010
,  // measure 83
0000
0100
0000
0010
0000
0200
0000
0000
,  // measure 84
0000
0301
0000
1000
0010
0000
1000
0100
,  // measure 85
0000
0010
0000
0001
0000
2000
0000
0000
,  // measure 86
0000
3020
0000
0000
0000
0230
0000
0000
,  // measure 87
0000
0302
0000
0000
0000
2003
0000
0000
,  // measure 88
0000
3001
0000
0001
0000
1000
0010
0100
,  // measure 89
0000
0010
0000
0010
0000
0100
0001
1000
,  // measure 90
0000
0100
0000
0100
0000
0010
0001
0100
,  // measure 91
0000
1000
0000
1000
0000
0100
0001
0010
,  // measure 92
0000
0001
0000
0001
0000
1000
0100
1000
,  // measure 93
0000
0010
0000
0010
0000
0100
0001
1000
,  // measure 94
0000
0001
1000
0001
0000
0100
0000
0100
,  // measure 95
0000
0010
0000
1000
0000
0001
0000
0010
,  // measure 96
0000
0100
0000
1000
0000
0001
0000
0010
,  // measure 97
0100
0010
0000
0100
0000
1000
0000
0100
,  // measure 98
1000
0100
0000
0010
0000
0001
0000
0010
,  // measure 99
0100
0010
0000
0000
0110
0000
0000
0100
,  // measure 100
0010
0001
0000
1000
0000
0001
0000
0010
,  // measure 101
0100
1000
0000
0010
0000
0100
0000
0001
,  // measure 102
0000
1000
0010
0100
0000
0001
0000
1000
,  // measure 103
0000
0010
0000
0100
0000
0001
0000
0010
,  // measure 104
0000
0100
0000
0000
0000
0000
0000
1000
,  // measure 105
0001
0100
0000
0000
0000
0000
0000
0010
,  // measure 106
1000
0001
0000
0000
0000
0000
0000
0100
,  // measure 107
0010
0200
0000
0000
0000
0302
0000
0000
,  // measure 108
0000
1003
0000
0000
0000
0000
0000
0001
,  // measure 109
0010
0100
0000
0000
0000
0000
0000
1000
,  // measure 110
0010
0100
0000
0001
0000
0010
0000
0100
,  // measure 111
0000
1000
0000
0100
0000
0010
0000
0001
,  // measure 112
0000
0100
0000
0000
0000
0000
0000
0010
,  // measure 113
0100
0001
0000
0000
0000
0000
0000
1000
,  // measure 114
0010
0100
0000
0000
0000
0000
0000
0001
,  // measure 115
0100
2000
0000
0000
0000
3200
0000
0000
,  // measure 116
0000
0301
0000
0000
0000
0000
0000
1000
,  // measure 117
0100
0010
0000
0000
0000
0000
0000
0001
,  // measure 118
0100
1000
0000
0000
0000
0000
0000
0100
,  // measure 119
0010
2000
0000
0000
0000
3200
0000
0000
,  // measure 120
0000
0310
0000
0001
0000
1000
0001
1000
,  // measure 121
0001
1000
0000
0010
0000
0100
0000
0100
,  // measure 122
0000
0001
0000
0001
0000
1000
0010
1000
,  // measure 123
0000
0001
0000
0100
0000
0010
0000
2000
,  // measure 124
0000
0000
0000
3001
0000
0010
0000
0100
,  // measure 125
0000
1000
0000
0010
0000
0100
0000
0001
,  // measure 126
1000
0002
0000
0103
0000
0010
0000
0100
,  // measure 127
0000
0002
0000
1003
0000
0010
0000
1000
,  // measure 128
0000
0001
0000
0100
0000
0010
1000
0010
,  // measure 129
1000
0010
0000
0100
0000
0001
0100
0001
,  // measure 130
0100
0001
0000
1000
0000
0010
0100
0010
,  // measure 131
0100
0010
0000
1000
0000
0001
0000
0200
,  // measure 132
0000
0000
0000
0301
1000
0001
0000
0100
,  // measure 133
0000
0010
0000
1000
0001
1000
0000
0100
,  // measure 134
0000
0010
0000
0001
0010
0001
0000
0010
,  // measure 135
0000
0200
0000
2300
0000
3002
0000
0000
,  // measure 136
1003
0001
1000
0000
0010
0000
0010
0000
0100
0000
0100
0000
0001
0000
0001
0000
,  // measure 137
1000
1000
0001
0001
0010
0010
0100
0100
,  // measure 138
1000
1000
0001
0001
1000
1000
0000
0001
,  // measure 139
0000
0010
0000
0100
0000
1000
0000
0001
,  // measure 140
1000
0001
0000
0100
0000
0010
0000
0100
,  // measure 141
0000
0010
0000
1000
0010
1000
0000
0001
,  // measure 142
0000
0100
0000
0010
0100
0001
0000
0010
,  // measure 143
0000
0100
0000
1000
0001
0010
0000
0100
,  // measure 144
0000
1000
0000
0001
1000
0001
0000
0100
,  // measure 145
0000
0010
0000
0100
0001
1000
0000
0001
,  // measure 146
0000
0010
0000
0100
0000
1000
0100
0010
,  // measure 147
0000
0100
0010
0001
0000
0000
0000
0010
,  // measure 148
0000
0100
0000
1000
0000
0001
0100
0001
,  // measure 149
0000
1000
0010
1000
0000
0000
0000
0010
,  // measure 150
0000
1000
0000
0001
0000
0100
0010
0100
,  // measure 151
0000
0001
1000
0001
0000
0000
0000
1000
,  // measure 152
0000
0010
0000
0100
0000
0001
1000
0010
,  // measure 153
0000
0100
0001
1000
0000
0000
0000
0100
,  // measure 154
0010
0001
0010
0100
2000
0002
0000
0000
,  // measure 155
0000
0000
0000
0000
,  // measure 156
0000
0000
0000
3003
;

//---------------dance-single - Copied from Copied f----------------
#NOTES:
     dance-single:
     Copied from Copied f:
     Easy:
     7:
     0.472682,0.514081,0.029152,0.349826,0.000000,402.000000,4.000000,48.000000,0.000000,0.000000,0.000000,0.472682,0.514081,0.029152,0.349826,0.000000,402.000000,4.000000,48.000000,0.000000,0.000000,0.000000:
0000
0000
0000
0000
,
0000
0000
0000
0000
,
0000
0000
0000
0000
,
0000
0000
0000
0000
,
0000
0000
0000
0000
,
0000
0000
0000
0000
,
0000
0000
0000
0000
,
0000
0000
0000
0000
,
0000
1000
0000
0001
0000
1000
0000
0001
,
0000
0000
0100
0000
,
0000
0000
0010
0000
0000
1000
0000
1000
,
0000
0000
0000
0001
0000
1000
0000
0001
,
0000
1000
0000
0000
0000
0010
0000
0010
,
0000
0000
0000
1000
0000
0010
0000
1000
,
0000
0010
0000
0000
0000
0100
0000
0100
,
0000
0000
0000
0001
0000
1000
0000
0001
,
0000
0100
0000
0000
0000
0001
0000
0001
,
0000
0000
0000
0010
0000
0100
0000
1000
,
0000
0100
0000
0000
0000
0010
0000
0010
,
0000
0000
0000
0001
0000
1000
0000
0001
,
0000
1000
0000
0000
0000
0010
0000
0010
,
0000
0000
0000
0100
0000
0010
0000
0100
,
0000
0010
0000
0000
0000
1000
0000
1000
,
0000
0000
0000
0001
0000
1000
0000
0001
,
0000
1000
0000
0020
0000
0000
0030
0000
,
0000
0100
0000
0000
0100
0000
0000
0200
,
0000
0000
0000
0000
,
0000
0301
0000
0000
0001
0000
0000
0002
,
0000
0000
0000
0000
,
0000
1003
0000
0000
1000
0000
0000
1000
,
0000
0010
0000
0000
0000
0000
0100
0000
,
0000
0010
0000
0000
1000
0000
0000
0100
,
0000
0000
0000
0010
0000
0010
0000
0010
,
0000
0002
0000
0000
2003
0000
0000
3002
,
0000
0000
0000
0013
0000
0010
0000
0010
,
0000
0200
0000
0000
0320
0000
0000
0230
,
0000
0000
0000
0310
0000
0010
0000
0010
,
0000
2000
0000
0000
3002
0000
0000
0103
,
0000
0010
0000
0010
0000
1000
0000
0001
,
0000
1000
0000
0001
0000
1000
0000
0001
,
0000
0200
0000
0300
0000
0000
0000
0001
,
0000
1000
0000
0000
0000
0000
0000
0010
,
0000
0100
0000
0000
0000
0000
0000
0100
,
0000
0002
0000
0000
0000
2003
0000
0000
,
0000
3010
0000
0000
0000
0000
0000
0100
,
0000
0100
0000
0000
0000
0000
0000
0001
,
0000
0001
0000
0000
0000
0000
0000
0000
,
0000
1000
0000
0001
0000
0000
0000
1000
,
0000
0001
0000
0000
0000
0000
0000
0010
,
0000
0100
0000
0000
0000
0000
0000
1000
,
0000
0001
0000
0000
0000
0000
0000
0100
,
0000
0200
0000
0000
0000
0302
0000
0000
,
0000
0013
0000
0000
0000
0000
0000
0100
,
0000
0100
0000
0000
0000
0000
0000
1000
,
0000
1000
0000
0001
0000
0001
0000
1000
,
0000
1000
0000
0000
0000
0010
0000
0010
,
0000
0010
0000
0000
0000
0000
0000
0100
,
0000
0100
0000
0000
0000
0001
0000
1000
,
0000
0001
0000
0000
0000
0000
0000
0010
,
0000
0010
0000
0000
0000
0100
0000
0001
,
0000
1000
0000
0000
0000
0000
0000
0100
,
0000
0010
0000
0100
0000
0001
0000
1000
,
0000
0002
0000
0000
0000
2003
0000
0000
,
0000
3020
0000
0000
0000
0230
0000
0000
,
0000
0301
0000
0000
0000
0000
0000
1000
,
0000
1000
0000
0000
0000
0010
0000
0100
,
0000
0001
0000
0000
0000
0000
0000
0100
,
0000
0010
0000
0000
0000
0100
0000
0010
,
0000
1000
0000
0000
0000
0000
0000
0001
,
0000
0100
0000
0000
0001
0000
0000
1000
,
0000
0001
0000
0000
0100
0000
0000
0001
,
0000
1000
0000
0001
0000
0200
0000
0000
,
0000
0310
0000
0000
1000
0000
0000
0100
,
0000
0010
0000
0001
0000
0002
0000
0000
,
0000
0013
0000
0000
0100
0000
0000
1000
,
0000
0010
0000
0100
0000
0002
0000
0000
,
0000
1003
0000
0000
0010
0000
0000
0100
,
0000
0010
0000
1000
0000
0020
0000
0000
,
0000
0130
0000
0000
0001
0000
0000
0010
,
0000
0100
0000
1000
0000
0020
0000
0000
,
0000
1030
0000
0000
0001
0000
0000
0100
,
0000
0001
0000
0010
0000
0200
0000
0000
,
0000
1300
0000
0000
0010
0000
0000
0100
,
0000
0001
0000
1000
0000
0200
0000
0000
,
0000
0310
0000
0000
0001
0000
0000
0100
,
0000
0010
0000
1000
0000
0002
0000
0000
,
0000
0203
0000
0000
0000
0320
0000
0000
,
0000
2030
0000
0000
0000
3002
0000
0000
,
0000
1003
0000
1000
0000
1000
0000
1000
,
0000
0010
0000
0010
0000
0010
0000
0010
,
0000
0100
0000
0100
0000
0100
0000
0100
,
0000
0001
0000
0001
0000
0001
0000
0001
,
0000
1000
0000
1000
0000
1000
0000
1000
,
0000
0010
0000
0010
0000
0010
0000
0010
,
0000
0100
0000
0000
0000
0100
0000
0000
,
0000
0001
0000
1000
0000
0001
0000
1000
,
0000
0010
0000
0000
0000
0000
0000
0010
,
0000
0010
0000
0000
0000
0000
0000
0100
,
0000
0100
0000
0000
0000
0000
0000
0001
,
0000
0001
0000
0000
1000
0000
0000
0010
,
0000
0010
0000
0000
0000
0000
0000
0100
,
0000
0100
0000
0001
0000
1000
0000
0001
,
0000
1000
0000
0000
0000
0001
0000
0000
,
0000
0010
0000
0100
0000
1000
0000
0010
,
0000
0100
0000
0000
0000
0000
0000
0001
,
0000
0001
0000
0000
0000
0000
0000
1000
,
0000
1000
0000
0000
0000
0000
0000
0010
,
0000
0020
0000
0000
0000
0230
0000
0000
,
0000
0301
0000
0000
0000
0000
0000
1000
,
0000
0010
0000
0000
0000
0000
0000
0100
,
0000
0001
0000
0000
0000
0000
0000
1000
,
0000
0001
0000
0001
0000
1000
0000
1000
,
0000
0020
0000
0030
0000
0000
0000
0100
,
0000
0010
0000
0000
0000
0000
0000
0100
,
0000
0001
0000
0000
0000
0000
0000
0010
,
0000
0200
0000
0000
0000
2300
0000
0000
,
0000
3001
0000
0000
0000
0000
0000
1000
,
0000
0010
0000
0000
0000
0000
0000
0100
,
0000
0001
0000
0000
0000
0000
0000
0100
,
0000
0020
0000
0000
0000
0230
0000
0000
,
0000
0302
0000
0000
0000
1003
0000
0010
,
0000
1000
0000
0000
0000
0001
0000
0100
,
0000
0001
0000
0000
0000
0100
0000
0010
,
0000
0100
0000
0000
0000
0001
0000
2000
,
0000
0000
0000
3001
0000
0001
0000
1000
,
0000
1000
0000
0010
0000
0010
0000
0100
,
0000
0200
0000
0300
0000
0010
0000
0100
,
0000
0002
0000
0003
0000
0010
0000
0100
,
0000
2000
0000
3000
0000
1001
0000
0000
,
0000
0110
0000
0000
0000
1001
0000
0000
,
0000
0110
0000
0000
0000
0010
0000
0010
,
0000
0010
0000
1000
0000
0001
0000
0200
,
0000
0000
0000
0301
0000
0001
0000
0100
,
0000
0010
0000
1000
0000
1000
0000
0001
,
0000
1000
0000
0000
0000
0001
0000
1000
,
0000
0010
0000
1000
0000
0002
0000
0000
,
0000
0203
0000
0001
0000
0001
0000
0010
,
0000
0010
0000
1000
0000
1000
0000
0010
,
0000
0010
0000
0001
0000
0301
0000
0001
,
0000
1000
0000
1000
0000
0010
0000
0100
,
0000
0100
0000
0000
0000
0000
0000
0000
,
0000
0000
0000
1000
0000
1000
0000
0000
,
0000
0100
0000
0010
0000
0001
0000
0000
,
0000
0000
0000
1000
0000
0001
0000
0000
,
0000
1000
0000
0001
0000
0100
0000
0000
,
0000
0000
0000
0010
0000
0100
0000
0000
,
0001
0000
0000
1000
0000
0010
0000
0010
,
0000
0100
0000
0100
0000
0000
0000
0010
,
0000
0100
0000
0000
0000
0001
0000
0001
,
0000
1000
0000
1000
0000
0000
0000
0010
,
0000
1000
0000
0000
0000
0001
0000
0001
,
0000
1000
0000
1000
0000
0000
0000
0010
,
0000
0100
0000
0000
0000
0001
0000
1000
,
0000
0001
0000
1000
0000
0000
0000
0100
,
0000
0010
0000
1000
0000
0002
0000
0000
,
0000
0000
0000
0000
,
0000
0000
0000
0003
;

//---------------dance-single - Copied from Copied from Copied f----------------
#NOTES:
     dance-single:
     Copied from Copied from Copied f:
     Beginner:
     3:
     0.323797,0.456960,0.000000,0.065592,0.000000,302.000000,0.000000,9.000000,0.000000,0.000000,0.000000,0.323797,0.456960,0.000000,0.065592,0.000000,302.000000,0.000000,9.000000,0.000000,0.000000,0.000000:
0000
0000
0000
0000
,
0000
0000
0000
0000
,
0000
0000
0000
0000
,
0000
0000
0000
0000
,
0000
0000
0000
0000
,
0000
0000
0000
0000
,
0000
0000
0000
0000
,
0000
0000
0000
0000
,
0000
1000
0000
0000
0000
0010
0000
0000
,
0000
0000
0100
0000
,
0000
0000
0010
0000
0000
1000
0000
0000
,
0000
0000
0000
0001
0000
0000
0000
0100
,
0000
0000
0000
0000
0000
0010
0000
0010
,
0000
0000
0000
1000
0000
0000
0000
0001
,
0000
0000
0000
0000
0000
0100
0000
0100
,
0000
0000
0000
0001
0000
0000
0000
0001
,
0000
0000
0000
0000
0000
1000
0000
1000
,
0000
0000
0000
0001
0000
0000
0000
1000
,
0000
0000
0000
0000
0000
0010
0000
0010
,
0000
0000
0000
0100
0000
0000
0000
0001
,
0000
0000
0000
0000
0000
1000
0000
1000
,
0000
0000
0000
0001
0000
0000
0000
0100
,
0000
0000
0000
0000
0000
0010
0000
0010
,
0000
0000
0000
0100
0000
0000
0000
0001
,
0000
0000
0000
0020
0000
0000
0030
0000
,
0000
0100
0000
0000
0100
0000
0000
0100
,
0000
0000
0000
0000
,
0000
0001
0000
0000
0001
0000
0000
0001
,
0000
0000
0000
0000
,
0000
1000
0000
0000
1000
0000
0000
1000
,
0000
0010
0000
0000
0000
0000
0100
0000
,
0000
0010
0000
0000
1000
0000
0000
0100
,
0000
0000
0000
0010
0000
0000
0010
0000
,
0000
0010
0000
0000
0001
0000
0000
1000
,
0000
0000
0000
0010
0000
0000
0010
0000
,
0000
0010
0000
0000
1000
0000
0000
0001
,
0000
0000
0000
0100
0000
0000
0010
0000
,
0000
1000
0000
0000
0001
0000
0000
0100
,
0000
0010
0000
0000
0000
1000
0000
0000
,
0000
0001
0000
0000
0000
1000
0000
0000
,
0000
0010
0000
0000
0000
0000
0000
0100
,
0000
1000
0000
0000
0000
0000
0000
0010
,
0000
0100
0000
0000
0000
0000
0000
0100
,
0000
0001
0000
0000
0000
1000
0000
0000
,
0000
0010
0000
0000
0000
0000
0000
0100
,
0000
0100
0000
0000
0000
0000
0000
0001
,
0000
0001
0000
0000
0000
0000
0000
0000
,
0000
1000
0000
0000
0000
0000
0000
0000
,
0000
0001
0000
0000
0000
0000
0000
0010
,
0000
0100
0000
0000
0000
0000
0000
1000
,
0000
0001
0000
0000
0000
0000
0000
0100
,
0000
0010
0000
0000
0000
1000
0000
0000
,
0000
0010
0000
0000
0000
0000
0000
0100
,
0000
0100
0000
0000
0000
0000
0000
1000
,
0000
1000
0000
0000
0000
0000
0000
0001
,
0000
0001
0000
0000
0000
0100
0000
0010
,
0000
0100
0000
0000
0000
0000
0000
0100
,
0000
0100
0000
0000
0000
0000
0000
0000
,
0000
0000
0000
0000
0000
0000
0000
0010
,
0000
0010
0000
0000
0000
0000
0000
0000
,
0000
0000
0000
0000
0000
0000
0000
0100
,
0000
0000
0000
0100
0000
0000
0000
0001
,
0000
0002
0000
0000
0000
1003
0000
0000
,
0000
0010
0000
0000
0000
0100
0000
0000
,
0000
0001
0000
0000
0000
0000
0000
1000
,
0000
1000
0000
0000
0000
0010
0000
0010
,
0000
0010
0000
0000
0000
0000
0000
0100
,
0000
0010
0000
0000
0000
1000
0000
1000
,
0000
1000
0000
0000
0000
0000
0000
0001
,
0000
0100
0000
0000
0001
0000
0000
1000
,
0000
0002
0000
0000
0000
0000
0000
0003
,
0000
1000
0000
0000
0000
1000
0000
0000
,
0000
0010
0000
0000
1000
0000
0000
0100
,
0000
0010
0000
0001
0000
0001
0000
0000
,
0000
0010
0000
0000
0100
0000
0000
1000
,
0000
0010
0000
0000
0000
0010
0000
0000
,
0000
1000
0000
0000
0010
0000
0000
0100
,
0000
0010
0000
1000
0000
0010
0000
0000
,
0000
0100
0000
0000
0001
0000
0000
0010
,
0000
0100
0000
0000
0000
0100
0000
0000
,
0000
1000
0000
0000
0001
0000
0000
0100
,
0000
0001
0000
0000
0000
0001
0000
0000
,
0000
1000
0000
0000
0010
0000
0000
0100
,
0000
0001
0000
0000
0000
0001
0000
0000
,
0000
0010
0000
0000
0001
0000
0000
0100
,
0000
0010
0000
0000
0000
0010
0000
0000
,
0000
0200
0000
0000
0000
0000
0000
0000
,
0000
0000
0000
0000
,
0000
0310
0000
0000
0000
0010
0000
0000
,
0000
0100
0000
0000
0000
0100
0000
0000
,
0000
0001
0000
0000
0000
0001
0000
0000
,
0000
1000
0000
0000
0000
1000
0000
0000
,
0000
0010
0000
0000
0000
0010
0000
0000
,
0000
0100
0000
0000
0000
0100
0000
0000
,
0000
0001
0000
0000
0000
0100
0000
0000
,
0000
0001
0000
0000
0000
1000
0000
0000
,
0000
0010
0000
0000
0000
0000
0000
0010
,
0000
0010
0000
0000
0000
0000
0000
0100
,
0000
0100
0000
0000
0000
0000
0000
0001
,
0000
0001
0000
0000
1000
0000
0000
0010
,
0000
0010
0000
0000
0000
0000
0000
0100
,
0000
0100
0000
0000
0000
0010
0000
0000
,
0000
1000
0000
0000
0000
0001
0000
0000
,
0000
0010
0000
0000
0000
0100
0000
0000
,
0000
1000
0000
0000
0000
0000
0000
0001
,
0000
0001
0000
0000
0000
0000
0000
1000
,
0000
1000
0000
0000
0000
0000
0000
0010
,
0000
0010
0000
0000
0000
0100
0000
0000
,
0000
0001
0000
0000
0000
0000
0000
1000
,
0000
0010
0000
0000
0000
0000
0000
0100
,
0000
0001
0000
0000
0000
0000
0000
0000
,
0000
0001
0000
0000
0000
1000
0000
0000
,
0000
0010
0000
0000
0000
0000
0000
0100
,
0000
0010
0000
0000
0000
0000
0000
0100
,
0000
0001
0000
0000
0000
0000
0000
0010
,
0000
0100
0000
0000
0000
1000
0000
0000
,
0000
0001
0000
0000
0000
0000
0000
1000
,
0000
0010
0000
0000
0000
0000
0000
0100
,
0000
0001
0000
0000
0000
0000
0000
0100
,
0000
0010
0000
0000
0000
0100
0000
0000
,
0000
0001
0000
0000
0000
1000
0000
0000
,
0000
1000
0000
0000
0000
0001
0000
0000
,
0000
0001
0000
0000
0000
0100
0000
0000
,
0000
0100
0000
0000
0000
0001
0000
0001
,
0000
0000
0000
0001
0000
0000
0000
1000
,
0000
0000
0000
0010
0000
0000
0000
0100
,
0000
0000
0000
0000
0000
0010
0000
0000
,
0000
1000
0000
0000
0000
0000
0000
0000
,
0000
0001
0000
0000
0000
1000
0000
0000
,
0000
0010
0000
0000
0000
0100
0000
0000
,
0000
0010
0000
0000
0000
1000
0000
0000
,
0000
0001
0000
0000
0000
1000
0000
0010
,
0000
0000
0000
0100
0000
0001
0000
0000
,
0000
0010
0000
0000
0000
0100
0000
0000
,
0000
0010
0000
0000
0000
0001
0000
0000
,
0000
2000
0000
3002
0000
2003
0000
0000
,
0000
3002
0000
0000
0000
0100
0000
0000
,
0000
0010
0000
0000
0000
1000
0000
0000
,
0000
0010
0000
0000
0000
1003
0000
0000
,
0000
0010
0000
0000
0000
0100
0000
0000
,
0000
0010
0000
0000
0000
0000
0000
0000
,
0000
0000
0000
1000
0000
1000
0000
0000
,
0000
0001
0000
0001
0000
0001
0000
0000
,
0000
0000
0000
1000
0000
0001
0000
0000
,
0000
1000
0000
0001
0000
0100
0000
0000
,
0000
0000
0000
0010
0000
0100
0000
0000
,
0001
0000
0000
1000
0000
0010
0000
0000
,
0000
0100
0000
0000
0000
0000
0000
0010
,
0000
0100
0000
0000
0000
0001
0000
0000
,
0000
1000
0000
0000
0000
0000
0000
0010
,
0000
1000
0000
0000
0000
0001
0000
0000
,
0000
1000
0000
0000
0000
0000
0000
0010
,
0000
0100
0000
0000
0000
0001
0000
0000
,
0000
1000
0000
0000
0000
0000
0000
0010
,
0000
0010
0000
0010
0000
0200
0000
0000
,
0000
0000
0000
0000
,
0000
0000
0000
0300
;
