#TITLE:Kimochi;
#SUBTITLE:;
#ARTIST:NAOKI feat. Melody & Mezzo;
#TITLETRANSLIT:;
#SUBTITLETRANSLIT:;
#ARTISTTRANSLIT:;
#GENRE:;
#CREDIT:;
#BANNER:Kimochi.png;
#BACKGROUND:Kimochi-bg.png;
#LYRICSPATH:Kimochi.lrc;
#CDTITLE:;
#MUSIC:Kimochi.mp3;
#OFFSET:-0.030000;
#SAMPLESTART:16.007999;
#SAMPLELENGTH:12.000000;
#SELECTABLE:YES;
#BPMS:0.000000=150.000000
;
#STOPS:
;
#BGCHANGES:;
#KEYSOUNDS:;
#ATTACKS:;

//---------------dance-single - ----------------
#NOTES:
     dance-single:
     :
     Easy:
     2:
     0.164532,0.230345,0.107364,0.058562,0.000000,118.000000,107.000000,11.000000,6.000000,0.000000,0.000000,0.164532,0.230345,0.107364,0.058562,0.000000,118.000000,107.000000,11.000000,6.000000,0.000000,0.000000:
0000
0000
0000
0000
,
0000
0000
0000
0000
,
0000
0000
0000
0000
,
0000
0000
0000
0000
,
0000
0000
0000
0000
,
1000
0000
0001
0000
,
0100
0000
0010
0000
,
0100
0000
1000
0000
,
0001
0000
0010
0000
,
0110
0000
0000
0000
,
0100
0000
1000
0000
,
1001
0000
0000
0000
,
0100
0000
0010
0000
,
0110
0000
0000
0000
,
0100
0000
0001
0000
,
1001
0000
0000
0000
,
1000
0000
0001
0000
,
1001
0000
0000
0000
,
0100
0010
0100
0010
,
0100
0000
0000
0000
,
0001
1000
0001
1000
,
0001
0000
0000
0000
,
1000
0000
0010
0000
,
1000
0010
1000
0010
,
1000
0000
0001
0000
,
0001
0100
0001
0000
,
2000
0000
0000
3000
,
0002
0000
0000
0003
,
1001
0000
0000
0000
,
0100
0000
1000
0000
,
0001
0000
0100
0000
,
0110
0000
0000
0000
,
1000
0000
1000
0000
,
0100
0000
0100
0000
,
0010
0000
0010
0000
,
0001
0000
0001
0000
,
1000
0001
1000
0001
,
1000
0000
0001
0000
,
0010
0000
0100
0000
,
0010
0001
0010
0001
,
0010
0000
0000
0000
,
0002
0000
0000
0003
,
0200
0000
0000
0300
,
2000
0000
0000
3000
,
0020
0000
0000
0030
,
1001
0000
0001
0000
,
0100
0000
0100
0000
,
0010
0000
0010
0000
,
1000
0000
1000
0000
,
1001
0000
0000
0000
,
0010
0000
1000
0000
,
0001
0000
0001
0000
,
0010
0000
0110
0000
,
0010
0000
1000
0000
,
1000
0000
0001
0000
,
0001
0000
0010
0000
,
0100
1000
0001
0010
,
0010
0000
0100
0000
,
0001
1000
1000
0001
,
1001
0000
0000
0000
;

//---------------dance-single - ----------------
#NOTES:
     dance-single:
     :
     Medium:
     5:
     0.387627,0.403104,0.312332,0.146406,0.009760,278.000000,246.000000,32.000000,15.000000,0.000000,0.000000,0.387627,0.403104,0.312332,0.146406,0.009760,278.000000,246.000000,32.000000,15.000000,0.000000,0.000000:
0000
0000
0000
0000
,
0000
0000
0000
0000
,
0000
0000
0000
0000
,
0000
0000
0000
0000
,
0000
0000
0000
0000
,
1000
0001
0100
0000
0001
0000
0010
0000
,
1000
0001
0001
1000
,
0010
0100
0000
0010
0000
1001
0000
1001
,
0000
0101
0000
0001
0100
0010
1000
0000
,
0100
0100
0100
0100
,
1000
0000
0000
0001
0100
0001
0010
0000
,
1001
0000
1000
0001
0100
0010
1000
0000
,
0001
0000
0110
0000
0100
1000
0100
0000
,
0010
0000
0100
1000
0001
0100
0010
0000
,
1001
0000
0000
1000
0100
0000
0010
0000
,
0001
0000
1000
0001
1000
0000
0010
0000
,
0100
0000
0001
0100
0010
1000
0001
0000
,
1000
0100
0001
0010
,
2000
0000
3002
0000
,
0203
0000
0000
0000
0301
0100
0010
1000
,
0020
0000
2030
0000
,
3002
0000
0000
0000
1003
0100
0001
0100
,
1000
0001
0100
0010
,
0110
0011
0110
1010
,
1001
0000
0000
0001
1000
0000
0100
0000
,
1000
0100
0010
0001
0010
0000
0001
0000
,
1000
0100
1000
0000
0001
0100
0001
0000
,
1000
0010
1000
0000
0001
0010
0001
0000
,
2002
0000
3003
0000
1000
0100
0010
0000
,
0001
0100
1000
0010
,
0001
0000
0000
1000
0000
0000
0001
0000
0010
0000
0000
0000
0000
0000
0000
0000
,
1000
0000
0000
0001
0000
0000
1001
0000
0000
0000
0000
0000
0000
0000
0000
0000
,
0100
0001
0100
0000
0010
0000
0001
0000
,
1000
0000
0000
0100
1000
0010
0100
0000
,
1001
0000
0000
1000
0100
0001
1000
0000
,
0001
0000
0100
0000
0010
1000
0010
0000
,
1100
0000
0001
1000
0010
0000
0100
0000
,
0011
0000
0001
0010
0100
0000
1000
0000
,
1001
0000
0000
1000
0100
1000
0010
0000
,
0100
0001
1001
1001
,
0110
0000
0000
0000
,
1002
0000
0000
1000
0000
0000
1003
0000
,
2001
0000
0000
0001
0000
0000
3001
0000
,
0120
0000
0000
0100
0000
0000
0130
0000
,
0210
0000
0000
0010
0000
0000
0310
0000
,
0020
0000
0000
0000
1030
0100
0001
0100
,
2000
0000
0000
0000
3001
0010
1000
0010
,
0200
0000
0000
0000
1300
0010
0100
0010
,
1000
0001
0011
0011
,
1000
0100
1000
0000
0001
0000
0100
0000
,
0010
0000
0000
1000
0100
0010
0001
0000
,
1000
0000
0000
0001
0100
0001
0010
0000
,
0100
0000
0001
0000
1000
0100
1000
0000
,
0110
0000
0010
0100
0001
0000
1000
0000
,
1100
0000
0100
1000
0010
0000
0100
0000
,
0101
0000
0000
0001
0100
0010
0100
0000
,
0010
1000
0101
0101
,
1000
0100
1000
0000
0001
0010
0001
0000
,
1000
0010
1000
0000
0001
0100
0001
0000
,
1001
0000
0000
0000
;

//---------------dance-single - ----------------
#NOTES:
     dance-single:
     :
     Hard:
     7:
     0.446189,0.489483,0.341613,0.156166,0.214728,320.000000,285.000000,35.000000,16.000000,0.000000,0.000000,0.446189,0.489483,0.341613,0.156166,0.214728,320.000000,285.000000,35.000000,16.000000,0.000000,0.000000:
0000
0000
0000
0000
,
0000
0000
0000
0000
,
0000
0000
0000
0000
,
0000
0000
0000
0000
,
0000
0000
0000
0000
,
1000
0000
0000
0100
0000
0000
1000
0000
0010
0000
0000
0100
0000
0000
0001
0000
,
1000
0000
0000
0000
0000
0000
0001
0100
0001
0000
0000
0000
0000
0000
0010
0000
,
1000
0000
0000
0001
0000
0000
0100
0000
0010
0000
0000
0000
0000
0000
1000
0100
,
1000
0000
0000
0001
0002
0000
0003
0000
,
0100
0100
0100
0100
,
0010
0000
0000
1000
0000
0000
0010
0000
1000
0000
0000
0001
0000
0000
1000
0000
,
0001
0000
0000
0100
0000
0000
0001
0000
0110
0000
0000
0000
0000
0000
0000
0000
,
0001
0000
0000
0100
0000
0000
0010
0000
0100
0000
0000
0001
0000
0000
1000
0000
,
0100
0000
0000
1000
0000
0000
0010
0000
1001
0000
0000
0000
0000
0000
0000
0000
,
0001
0000
0000
0100
0000
0000
1000
0000
0100
0000
0000
0001
0000
0000
0010
0000
,
1000
0000
0000
0010
0000
0000
0001
0000
1100
0000
0000
0000
0000
0000
0000
0000
,
1000
0000
0000
0100
0000
0000
0010
0000
0001
0000
0000
0100
0000
0000
0010
0000
,
1000
0000
0000
0100
0000
0000
0010
0000
0101
0000
0000
0000
0000
0000
0000
0000
,
1000
0100
0010
1000
0001
0100
0010
0001
,
2002
0000
0000
0000
3003
0000
0000
0000
0010
0000
0000
0100
0000
0000
0001
0000
,
0100
0010
0001
1000
0100
0010
0001
1000
,
0220
0000
0000
0000
0330
0000
0000
0000
1000
0000
0000
0100
0000
0000
0001
0000
,
0100
0010
0001
0100
0010
1000
0100
0010
,
2001
0100
0010
3001
,
1000
0100
0010
1000
0001
0100
0010
1000
,
0120
1000
0001
1030
,
2010
3001
0201
0310
,
1002
0103
1020
0130
,
0012
0010
0010
0013
,
1000
0010
0100
0001
0001
1000
0100
0010
,
0001
0000
0000
1000
0000
0000
0100
0000
0010
0000
0000
0000
0000
0000
0000
0000
,
0101
0000
0000
1100
0000
0000
1001
0000
0000
0000
0000
0000
0000
0000
0000
0000
,
1000
0000
0000
0100
0000
0000
0010
0000
0001
0000
0000
0010
0000
0000
0100
0000
,
1000
0000
0000
0000
0000
0000
0001
0000
0100
0000
0000
0010
0000
0000
1000
0000
,
0001
0000
0000
0000
0000
0000
1000
0000
0100
0000
0000
0010
0000
0000
0001
0000
,
1000
0001
0110
1001
,
1000
0000
0000
0100
0000
0000
0001
0000
0100
0000
0000
0000
0110
0000
0000
0000
,
0001
0000
0000
0010
0000
0000
1000
0000
0010
0000
0000
0000
1001
0000
0000
0000
,
0100
0000
0000
0000
0000
0000
0010
0000
1000
0000
0000
0001
0000
0000
0010
0000
,
0001
0000
0000
0100
0000
0000
0010
0000
0001
0000
0000
0000
1000
0000
0000
0000
,
1001
0000
0000
0000
,
0102
0000
0000
0100
0000
0000
0100
0000
0000
0100
0000
0000
0103
0000
0000
0000
,
2001
0000
0000
0001
0000
0000
0001
0000
0000
0001
0000
0000
3001
0000
0000
0000
,
1020
0000
0000
1000
0000
0000
1000
0000
0000
1000
0000
0000
1030
0000
0000
0000
,
0210
0000
0000
0010
0000
0000
0010
0000
0000
0010
0000
0000
0310
0000
0000
0000
,
1000
0010
0100
0001
1000
0000
0011
0000
,
0001
0010
0001
0100
0010
0000
1010
0000
,
0001
0100
1000
0001
1000
0000
0110
0000
,
1000
0100
0010
0001
1000
0000
0101
0000
,
1000
0000
0000
0100
0000
0000
0001
0000
1000
0000
0000
0100
0000
0000
0010
0000
,
1001
0000
0000
0000
0000
0000
0001
0000
0100
0000
0000
0010
0000
0000
1000
0000
,
0101
0000
0000
0000
0000
0000
1000
0000
0001
0000
0000
0010
0000
0000
0100
0000
,
1000
0000
0000
0100
0000
0000
0001
0000
0110
0000
0000
0000
0000
0000
0000
0000
,
0001
0100
1000
0001
0010
0000
0110
0000
,
0010
1000
0100
0010
0100
0000
0011
0000
,
1000
0000
0100
0000
0010
0000
0001
0000
0100
0000
0000
0010
0000
0000
0100
0000
,
1000
0000
0000
0001
0000
0000
1000
0000
0100
0000
0000
0000
1001
0000
0000
0000
,
0010
1000
0001
0010
1000
0001
0100
0010
,
0001
1000
0100
0001
1000
0010
0100
0001
,
1000
0000
0000
0000
;

//---------------dance-double - ----------------
#NOTES:
     dance-double:
     :
     Easy:
     2:
     0.153377,0.201552,0.097604,0.058562,0.000000,110.000000,100.000000,10.000000,6.000000,0.000000,0.000000,0.153377,0.201552,0.097604,0.058562,0.000000,110.000000,100.000000,10.000000,6.000000,0.000000,0.000000:
00000000
00000000
00000000
00000000
,
00000000
00000000
00000000
00000000
,
00000000
00000000
00000000
00000000
,
00000000
00000000
00000000
00000000
,
00000000
00000000
00000000
00000000
,
10000000
00000000
01000000
00000000
,
00100000
00000000
00010000
00000000
,
00001000
00000000
00000010
00000000
,
00000100
00000000
00000001
00000000
,
00001001
00000000
00000000
00000000
,
00001000
00000000
00000100
00000000
,
00000110
00000000
00000000
00000000
,
00001000
00000000
00010000
00000000
,
00011000
00000000
00000000
00000000
,
00100000
00000000
01000000
00000000
,
01100000
00000000
00000000
00000000
,
10000000
00000000
00010000
00000000
,
10010000
00000000
00000000
00000000
,
10000000
01000000
10000000
00000000
,
00010000
00000000
00000000
00000000
,
00100000
00001000
00100000
00000000
,
00001000
00000000
00000000
00000000
,
00010000
00000000
00000100
00000000
,
00001000
00000010
00001000
00000000
,
00000001
00000000
00000100
00000000
,
00000010
00010000
00000010
00000000
,
00002000
00000000
00000000
00003000
,
00020000
00000000
00000000
00030000
,
00011000
00000000
00000000
00000000
,
01000000
00000000
00100000
00000000
,
10000000
00000000
00010000
00000000
,
10010000
00000000
00000000
00000000
,
10000000
00000000
10000000
00000000
,
01000000
00000000
01000000
00000000
,
00010000
00000000
00010000
00000000
,
00001000
00000000
00001000
00000000
,
00000100
00000010
00000100
00000000
,
00000001
00000000
00001000
00000000
,
00000001
00000000
00000100
00000000
,
00001000
00010000
00001000
00000000
,
00010000
00000000
00000000
00000000
,
00200000
00000000
00000000
00300000
,
00002000
00000000
00000000
00003000
,
02000000
00000000
00000000
03000000
,
00020000
00000000
00000000
00030000
,
10000000
00000000
01000000
00000000
,
00100000
00000000
00010000
00000000
,
01000000
00000000
00001000
00000000
,
00010000
00000000
00000100
00000000
,
00000110
00000000
00000000
00000000
,
00000001
00000000
00000100
00000000
,
00001000
00000000
00001000
00000000
,
00010000
00000000
00011000
00000000
,
00001000
00000000
00100000
00000000
,
00100000
00000000
00010000
00000000
,
00010000
00000000
10000000
00000000
,
00010000
01000000
00100000
00000000
,
10000000
00000000
01000000
00000000
,
00010000
00000000
00001000
00010000
,
00011000
00000000
00000000
00000000
;

//---------------dance-double - ----------------
#NOTES:
     dance-double:
     :
     Medium:
     5:
     0.383444,0.431897,0.292811,0.146406,0.009760,275.000000,245.000000,30.000000,15.000000,0.000000,0.000000,0.383444,0.431897,0.292811,0.146406,0.009760,275.000000,245.000000,30.000000,15.000000,0.000000,0.000000:
00000000
00000000
00000000
00000000
,
00000000
00000000
00000000
00000000
,
00000000
00000000
00000000
00000000
,
00000000
00000000
00000000
00000000
,
00000000
00000000
00000000
00000000
,
10000000
01000000
00100000
00000000
00001000
00000000
00010000
00000000
,
00000100
00001000
00000001
00001001
,
00000010
00000001
00000000
00000100
00000000
00001010
00000000
00010010
,
00000000
00011000
00000000
00010000
00001000
01000000
00010000
00000000
,
00100000
00100000
00100000
00100000
,
00010000
00000000
00000000
10000000
01000000
00100000
00010000
00000000
,
00110000
00000000
00001000
00010000
00000100
00000000
00001000
00000000
,
00000010
00000000
00001001
00000000
00000001
00000010
00000100
00000000
,
00001000
00000000
00000100
00010000
00001000
01000000
00010000
00000000
,
00110000
00000000
00000000
10000000
01000000
00000000
00100000
00000000
,
00001000
00000000
00010000
00001000
00010000
00000000
00000100
00000000
,
00001000
00000000
00000001
00000100
00001000
00000100
00000001
00000000
,
00000010
00001000
00000100
00000001
,
00002000
00000000
00003020
00000000
,
00000230
00000000
00000000
00000000
00000301
00000100
00001000
00010000
,
02000000
00000000
03200000
00000000
,
00320000
00000000
00000000
00000000
10030000
01000000
00010000
00001000
,
00010000
00000100
00000010
00000001
,
00001001
00001100
00010100
00011000
,
00101000
00000000
00000000
00010000
01000000
00000000
00010000
00000000
,
10000000
01000000
00100000
00001000
00010000
00000000
00001000
00000000
,
00010000
00000100
00010000
00000000
00001000
01000000
00001000
00000000
,
00010000
00000010
00010000
00000000
00001000
00100000
00001000
00000000
,
00022000
00000000
00033000
00000000
00010000
00000100
00000010
00000000
,
00000001
00000100
00001000
00000010
,
00000001
00000000
00000000
00001000
00000000
00000000
00000100
00000000
00010000
00000000
00000000
00000000
00000000
00000000
00000000
00000000
,
00001000
00000000
00000000
00010000
00000000
00000000
00011000
00000000
00000000
00000000
00000000
00000000
00000000
00000000
00000000
00000000
,
01000000
00100000
01000000
00000000
00100000
00000000
10000000
00000000
,
01000000
00000000
00000000
00100000
00010000
01000000
00001000
00000000
,
00011000
00000000
00000000
00010000
00001000
00010000
00000100
00000000
,
00001000
00000000
00000001
00000000
00000100
00000010
00000100
00000000
,
00001001
00000000
00000001
00000100
00001000
00000000
00010000
00000000
,
00011000
00000000
00001000
00100000
00010000
00000000
01000000
00000000
,
01100000
00000000
00000000
10000000
01000000
00100000
00010000
00000000
,
00100000
00001000
00010000
00001000
,
00011000
00000000
00000000
00000000
,
00020100
00000000
00000000
00000100
00000000
00000000
00030100
00000000
,
00001020
00000000
00000000
00001000
00000000
00000000
00001030
00000000
,
00000201
00000000
00000000
00000001
00000000
00000000
00000301
00000000
,
00001020
00000000
00000000
00001000
00000000
00000000
00001030
00000000
,
00000200
00000000
00000000
00000000
00010300
00001000
00010000
01000000
,
00200000
00000000
00000000
00000000
00310000
10000000
01000000
10000000
,
00020000
00000000
00000000
00000000
10030000
01000000
00100000
01000000
,
00100000
00001000
00010000
00011000
,
00010000
00000100
00000010
00000000
00000001
00000000
00001000
00000000
,
00000010
00000000
00000000
00000001
00000100
00000010
00001000
00000000
,
00000010
00000000
00000000
00010000
00001000
00010000
00001000
00000000
,
00100000
00000000
00010000
00000000
01000000
00100000
10000000
00000000
,
10010000
00000000
00010000
00100000
00001000
00000000
00010000
00000000
,
00001100
00000000
00001000
00000100
00000010
00000000
00000001
00000000
,
00000101
00000000
00000000
00000001
00000100
00000010
00001000
00000000
,
00000100
00010000
00011000
00011000
,
00001000
00010000
01000000
00000000
00010000
01000000
10000000
00000000
,
01000000
00010000
00001000
00000000
00010000
00001000
00000100
00000000
,
00000110
00000000
00000000
00000000
;

//---------------dance-double - ----------------
#NOTES:
     dance-double:
     :
     Hard:
     8:
     0.444795,0.518276,0.331853,0.156166,0.214728,319.000000,285.000000,34.000000,16.000000,0.000000,0.000000,0.444795,0.518276,0.331853,0.156166,0.214728,319.000000,285.000000,34.000000,16.000000,0.000000,0.000000:
00000000
00000000
00000000
00000000
,
00000000
00000000
00000000
00000000
,
00000000
00000000
00000000
00000000
,
00000000
00000000
00000000
00000000
,
00000000
00000000
00000000
00000000
,
10000000
00000000
00000000
01000000
00000000
00000000
10000000
00000000
00100000
00000000
00000000
01000000
00000000
00000000
00001000
00000000
,
00010000
00000000
00000000
00000000
00000000
00000000
00001000
00010000
00001000
00000000
00000000
00000000
00000000
00000000
00010000
00000000
,
00000010
00000000
00000000
00001000
00000000
00000000
00000100
00000000
00000010
00000000
00000000
00000000
00000000
00000000
00000001
00001000
,
00000001
00000000
00000000
00000010
00000020
00000000
00000030
00000000
,
00000001
00000001
00001000
00001000
,
00000100
00000000
00000000
00001000
00000000
00000000
00000100
00000000
00010000
00000000
00000000
00000010
00000000
00000000
00010000
00000000
,
00001000
00000000
00000000
01000000
00000000
00000000
00010000
00000000
01010000
00000000
00000000
00000000
00000000
00000000
00000000
00000000
,
00010000
00000000
00000000
10000000
00000000
00000000
00100000
00000000
10000000
00000000
00000000
01000000
00000000
00000000
00100000
00000000
,
00010000
00000000
00000000
00001000
00000000
00000000
00010000
00000000
00011000
00000000
00000000
00000000
00000000
00000000
00000000
00000000
,
00010000
00000000
00000000
00001000
00000000
00000000
00000100
00000000
00000001
00000000
00000000
00001000
00000000
00000000
00000010
00000000
,
00000100
00000000
00000000
00000001
00000000
00000000
00001000
00000000
00000110
00000000
00000000
00000000
00000000
00000000
00000000
00000000
,
00000010
00000000
00000000
00000001
00000000
00000000
00000100
00000000
00000001
00000000
00000000
00000100
00000000
00000000
00001000
00000000
,
00000100
00000000
00000000
00001000
00000000
00000000
00010000
00000000
00011000
00000000
00000000
00000000
00000000
00000000
00000000
00000000
,
00010000
00001000
01000000
00100000
10000000
01000000
00100000
00010000
,
02200000
00000000
00000000
00000000
03300000
00000000
00000000
00000000
10000000
00000000
00000000
01000000
00000000
00000000
00100000
00000000
,
00001000
00010000
00000100
00001000
00000010
00000100
00000001
00000010
,
00002200
00000000
00000000
00000000
00003300
00000000
00000000
00000000
00000010
00000000
00000000
00000001
00000000
00000000
00000100
00000000
,
00000001
00000100
00001000
00000100
00001000
00010000
00001000
00010000
,
02000000
00010000
00100000
13000000
,
00100000
10000000
01000000
00100000
00001000
00010000
00010000
00001000
,
00020000
00000010
00001000
00030100
,
00002010
00003001
00000120
00001030
,
00020100
00031000
00012000
00103000
,
01020000
01000000
01000000
01030000
,
10000000
01000000
00100000
00010000
00001000
00000010
00000100
00000001
,
00001000
00000000
00000000
00000001
00000000
00000000
00000100
00000000
00000010
00000000
00000000
00000000
00000000
00000000
00000000
00000000
,
00001100
00000000
00000000
00010100
00000000
00000000
00011000
00000000
00000000
00000000
00000000
00000000
00000000
00000000
00000000
00000000
,
00001000
00000000
00000000
00100000
00000000
00000000
00010000
00000000
00100000
00000000
00000000
01000000
00000000
00000000
10000000
00000000
,
00010000
00000000
00000000
00000000
00000000
00000000
01000000
00000000
00100000
00000000
00000000
10000000
00000000
00000000
00010000
00000000
,
10000000
00000000
00000000
00000000
00000000
00000000
01000000
00000000
00100000
00000000
00000000
00010000
00000000
00000000
00001000
00000000
,
00010000
00001000
00011000
00011000
,
00001000
00000000
00000000
00000100
00000000
00000000
00000001
00000000
00001000
00000000
00000000
00000000
00001001
00000000
00000000
00000000
,
00000001
00000000
00000000
00000010
00000000
00000000
00001000
00000000
00010000
00000000
00000000
00000000
00011000
00000000
00000000
00000000
,
00001000
00000000
00000000
00000000
00000000
00000000
00100000
00000000
00010000
00000000
00000000
01000000
00000000
00000000
10000000
00000000
,
00010000
00000000
00000000
10000000
00000000
00000000
01000000
00000000
00010000
00000000
00000000
00000000
00100000
00000000
00000000
00000000
,
01100000
00000000
00000000
00000000
,
01020000
00000000
00000000
01000000
00000000
00000000
01000000
00000000
00000000
01000000
00000000
00000000
01030000
00000000
00000000
00000000
,
00201000
00000000
00000000
00001000
00000000
00000000
00001000
00000000
00000000
00001000
00000000
00000000
00301000
00000000
00000000
00000000
,
00020100
00000000
00000000
00000100
00000000
00000000
00000100
00000000
00000000
00000100
00000000
00000000
00030100
00000000
00000000
00000000
,
00002010
00000000
00000000
00000010
00000000
00000000
00000010
00000000
00000000
00000010
00000000
00000000
00003010
00000000
00000000
00000000
,
00000100
00001000
00000010
00000100
00000001
00000000
00001010
00000000
,
00000010
00000001
00000100
00001000
00000010
00000000
00010100
00000000
,
00001000
00010000
00000100
00010000
00001000
00000000
00110000
00000000
,
00010000
01000000
00100000
10000000
00010000
00000000
01100000
00000000
,
10000000
00000000
00000000
01000000
00000000
00000000
00010000
00000000
01000000
00000000
00000000
00100000
00000000
00000000
00010000
00000000
,
01001000
00000000
00000000
00000000
00000000
00000000
00100000
00000000
00001000
00000000
00000000
00010000
00000000
00000000
00001000
00000000
,
00010100
00000000
00000000
00000000
00000000
00000000
00001000
00000000
00000100
00000000
00000000
00000010
00000000
00000000
00000001
00000000
,
00001000
00000000
00000000
00000001
00000000
00000000
00000100
00000000
00001001
00000000
00000000
00000000
00000000
00000000
00000000
00000000
,
00000001
00000100
00001000
00010000
00001000
00000000
00011000
00000000
,
00010000
00001000
00010000
01000000
10000000
00000000
10010000
00000000
,
10000000
00000000
01000000
00000000
00100000
00000000
00010000
00000000
00001000
00000000
00000000
00000010
00000000
00000000
00010000
00000000
,
00000100
00000000
00000000
00001000
00000000
00000000
00000010
00000000
00000100
00000000
00000000
00000000
00001001
00000000
00000000
00000000
,
00000010
00000001
00000100
00000010
00001000
00000100
00010000
00001000
,
00010000
01000000
10000000
00100000
10000000
01000000
00010000
00001000
,
00011000
00000000
00000000
00000000
;

//---------------dance-single - ----------------
#NOTES:
     dance-single:
     :
     Beginner:
     1:
     0.101787,0.172759,0.048802,0.029281,0.000000,73.000000,68.000000,5.000000,3.000000,0.000000,0.000000,0.101787,0.172759,0.048802,0.029281,0.000000,73.000000,68.000000,5.000000,3.000000,0.000000,0.000000:
0000
0000
0000
0000
,
0000
0000
0000
0000
,
0000
0000
0000
0000
,
0000
0000
0000
0000
,
0000
0000
0000
0000
,
1000
0000
0000
0000
,
0001
0000
0000
0000
,
1000
0000
0000
0000
,
0001
0000
0000
0000
,
1001
0000
0000
0000
,
0100
0000
0000
0000
,
0010
0000
0000
0000
,
0100
0100
0000
0000
,
0010
0010
0000
0000
,
1000
0000
0000
0000
,
0001
0000
0000
0000
,
1000
1000
0000
0000
,
0001
0001
0000
0000
,
0100
0000
0000
0000
,
0010
0000
0000
0000
,
1000
0000
0000
0000
,
0001
0000
0000
0000
,
0100
0000
0000
0000
,
1000
0000
0000
0000
,
0100
0000
0000
0000
,
0001
0000
0000
0000
,
1000
0000
0001
0000
,
1000
0000
0001
0000
,
2002
0000
0000
3003
,
0000
0000
0000
0000
,
1000
0000
0100
0000
,
0010
0000
0000
0000
,
0010
0000
0000
0000
,
0001
0000
0000
0000
,
1000
0000
0000
0000
,
0100
0000
0000
0000
,
0010
0010
0000
0000
,
0001
0001
0000
0000
,
1000
1000
0000
0000
,
0100
0100
0000
0000
,
0110
0000
0000
0000
,
0100
0000
0000
0000
,
0010
0000
0000
0000
,
0100
0000
0000
0000
,
0110
0000
0000
0000
,
0001
0000
0000
0000
,
0100
0000
0000
0000
,
1000
0000
0000
0000
,
0010
0000
0000
0000
,
1000
1000
0000
0000
,
0001
0001
0000
0000
,
0100
0100
0000
0000
,
0010
0010
0000
0000
,
1000
0000
0000
0000
,
0001
0000
0000
0000
,
1000
0000
0000
0000
,
0100
0000
0000
0000
,
0020
0000
0000
0030
,
0000
0000
0000
0000
,
0110
0000
0000
0000
;

//---------------dance-double - ----------------
#NOTES:
     dance-double:
     :
     Beginner:
     1:
     0.103181,0.172759,0.058562,0.039042,0.000000,74.000000,68.000000,6.000000,4.000000,0.000000,0.000000,0.103181,0.172759,0.058562,0.039042,0.000000,74.000000,68.000000,6.000000,4.000000,0.000000,0.000000:
00000000
00000000
00000000
00000000
,
00000000
00000000
00000000
00000000
,
00000000
00000000
00000000
00000000
,
00000000
00000000
00000000
00000000
,
00000000
00000000
00000000
00000000
,
10000000
00000000
00000000
00000000
,
01000000
00000000
00000000
00000000
,
00100000
00000000
00000000
00000000
,
00010000
00000000
00000000
00000000
,
00011000
00000000
00000000
00000000
,
00010000
00000000
00000000
00000000
,
00000100
00000000
00000000
00000000
,
00001000
00001000
00000000
00000000
,
00000001
00000001
00000000
00000000
,
00001000
00000000
00000000
00000000
,
00000010
00000000
00000000
00000000
,
00000100
00000100
00000000
00000000
,
00001000
00001000
00000000
00000000
,
00010000
00000000
00000000
00000000
,
00001000
00000000
00000000
00000000
,
00100000
00000000
00000000
00000000
,
00010000
00000000
00000000
00000000
,
10000000
00000000
00000000
00000000
,
01000000
00000000
00000000
00000000
,
00010000
00000000
00000000
00000000
,
00001000
00000000
00000000
00000000
,
00000010
00000000
00000100
00000000
,
00000010
00000000
00000100
00000000
,
00000220
00000000
00000000
00000330
,
00000000
00000000
00000000
00000000
,
00000001
00000000
00001000
00000000
,
00000100
00000000
00000000
00000000
,
00010000
00000000
00000000
00000000
,
00001000
00000000
00000000
00000000
,
01000000
00000000
00000000
00000000
,
00010000
00000000
00000000
00000000
,
10000000
10000000
00000000
00000000
,
00010000
00010000
00000000
00000000
,
01000000
01000000
00000000
00000000
,
00001000
00001000
00000000
00000000
,
00011000
00000000
00000000
00000000
,
00010000
00000000
00000000
00000000
,
00000100
00000000
00000000
00000000
,
00000010
00000000
00000000
00000000
,
00000110
00000000
00000000
00000000
,
00000001
00000000
00000000
00000000
,
00001000
00000000
00000000
00000000
,
00000010
00000000
00000000
00000000
,
00010000
00000000
00000000
00000000
,
00001000
00001000
00000000
00000000
,
00100000
00100000
00000000
00000000
,
00010000
00010000
00000000
00000000
,
01000000
01000000
00000000
00000000
,
00100000
00000000
00000000
00000000
,
10000000
00000000
00000000
00000000
,
01000000
00000000
00000000
00000000
,
00010000
00000000
00000000
00000000
,
00022000
00000000
00000000
00033000
,
00000000
00000000
00000000
00000000
,
00011000
00000000
00000000
00000000
;

//---------------dance-single - ----------------
#NOTES:
     dance-single:
     :
     Challenge:
     13:
     0.669283,0.732029,0.390415,0.653946,0.483139,480.000000,440.000000,40.000000,67.000000,0.000000,0.000000,0.669283,0.732029,0.390415,0.653946,0.483139,480.000000,440.000000,40.000000,67.000000,0.000000,0.000000:
// measure 0
2000
0000
3000
2000
0000
3000
0002
0000
0003
0002
0000
0003
0100
0000
0010
0000
,  // measure 1
0100
0000
0000
0001
0000
0000
1000
0000
0100
0000
0000
0010
0000
0000
0001
0000
,  // measure 2
0010
0000
0100
0000
1000
0000
0010
0100
0010
0000
1000
0000
0001
0000
1000
0000
,  // measure 3
0001
0000
0000
0100
0000
0000
0010
0000
1000
0000
0001
0000
0100
0000
0001
1000
,  // measure 4
0001
0000
1000
0000
0100
0000
0010
0100
0010
0000
0001
0000
1000
0001
1000
0001
,  // measure 5
0010
0000
0000
0100
0000
0000
1000
0000
0010
0000
0000
0100
0000
0000
0001
0000
,  // measure 6
1000
0000
0100
0000
1000
0000
0001
0100
0001
0000
1000
0000
0010
0000
1000
0000
,  // measure 7
0100
0220
0330
0022
0033
0202
0303
2020
,  // measure 8
3030
0000
2002
0000
3003
0000
0001
1000
0010
0000
0100
0000
0010
0000
0100
0000
,  // measure 9
2002
3003
2002
3003
2002
3003
2002
3003
,  // measure 10
0100
0000
0000
0001
1000
0000
0010
0000
1000
0000
0000
0100
0010
0000
0001
0000
,  // measure 11
0010
0000
0000
0100
1000
0000
0002
0000
2003
0000
0002
0000
0000
0000
0003
0000
,  // measure 12
3001
0000
0000
0010
0100
0000
1000
0000
0100
0000
0000
0010
0001
0000
1000
0000
,  // measure 13
0100
0000
0000
0010
0001
0000
0200
0000
0320
0000
0200
0000
0300
0000
0230
0000
,  // measure 14
0310
0000
0000
1000
0100
0000
0010
0000
0100
0000
0000
0010
0001
0000
1000
0000
,  // measure 15
0010
0000
0000
0100
0001
0000
2000
0000
3200
0000
2000
0000
0000
0000
3000
0000
,  // measure 16
1300
0000
0000
0100
0010
0000
0001
0000
1000
0000
0000
0001
0100
0000
0010
0000
,  // measure 17
1000
0000
0000
0100
1000
0000
0001
0000
0100
0000
0001
0010
0001
0010
0100
0000
,  // measure 18
1000
0000
0000
0100
0010
0000
0001
0000
1000
0000
0000
0001
0100
0000
0001
0000
,  // measure 19
2000
0000
0000
0000
3002
0000
0000
0000
0013
0000
0000
0100
1000
0000
0001
0000
,  // measure 20
0100
0000
0000
0010
1000
0000
0100
0000
0010
0000
0000
0001
0010
0000
0100
0000
,  // measure 21
0020
0000
0000
0000
0032
0000
0000
0000
1003
0000
0000
0001
0000
0000
1000
0000
,  // measure 22
0100
0010
0001
0010
0100
1000
0100
0010
,  // measure 23
0022
0033
0202
0303
2020
3030
2002
3003
,  // measure 24
1000
0000
0000
0001
0010
0000
0100
0000
1000
0000
0000
0010
0100
0000
0001
0000
,  // measure 25
0100
0000
0000
0010
1000
0000
0001
0000
1000
0000
0100
0000
0001
0000
0100
0000
,  // measure 26
2100
0000
0000
0010
0000
0000
3001
0000
0201
0000
0000
0010
0000
0000
0301
0000
,  // measure 27
0021
0000
0000
0100
0000
0000
0031
0000
2001
0000
0000
0010
0000
0000
3001
0000
,  // measure 28
0010
0001
0010
0001
1000
0100
1000
0100
0010
0001
0010
0001
1000
0010
1000
0010
,  // measure 29
0100
0000
0001
0000
0100
0000
0010
0000
1000
0000
0000
0100
0010
0000
0001
0000
,  // measure 30
1000
0000
0000
0001
1000
0000
0100
0000
0010
0000
0001
0000
0010
0000
0100
0000
,  // measure 31
0110
0000
0000
1100
0000
0000
1001
0000
1000
0010
0100
0001
0010
0000
0010
0000
,  // measure 32
0001
0000
0000
0010
0100
0000
1000
0000
0001
0000
0000
0100
0010
0000
0200
0000
,  // measure 33
0302
0000
1003
0000
0100
0000
0010
0000
0001
0000
0000
1000
0100
0000
2000
0000
,  // measure 34
3002
0000
0103
0000
0010
0000
1000
0000
0001
0000
0000
0100
0010
0000
0100
0000
,  // measure 35
0001
0000
0000
1000
0001
0000
0010
0000
0100
0000
0010
0000
0001
1000
0001
1000
,  // measure 36
0100
0000
0000
0010
0001
0000
0010
0000
0200
0000
0000
0000
1300
0000
0100
0000
,  // measure 37
0110
0000
0000
0010
0001
0000
1000
0000
0020
0000
0000
0000
0130
0000
0001
0000
,  // measure 38
1001
0000
0000
0000
1000
0000
0010
0000
1000
0000
0000
0001
0000
0000
0100
0000
,  // measure 39
0110
0000
0000
0000
0000
0000
0000
0000
0000
0101
0000
0000
0000
0000
0000
0000
0000
0000
1001
0000
0000
0000
0000
0000
0001
0000
0010
0000
0100
0000
1000
0000
0000
0000
0000
0000
1000
0000
0000
0000
0000
0000
0001
0000
0000
0000
0000
0000
,  // measure 40
0021
0000
0000
0230
0000
0000
2300
0000
3002
0000
0000
0023
0000
0000
0130
0000
,  // measure 41
2100
0000
0000
0010
0000
0000
0001
0000
0000
0010
0000
0000
3001
0000
0100
0000
,  // measure 42
0102
0000
0000
1000
0000
0000
0010
0000
0000
1000
0000
0000
0013
0000
0100
0000
,  // measure 43
0120
0000
0000
0001
0000
0000
0100
0000
0000
0001
0000
0000
0130
0000
1000
0000
,  // measure 44
1200
0000
0000
0010
0000
0000
1000
0000
0000
0010
0000
0000
1300
0000
0001
0000
,  // measure 45
1001
0000
0000
0010
0100
0000
0001
0000
1000
0000
0000
0100
0000
0000
0010
0000
,  // measure 46
0011
0000
0000
0001
1000
0000
0100
0000
1000
0000
0000
0010
0000
0000
0100
0000
,  // measure 47
0101
0000
0000
0010
1000
0000
0001
0000
0100
0000
0000
0010
0000
0000
0100
0000
,  // measure 48
0001
0000
0000
1000
0000
0000
0001
0000
1000
0100
0010
0001
1000
0100
0010
0001
,  // measure 49
1000
0000
0000
0001
0100
0000
0010
0000
0100
0000
0000
0010
1000
0000
0001
0000
,  // measure 50
1000
0000
0100
0000
0010
0000
0001
0000
0100
0000
0000
0010
0100
0000
0010
0000
,  // measure 51
1000
0000
0010
0000
0100
0000
0001
0000
0010
0000
0000
0100
1000
0000
0001
0000
,  // measure 52
1000
0000
0000
0010
0100
0000
0001
0000
0100
0000
0010
0000
1000
0010
1000
0010
,  // measure 53
0200
0000
0000
0301
0000
0000
0010
0000
0100
0000
1000
0000
0100
0000
0010
0000
,  // measure 54
0012
0000
0000
1003
0000
0000
0010
0000
0100
0000
0001
0000
1000
0000
0001
0000
,  // measure 55
2001
0000
0000
0000
0000
0000
3001
0000
0010
0000
0000
0100
0000
0000
0010
0000
,  // measure 56
0011
0000
0000
0101
0000
0000
1001
0000
0110
0000
0000
0000
0110
0000
0000
0000
,  // measure 57
0001
0010
0100
0010
0001
0100
0010
0001
,  // measure 58
0010
0100
0001
0010
0100
1000
0010
0100
,  // measure 59
2000
0000
0000
0000
,  // measure 60
3000
0000
0000
0000
;
