#TITLE:Kagachi;
#SUBTITLE:;
#ARTIST:Zektbach;
#TITLETRANSLIT:;
#SUBTITLETRANSLIT:;
#ARTISTTRANSLIT:;
#CREDIT:;
#BANNER:Kagachi-bn.png;
#BACKGROUND:;
#LYRICSPATH:;
#CDTITLE:;
#MUSIC:Kagachi.mp3;
#OFFSET:-0.060;
#SAMPLESTART:52.800;
#SAMPLELENGTH:12.000;
#SELECTABLE:YES;
#BPMS:0.000=170.000;
#STOPS:;
#BGCHANGES:0.000=Kagachi.avi=1.000=1=1=0,
99999=-nosongbg-=1.000=0=0=0 // don't automatically add -songbackground-
;

//---------------dance-single - ----------------
#NOTES:
     dance-single:
     :
     Challenge:
     17:
     0.851,0.919,0.680,0.696,0.316: // measure 1
0000
2001
0000
0000
,  // measure 2
0000
3002
0000
0000
,  // measure 3
0000
0203
0000
0000
,  // measure 4
0000
0320
0000
0000
,  // measure 5
0000
0000
0000
0000
0130
0000
0001
1000
0010
1000
0000
0000
0100
0000
0010
0001
,  // measure 6
0010
0100
0000
0000
1000
0000
0001
1000
0010
1000
0001
0010
0001
0100
0010
1000
,  // measure 7
0100
0010
0001
0010
0100
0000
1000
0100
0010
0001
0000
0000
0010
0000
0100
1000
,  // measure 8
0001
0100
0000
0000
0010
0000
1000
0010
0100
0001
0010
0100
1000
0010
0100
0010
,  // measure 9
1000
0001
0100
0001
1000
0000
0001
1000
0010
1000
0000
0000
0100
0000
0010
0001
,  // measure 10
0010
0100
0000
0000
1000
0000
0001
1000
0010
1000
0001
0010
0001
0100
0010
1000
,  // measure 11
0100
0010
0001
0010
0100
0000
1000
0100
0010
0001
0000
0000
0010
0000
0100
1000
,  // measure 12
0001
0100
0000
0000
0010
0000
1000
0010
0100
0001
0010
0100
1000
0010
0100
0010
,  // measure 13
1000
0001
0100
0001
2000
0000
0000
0000
3010
0000
0210
0000
0000
0000
0301
0000
,  // measure 14
0102
0003
1100
0000
0001
0201
0000
0310
,  // measure 15
2010
3000
0101
0000
0001
2001
0000
3010
,  // measure 16
0210
0300
1010
0000
0100
0102
0000
1003
,  // measure 17
1020
0030
1100
0000
0100
0120
0000
0031
,  // measure 18
2001
3000
0101
0000
0100
0120
0000
1030
,  // measure 19
1200
0300
0110
0000
0010
0012
0000
1003
,  // measure 20
1002
0003
1100
0000
0100
0120
0000
0031
,  // measure 21
2002
0000
0000
0000
,  // measure 22
0000
0000
3003
0000
1001
0000
0000
0000
1000
0100
1000
0000
0010
0000
0000
0000
,  // measure 23
1000
0000
0000
0000
1001
0000
0000
0000
0100
0010
0100
0000
0001
0000
0000
0000
,  // measure 24
1000
0000
0000
0000
1010
0000
0000
0000
0010
0100
1000
0000
0100
0000
0000
0000
,  // measure 25
0010
0000
0000
0000
1001
0000
0000
0000
1000
0001
0100
0000
0010
0000
0000
0000
,  // measure 26
1000
0000
0000
0000
0101
0000
0000
0000
0100
0010
1000
0000
0001
0000
0000
0000
,  // measure 27
0010
0000
0000
0000
1100
0000
0000
0000
1000
0100
0001
0000
0100
0000
0000
0000
,  // measure 28
1000
0000
0000
0000
0101
0000
0000
0000
0100
0010
0001
0000
0010
0000
0000
0000
,  // measure 29
1000
0000
0000
0000
0101
0000
0000
0000
0100
0010
1000
0000
0001
0000
0000
0000
,  // measure 30
0100
0000
0000
0000
0110
0000
0000
0010
1000
0000
0010
0000
0000
0000
0100
0000
,  // measure 31
0010
0000
1000
0000
1010
0000
0000
1000
0010
0000
0100
0000
0000
0000
0001
0000
,  // measure 32
0100
0000
0001
0000
1001
0000
0000
1000
0001
0000
0010
0000
0000
0000
0100
0000
,  // measure 33
1000
0000
0010
0000
1010
0000
0000
1000
0010
0000
0001
0000
0000
0000
0010
0000
,  // measure 34
1000
0000
0001
0000
1001
0000
0000
0001
1000
0000
0100
0000
0000
0000
0010
0000
,  // measure 35
0001
0000
0100
0000
0101
0000
0000
1000
0001
0000
0100
0000
0000
0000
0010
0000
,  // measure 36
1000
0000
0001
0000
0101
0000
0000
1000
0001
0000
0100
0000
0000
0000
0010
0000
,  // measure 37
1000
0001
0101
0100
0001
0001
1000
1000
,  // measure 38
0010
0010
0100
0010
0001
0010
0100
1000
,  // measure 39
0100
0001
0100
1000
0100
0001
0010
1000
,  // measure 40
0001
0100
1000
0001
0010
0100
1000
0100
,  // measure 41
0010
0001
1000
0010
0001
0010
1000
0001
,  // measure 42
0010
0100
1000
0010
0100
0001
0100
1000
,  // measure 43
0100
0001
0100
0010
0001
1000
0100
0001
,  // measure 44
0010
0100
0001
0100
1000
0010
0100
0001
,  // measure 45
0010
1000
0001
0100
1000
0010
0001
1000
,  // measure 46
0100
0001
1002
1003
0001
1000
2010
3010
,  // measure 47
0120
0130
0001
0010
0100
1000
2100
3100
,  // measure 48
0120
0031
1000
0001
0100
0010
1020
1030
,  // measure 49
2100
3100
0010
0001
1000
0010
0120
0130
,  // measure 50
0201
0301
1000
0100
0010
0001
0012
0013
,  // measure 51
0210
1300
0001
1000
0010
0100
0201
0301
,  // measure 52
0012
0013
0100
1000
0001
0100
0201
0301
,  // measure 53
0102
0103
1010
0101
0110
1001
0011
1100
,  // measure 54
1001
0110
1002
0000
0203
0000
0320
0000
,  // measure 55
0030
1000
0002
0000
0203
0000
2300
0000
,  // measure 56
0000
0000
3100
0001
0020
0000
0000
0000
0032
0000
0000
0000
2003
0000
0000
0000
,  // measure 57
0000
3010
0200
0000
0302
0000
2003
0000
,  // measure 58
0000
0000
3010
1000
0002
0000
0000
0000
0023
0000
0000
0000
0230
0000
0000
0000
,  // measure 59
0000
1300
0002
0000
2003
0000
3020
0000
,  // measure 60
0000
0000
1030
0001
0200
0000
0000
0000
0320
0000
0000
0000
2030
0000
0000
0000
,  // measure 61
3000
0000
0001
1000
0020
0000
0000
0000
0230
0000
0000
0000
0302
0000
0000
0000
,  // measure 62
0000
0003
1001
0001
0100
1000
0100
0010
,  // measure 63
0001
0010
1000
0010
0001
0010
1000
0100
,  // measure 64
0001
1000
0010
0001
1000
0100
0010
0001
,  // measure 65
0010
0100
1000
0001
0100
1000
0100
0001
,  // measure 66
1000
0100
0010
0001
0100
0010
1000
0010
,  // measure 67
0001
0010
1000
0010
0100
1000
0001
0010
,  // measure 68
1000
0100
0010
1000
0010
0001
0100
0010
,  // measure 69
1000
0100
0001
1000
0010
0001
0100
1000
,  // measure 70
0001
0000
0010
0000
1000
0001
0100
0001
1000
0000
1001
0000
0000
0000
0001
0000
,  // measure 71
0101
0000
0000
0000
0100
0010
1000
0001
0100
0000
0110
0000
0000
0000
0010
0000
,  // measure 72
1010
0000
0000
0000
1000
0001
0100
0010
1000
0000
1010
0000
0000
0000
0010
0000
,  // measure 73
0110
0000
0000
0000
0100
0001
0010
0100
1000
0000
1010
0000
0000
0000
0010
0000
,  // measure 74
0101
0000
0000
0000
0001
1000
0010
1000
0001
0000
1001
0000
0000
0000
1000
0000
,  // measure 75
1010
0000
0000
0000
0010
0100
0001
1000
0010
0000
0110
0000
0000
0000
0100
0000
,  // measure 76
0101
0000
0000
0000
0001
1000
0010
0100
0001
0000
0101
0000
0000
0000
0100
0000
,  // measure 77
0110
0000
0000
0000
0010
1000
0100
0010
0001
0000
0011
0000
0000
0000
0010
0000
,  // measure 78
0110
0100
2000
0000
3020
0000
0230
0000
,  // measure 79
0300
0001
2000
0000
3020
0000
0032
0003
,  // measure 80
0110
0200
0302
2003
,  // measure 81
0000
3100
0020
0000
2030
0000
3002
0003
,  // measure 82
1100
2000
3200
0320
,  // measure 83
0000
0031
2000
0000
3002
0000
0203
0300
,  // measure 84
0110
0020
0230
0302
,  // measure 85
0003
0100
2000
0000
3200
0000
0302
0003
,  // measure 86
2002
3003
0000
0000
0000
0000
0000
0000
;

//---------------dance-single - Copied from----------------
#NOTES:
     dance-single:
     Copied from:
     Hard:
     14:
     0.720,0.783,0.520,0.664,0.176:
0000
0200
0000
0000
,
0000
0320
0000
0000
,
0000
2030
0000
0000
,
0000
3002
0000
0000
,
0000
0000
0000
0000
0103
0000
0001
1000
0001
0000
0100
0000
0010
0000
1000
0001
,
1000
0000
0010
0000
0100
0000
0010
1000
0010
0000
0100
0001
0100
0000
0010
0100
,
0001
0000
0010
0100
1000
0000
0001
1000
0010
0000
1000
0000
0010
0000
0100
0001
,
1000
0000
0010
0000
1000
0000
0001
0010
0001
0000
1000
0100
1000
0000
0001
0010
,
0100
0000
1000
0010
0100
0000
0001
1000
0001
0000
0100
0000
0010
0000
1000
0001
,
1000
0000
0010
0000
0100
0000
0010
1000
0010
0000
0100
0001
0100
0000
0010
0100
,
0001
0000
0010
0100
1000
0000
0001
1000
0010
0000
1000
0000
0010
0000
0100
0001
,
1000
0000
0010
0000
1000
0000
0001
0010
0001
0000
1000
0100
1000
0000
0001
0010
,
0100
0000
1000
0010
0200
0000
0000
0000
0300
0000
2020
0000
0000
0000
3030
0000
,
0101
0000
2020
0000
3030
0220
0000
0330
,
1001
0000
0202
0000
0303
2002
0000
3003
,
0110
0000
2020
0000
3030
0202
0000
0303
,
0110
0000
2200
0000
3300
0220
0000
0330
,
0101
0000
2002
0000
3003
0220
0000
0330
,
0101
0000
2020
0000
3030
2002
0000
3003
,
0110
0000
0202
0000
0303
2020
0000
3030
,
2002
0000
0000
0000
,
0000
0000
3003
0000
0001
0000
0000
0000
1000
0001
0100
0000
0010
0000
0000
0000
,
1000
0000
0000
0000
0001
0000
0000
0000
0010
0100
1000
0000
0001
0000
0000
0000
,
1000
0000
0000
0000
0001
0000
0000
0000
1000
0010
1000
0000
0001
0000
0000
0000
,
0100
0000
0000
0000
0010
0000
0000
0000
0100
0001
0100
0000
0010
0000
0000
0000
,
1000
0000
0000
0000
0001
0000
0000
0000
0100
0010
0100
0000
0001
0000
0000
0000
,
0010
0000
0000
0000
0100
0000
0000
0000
1000
0100
1000
0000
0100
0000
0000
0000
,
0010
0000
0000
0000
0001
0000
0000
0000
0100
0010
1000
0000
0001
0000
0000
0000
,
0100
0000
0000
0000
0010
0000
0000
0000
1000
0010
1000
0000
0001
0000
0000
0000
,
0100
0000
1001
0000
1000
0010
0000
0100
,
0001
0000
0101
0000
0100
0010
0000
1000
,
0010
0000
1010
0000
1000
0100
0000
0010
,
0001
0000
0110
0000
0100
1000
0000
0001
,
1000
0000
1001
0000
0001
0100
0000
0010
,
1000
0000
1001
0000
0001
1000
0000
0001
,
1000
0000
1010
0000
0010
0100
0000
0001
,
1000
0000
0110
0100
1000
1000
0100
0100
,
0001
0001
1000
0001
1000
0010
0100
0001
,
1000
0010
1000
0001
0100
0001
0010
0100
,
1000
0100
0010
0001
1000
0001
0100
0010
,
1000
0100
1000
0010
0100
0001
0100
0001
,
0010
0001
0010
0100
1000
0100
0010
0001
,
1000
0001
0100
0010
0100
0001
0010
0001
,
0010
0100
1000
0001
0100
0010
0100
0001
,
1000
0001
0010
0100
1000
0010
0100
0001
,
0010
0001
1001
0000
1000
0010
0100
0000
,
0101
0000
0001
0000
0010
0100
1000
0000
,
1100
0000
0100
0000
0010
0001
0010
0000
,
0011
0000
0001
0000
1000
0010
0100
0000
,
1010
0000
0010
0000
1000
0001
0010
0000
,
0110
0000
0100
0000
1000
0100
0010
0000
,
0011
0000
0001
0000
1000
0001
1000
0000
,
1001
0000
1000
1000
0001
0001
0100
0100
,
0010
1010
2001
0000
3020
0000
0230
0000
,
0300
0001
2000
0000
3020
0000
0032
0000
,
0000
0000
0013
1000
0200
0000
0000
0000
2300
0000
0000
0000
3002
0000
0000
0000
,
0000
0103
0020
0000
2030
0000
3002
0000
,
0000
0000
0103
0001
2000
0000
0000
0000
3200
0000
0000
0000
0320
0000
0000
0000
,
0000
0031
2000
0000
3002
0000
0203
0000
,
0000
0000
0301
1000
0020
0000
0000
0000
0230
0000
0000
0000
0302
0000
0000
0000
,
0003
0000
1000
0001
0200
0000
0000
0000
0302
0000
0000
0000
0203
0000
0000
0000
,
0000
0300
0101
0001
0100
0010
0100
0010
,
1000
0001
0010
0100
1000
0010
1000
0100
,
0010
0001
1000
0001
0100
0010
0100
0001
,
1000
0001
0100
0010
0100
1000
0100
0001
,
0010
0100
1100
0000
1010
0000
1001
0000
,
0000
0001
1000
0010
0100
0001
1000
0010
,
1000
0100
1000
0001
0010
0001
0100
0010
,
1000
0100
0010
0100
1000
0001
0010
0100
,
0010
0000
0001
0000
0100
0010
0100
0000
0000
0000
1001
0000
0000
0000
0000
0000
,
1010
0000
0000
0000
1000
0001
0100
0000
0000
0000
0110
0000
0000
0000
0000
0000
,
0101
0000
0000
0000
0001
0100
0010
0000
0000
0000
1010
0000
0000
0000
0000
0000
,
0110
0000
0000
0000
1000
0001
0100
0000
0000
0000
0101
0000
0000
0000
0000
0000
,
1001
0000
0000
0000
0010
0100
0010
0000
0000
0000
1010
0000
0000
0000
0000
0000
,
0110
0000
0000
0000
0010
0100
0001
0000
0000
0000
0101
0000
0000
0000
0000
0000
,
1010
0000
0000
0000
0010
1000
0010
0000
0000
0000
0110
0000
0000
0000
0000
0000
,
1010
0000
0000
0000
1000
0001
0100
0000
0000
0000
0101
0000
0000
0000
0000
0000
,
1010
1000
0002
0000
0203
0000
0320
0000
,
0030
1000
0002
0000
0203
0000
0310
0000
,
1001
0002
2003
3002
,
0003
0010
0200
0000
2300
0000
3100
0000
,
0110
0020
0032
0203
,
0000
0310
2000
0000
3002
0000
0013
0000
,
1100
0002
0023
0230
,
0300
1000
0002
0000
2003
0000
3001
0000
,
2002
3003
0000
0000
0000
0000
0000
0000
;

//---------------dance-single - Copied from Copied f----------------
#NOTES:
     dance-single:
     Copied from Copied f:
     Medium:
     11:
     0.581,0.579,0.272,0.640,0.000:
0000
0000
0000
0000
,
0000
0000
0000
0000
,
0000
0000
0000
0000
,
0000
0000
0000
0000
,
0000
0000
0100
0001
1000
0000
0010
0100
,
0001
0000
0010
0100
1000
0100
0010
0001
,
0010
0100
1000
0001
1000
0000
0010
0100
,
0010
0000
0100
0001
0010
0001
0010
0100
,
1000
0001
0100
0010
1000
0000
0010
1000
,
0001
0000
1000
0010
0100
0001
0010
0100
,
0010
0001
1000
0001
0010
0000
0100
1000
,
0100
0000
0010
0001
0010
0100
1000
0010
,
0100
0001
2000
0000
3000
0020
0000
0030
,
1001
0000
0120
0000
0030
2000
0000
3000
,
1001
0000
1020
0000
0030
0200
0000
0300
,
0101
0000
0210
0000
0300
0002
0000
0003
,
1001
0000
1200
0000
0300
0020
0000
0030
,
0011
0000
2001
0000
3000
0020
0000
0030
,
0101
0000
1020
0000
0030
2000
0000
3000
,
1001
0000
0102
0000
0003
2000
0000
3000
,
2002
0000
0000
0000
,
0000
3003
0100
0000
0010
1000
0010
0000
,
0100
0000
0001
0000
1000
0001
1000
0000
,
0010
0000
0100
0000
0010
1000
0010
0000
,
1000
0000
0001
0000
0010
0100
1000
0000
,
0001
0000
0010
0000
0100
0010
0001
0000
,
1000
0000
0010
0000
1000
0010
0100
0000
,
0001
0000
1000
0000
0010
0100
0010
0000
,
1000
0000
0001
0000
0010
0100
0010
0000
,
0100
0000
1100
0000
1000
0010
0000
0010
,
0100
0000
0002
0000
0103
0010
0000
0010
,
1000
0000
0200
0000
0310
0001
0000
0001
,
0100
0000
0020
0000
0130
0001
0000
1000
,
0001
0000
0200
0000
0310
1000
0000
0001
,
0100
0000
0020
0000
0130
0001
0000
1000
,
0100
0000
0020
0000
0031
0010
0000
0100
,
1000
0000
1000
0100
1000
0010
1000
0100
,
1000
0010
0100
0001
1000
0010
0100
0001
,
1000
0010
1000
0000
0001
0000
0100
0000
,
0001
0000
1000
0000
0010
0000
0100
0001
,
0100
0001
1000
0010
1000
0001
0010
0100
,
1000
0100
0010
0001
0100
0010
1000
0100
,
0010
0001
0100
0000
0010
0000
1000
0000
,
0001
0000
0100
0000
0010
0000
1000
0001
,
0100
0001
0010
0100
1000
0010
0100
0001
,
0010
0100
2000
0000
3100
0010
0001
0000
,
1000
0000
0002
0000
0013
0100
1000
0000
,
0100
0000
0020
0000
0031
1000
0001
0000
,
0100
0000
0020
0000
1030
0010
1000
0000
,
0010
0000
0200
0000
0301
0100
0010
0000
,
0100
0000
0002
0000
1003
0100
1000
0000
,
0002
0000
0103
0000
0001
0100
0010
0000
,
1001
0000
1000
1000
0100
0100
0010
0010
,
0001
0001
0200
0000
0302
0000
2003
0000
,
0000
3010
0010
0000
0200
0000
0302
0000
,
0000
0013
0010
0000
0200
0000
2300
0000
,
0000
3100
0100
0000
0020
0000
0032
0000
,
0000
0013
0010
0000
0002
0000
2003
0000
,
0000
3001
0001
0000
0200
0000
0320
0000
,
0000
1030
1000
0000
0002
0000
0023
0000
,
0030
0100
0100
0000
2000
0000
3200
0000
,
0000
0300
0010
0001
0010
0001
1000
0100
,
1000
0100
0010
0000
0001
0000
0010
0000
,
0100
0000
1000
0001
1000
0010
0100
0010
,
1000
0001
0100
0000
0100
0000
0010
0000
,
1000
1001
0110
0101
,
0000
0001
1000
0000
1010
0000
0101
0000
,
1010
2000
0010
3002
,
0100
2003
0010
3001
,
1000
0010
0100
0010
0000
0100
0000
0000
,
1001
0000
0001
0200
0000
0310
0000
0000
,
0101
0000
1000
0020
0000
0130
0000
0000
,
1010
0000
0100
0002
0000
1003
0000
0000
,
1001
0000
0010
0200
0000
0310
0000
0000
,
0101
0000
0010
2000
0000
3001
0000
0000
,
1001
0000
1000
0020
0000
0130
0000
0000
,
0101
0000
0010
2000
0000
3001
0000
0000
,
1000
0010
2000
0000
3020
0000
0230
0000
,
0300
0001
2000
0000
3020
0000
0130
0000
,
1001
2000
3002
2003
,
3000
0100
0020
0000
0032
0000
0013
0000
,
0110
0200
2300
3020
,
0000
0130
0002
0000
2003
0000
3100
0000
,
0011
2000
3200
0320
,
0030
0001
2000
0000
3002
0000
1003
0000
,
2002
3003
0000
0000
0000
0000
0000
0000
;

//---------------dance-single - Copied from Copied f----------------
#NOTES:
     dance-single:
     Copied from Copied f:
     Easy:
     5:
     0.371,0.374,0.048,0.160,0.000:
0000
0000
0000
0000
,
0000
0000
0000
0000
,
0000
0000
0000
0000
,
0000
0000
0000
0000
,
0000
0001
1000
0010
,
0100
0001
0010
0100
,
0010
0010
0010
0000
0001
0000
0010
0000
,
1000
0100
0001
0010
,
0100
0100
0100
0000
1000
0000
0010
0000
,
0100
0001
0010
0100
,
1000
1000
1000
0000
0001
0000
0100
0000
,
0010
1000
0001
1000
,
0100
0100
0100
0000
0000
0020
0000
0030
,
0001
0000
0010
0000
0000
0200
0000
0300
,
1000
0000
0001
0000
0000
2000
0000
3000
,
0010
0000
0100
0000
0000
0002
0000
0003
,
0100
0000
0010
0000
0000
0200
0000
0300
,
0001
0000
0010
0000
0000
0200
0000
0300
,
0010
0000
0001
0000
0000
2000
0000
3000
,
0010
0000
0100
0000
0000
0002
0000
0003
,
2002
0000
0000
0000
,
0000
3003
0100
0000
0010
0000
0100
0000
,
0001
1000
0010
0001
,
1000
0100
0001
0010
,
1000
0001
0100
1000
,
0010
0001
0100
1000
,
0010
0100
0001
1000
,
0010
0100
0001
0010
,
0100
1000
0100
0010
,
0001
0000
1001
0000
0000
0100
0000
0010
,
0010
0000
1000
0000
0000
0001
0000
0100
,
0100
0000
0010
0000
0000
1000
0000
0001
,
0001
0000
0100
0000
0000
0010
0000
1000
,
1000
0000
0100
0000
0000
0010
0000
0001
,
0001
0000
0010
0000
0000
0100
0000
1000
,
1000
0000
0100
0000
0000
1000
0000
0001
,
0001
0200
0010
0010
,
0310
0100
0010
0000
1000
0000
0001
0000
,
0100
1000
0001
0010
,
1000
0001
0010
0100
,
1000
0001
0010
0100
,
1000
0010
0100
0010
,
1000
0001
0100
0010
,
1000
0100
0010
0001
,
0010
0100
1000
0100
,
0010
0000
0000
0000
0001
1000
0001
0000
,
0100
0000
0000
0000
0010
0100
0010
0000
,
1000
0000
0000
0000
0010
1000
0010
0000
,
0100
0000
0000
0000
0001
0100
0001
0000
,
0010
0000
0000
0000
0100
1000
0100
0000
,
0010
0000
0000
0000
0001
0010
0001
0000
,
0100
0000
0000
0000
0010
1000
0010
0000
,
0000
1000
1000
0001
,
0001
0100
0001
1000
,
0000
0010
0100
0001
,
0000
0010
0100
1000
,
0000
0100
0010
0001
,
0000
0010
0001
1000
,
0000
0001
0100
0010
,
0000
1000
0001
0010
,
0000
0100
1000
0100
,
0000
0010
0010
0001
,
0001
0100
0100
1000
,
1000
0010
0010
0001
,
0001
0100
0100
1000
,
1000
0200
0320
2030
,
3000
0001
0001
0000
2000
0000
3020
0000
,
0230
0302
0000
0203
,
0000
0320
0000
0030
,
0000
0000
0100
0010
0000
0100
0000
0000
,
0010
0000
0100
0010
0000
1000
0000
0000
,
0001
0000
0100
0010
0000
1000
0000
0000
,
0001
0000
0010
0100
0000
1000
0000
0000
,
0100
0000
0010
0001
0000
0010
0000
0000
,
0100
0000
1000
0100
0000
0010
0000
0000
,
0001
0000
1000
0010
0000
0100
0000
0000
,
0001
0000
1000
0010
0000
0100
0000
0000
,
0010
0100
0001
0100
,
0000
1000
0010
1000
,
1001
0001
0100
0010
,
0000
0100
0010
1000
,
1010
0010
0100
0001
,
0000
0100
0010
1000
,
1010
0010
0100
0001
,
0000
0100
0010
0100
,
1001
0000
0000
0000
;

//---------------dance-single - Copied from Copied f----------------
#NOTES:
     dance-single:
     Copied from Copied f:
     Beginner:
     2:
     0.264,0.340,0.048,0.088,0.000:
0000
0000
0000
0000
,
0000
0000
0000
0000
,
0000
0000
0000
0000
,
0000
0000
0000
0000
,
0000
1000
0001
0000
,
0100
0000
0010
0100
,
0100
0100
0010
0000
,
1000
0000
0001
1000
,
1000
1000
0001
0000
,
0100
0000
0010
1000
,
1000
1000
0001
0000
,
0100
0000
0010
0100
,
0010
0000
0100
0000
0000
0001
0000
0000
,
1000
0000
0010
0000
0000
0100
0000
0000
,
0010
0000
1000
0000
0000
0100
0000
0000
,
0010
0000
0001
0000
0000
0010
0000
0000
,
0100
0000
1000
0000
0000
0001
0000
0000
,
1000
0000
0010
0000
0000
0100
0000
0000
,
0001
0000
1000
0000
0000
0010
0000
0000
,
1000
0000
0001
0000
0000
0100
0000
0000
,
2002
0000
0000
0000
,
0000
3003
0010
0000
0000
0000
0000
0000
,
1000
0001
0000
0000
,
0000
0000
0000
0100
,
0000
0010
0000
1000
,
0000
0001
0000
0000
,
1000
0010
0000
0000
,
0000
0000
0000
1000
,
0000
0001
0000
0100
,
0000
0000
1001
0000
0000
0010
0000
0000
,
0100
0000
0001
0000
0000
1000
0000
0000
,
0010
0000
0100
0000
0000
0001
0000
0000
,
1000
0000
0010
0000
0000
0100
0000
0000
,
0001
0000
0010
0000
0000
0100
0000
0000
,
1000
0000
0100
0000
0000
0010
0000
0000
,
0001
0000
0010
0000
0000
0001
0000
0000
,
1000
0010
0100
0100
,
0100
0001
0000
1000
,
0000
0001
0000
0000
,
0000
0000
0000
0010
,
0000
0100
0000
1000
,
0000
0010
0000
0001
,
0000
1000
0000
0000
,
0000
0000
0000
0010
,
0000
0100
0000
0001
,
0000
0100
0001
1000
,
0010
0000
0100
0010
,
1000
0000
0001
0100
,
0010
0000
0100
0010
,
1000
0000
0001
0100
,
0010
0000
0100
0010
,
0100
0000
0001
1000
,
0000
0001
0001
1000
,
1000
0010
1000
0001
,
0000
0100
0010
1000
,
0000
0100
0010
0001
,
0000
0010
0100
1000
,
0000
0100
1000
0001
,
0000
1000
0010
0100
,
0000
0001
1000
0100
,
0000
0010
0001
0010
,
0000
0100
0000
0000
,
1000
0010
0000
0000
,
0000
0100
0000
0000
,
0001
1000
0000
0000
,
0000
0002
2003
3002
,
0003
0100
0020
2030
,
3002
0203
0000
0320
,
0000
2030
0000
3000
,
0000
0000
0010
0000
0000
0100
0000
0000
,
0001
0000
0100
0000
0000
0001
0000
0000
,
1000
0000
0010
0000
0000
0100
0000
0000
,
0001
0000
1000
0000
0000
0001
0000
0000
,
0100
0000
0010
0000
0000
0100
0000
0000
,
0001
0000
0100
0000
0000
0010
0000
0000
,
1000
0000
0100
0000
0000
0010
0000
0000
,
0001
0000
0010
0000
0000
0100
0000
0000
,
1000
0100
0010
0001
,
0000
0001
0100
0001
,
1001
1000
0010
0100
,
0000
0010
0100
0001
,
0101
0100
0010
1000
,
0000
0010
0100
0001
,
0101
0100
0010
1000
,
0000
0010
0100
0010
,
1001
0000
0000
0000
;
