#TITLE:KOTOBUKI;
#SUBTITLE:;
#ARTIST:REVen-G;
#TITLETRANSLIT:;
#SUBTITLETRANSLIT:;
#ARTISTTRANSLIT:;
#GENRE:;
#CREDIT:;
#BANNER:;
#BACKGROUND:;
#LYRICSPATH:;
#CDTITLE:;
#MUSIC:KOTOBUKI.mp3;
#OFFSET:0.320000;
#SAMPLESTART:14.079998;
#SAMPLELENGTH:12.000000;
#SELECTABLE:YES;
#BPMS:0.000000=70.000000
,16.500000=140.000000
,112.500000=70.000000
,132.500000=280.000000
;
#STOPS:
;
#BGCHANGES:;
#KEYSOUNDS:;
#ATTACKS:;

//---------------dance-single - ----------------
#NOTES:
     dance-single:
     :
     Hard:
     16:
     0.869207,1.000000,0.291077,0.309856,0.774641,584.000000,31.000000,33.000000,0.000000,0.000000,0.000000,0.869207,1.000000,0.291077,0.309856,0.774641,584.000000,31.000000,33.000000,0.000000,0.000000,0.000000:
0000
0000
0010
0000
1000
0000
0001
0000
1000
0000
0001
0100
0010
1000
0100
0010
,
0001
0000
0000
1000
0000
0000
0001
0000
0000
0100
0000
0000
1000
0000
0000
0100
0000
0000
0001
0000
0000
0000
0000
0000
1000
0000
0010
0000
1000
0000
0001
0000
0100
0000
0010
0000
0100
0000
0001
0000
0010
0000
0000
0000
0000
0000
0000
0000
,
0000
0000
1001
0000
0010
0000
1000
0000
0001
0000
0010
0001
0100
0010
1000
0001
,
0100
0000
0010
0000
1000
0000
0001
0010
0100
1000
0001
0010
0100
1000
0010
0100
0010
1000
0001
0010
0001
0100
0010
1000
0100
0010
0100
1000
0001
0100
0010
1000
,
0001
0010
0100
1000
0010
0000
0000
0000
0000
0000
0100
0000
0010
0000
0000
0000
1000
0000
0000
0000
0001
0000
0000
0000
0000
0000
1000
0000
0010
0000
0000
0000
,
0100
0000
0010
0000
0000
0100
0001
0000
1000
0000
0100
0000
0000
0010
0001
0000
,
0010
0000
0100
0000
0000
1000
0001
0000
1000
0000
0010
0000
0000
0100
0010
0000
,
0100
0000
0001
0000
0000
1000
0010
0000
0100
0000
1000
0100
1000
0100
0001
0010
,
0001
0010
0100
0000
0000
1000
0001
0000
0100
0000
0010
0100
0000
0001
1000
0000
,
0001
0000
0100
0000
0000
0010
1000
0000
0001
0000
1000
0010
0000
1000
0100
0000
,
0010
0000
0001
0000
0000
0100
0010
0000
1000
0000
0001
0100
0000
0010
0100
0000
,
0001
0000
1000
0000
0000
0001
0010
0000
0001
0000
1000
0010
0000
0100
0010
0000
,
0100
0001
1000
0010
1000
0010
0100
0100
,
0010
2001
0001
3002
0100
0103
0010
1000
,
0001
0010
0100
0010
1000
0001
0100
1000
,
0010
0001
1000
0100
0002
2000
0000
0000
,
3003
0000
0010
0100
0010
0000
2000
0000
0000
0000
0002
0000
3000
0000
0200
0000
,
0003
0000
0020
0000
0300
0000
1030
0000
0001
1000
0002
0000
0000
0000
1003
0000
,
0010
0000
0100
0001
0100
0010
0100
0001
0100
0010
1000
0010
0100
0001
0100
0010
,
0100
0001
1000
0001
0100
0010
0100
0001
0100
0010
1000
0010
0100
0001
0100
0010
,
0100
0001
1000
0000
0001
0000
0101
0000
0101
0000
0010
0000
1000
0000
1010
0000
,
1010
0000
0001
0000
0100
0000
0110
0000
0110
0000
0010
1000
0100
0010
0001
0000
,
1000
0100
1000
0000
0001
0000
1010
0000
0101
0000
0010
0000
1000
0000
1100
0000
,
0011
0000
0001
0000
1000
0000
0110
0000
1001
0000
0010
0100
0001
0100
1000
0000
,
0100
0001
0010
0000
0100
0000
1010
0000
1100
0000
0100
0000
0010
0000
0011
0000
,
0101
0000
0100
0000
0010
0000
0110
0000
1010
0000
1000
0001
0010
0100
1000
0000
,
0001
1000
1001
0000
2000
0000
0010
0000
3001
0000
1001
0000
2000
0000
0100
0000
,
3010
0000
0120
0000
1030
0000
0210
0000
0301
0000
0101
0010
1000
0001
1000
0000
,
0010
0000
1000
0000
0001
0000
0010
0000
0001
0000
0100
0010
0100
0000
1000
0000
0100
0000
0001
0000
0100
0000
0010
0000
1000
0100
0001
0100
0010
0000
0001
0000
,
1000
0000
0001
0010
0100
0000
0001
0000
0100
0000
1000
0100
0001
0000
0100
0000
1000
0000
0001
0000
0100
0000
0001
0000
1000
0010
1000
0001
0100
0000
0001
0000
,
0010
0000
0100
1000
0001
0000
0100
0000
0010
0000
1000
0001
1000
0010
0100
0010
1000
0001
0010
0100
1000
0000
0001
0100
0001
0000
0010
0000
0100
1000
0000
1000
,
0100
0000
0010
0000
0001
0000
1000
0000
0001
0000
1000
0000
0010
0100
0001
1000
0010
0100
0001
0000
0100
0000
1000
0000
0100
0000
0001
0000
0010
0000
1000
0000
,
0010
0000
0001
0000
1000
0000
0001
0100
0001
1000
0010
1000
0100
0010
0100
1000
0001
0010
0100
0010
1000
0001
0100
1000
0100
0010
0001
1000
0010
0001
0010
1000
,
0100
0010
0001
1000
0010
0000
0000
0000
0100
0000
0000
0000
0010
0000
0000
0000
0000
0000
0000
0000
0010
0000
0000
0000
1000
0000
0000
0000
0001
0000
0000
0000
,
0000
1000
0001
1000
0000
1000
0010
0100
,
0000
0001
1000
0100
0000
1000
0001
0010
,
0000
0100
1000
0001
0000
1000
0010
0100
,
0000
0010
0000
1000
0000
0001
0000
0100
,
0000
0001
0100
1000
0100
0001
0010
1000
,
0010
0001
0000
1000
0000
0100
0000
0010
,
0000
0001
0010
1000
0001
0100
1000
0010
,
0100
1000
0100
0001
0000
0100
0001
1000
,
0000
0001
1000
0001
0000
0001
0100
0010
,
0000
1000
0001
0010
0000
0010
0100
1000
,
0000
0001
0100
0001
0000
1000
0010
1000
,
0000
0001
0100
0010
0000
1000
0001
1000
,
0000
1000
0100
0010
0000
0001
0100
0010
,
0000
0010
1000
0010
0000
0100
0001
1000
,
0000
1000
0001
0100
0001
0010
0100
1000
,
0001
1000
0000
0010
0000
0100
0000
0001
,
0000
1000
0000
0010
0000
0010
0000
0100
,
0000
2020
3030
0202
0303
2200
3300
2002
,
3003
0220
0330
0001
0000
1000
0000
0001
,
0000
0100
0000
0010
0000
1000
0000
0100
,
0000
0010
0000
0001
0000
1000
0000
0100
,
0000
1000
0000
0010
0000
0100
0000
0001
,
0000
1000
0000
0010
0100
0010
0100
0001
,
1000
0002
0000
0000
0000
2000
0003
0000
,
0000
0020
3000
0000
0000
0200
0030
0000
,
0000
0002
0300
0000
0000
2003
0000
0002
,
3003
0220
0000
0000
0000
0000
0000
0000
,
0330
0100
0001
1000
0100
1000
0001
0100
,
1000
0001
0010
1000
0001
0100
1000
0100
,
0001
1000
0010
0001
1000
0100
0001
0010
,
0100
0001
1000
0010
0001
1000
0100
0010
,
0000
0000
0001
0010
0100
1000
0001
0010
,
0100
2000
0000
0000
0000
0000
0000
0000
,
0000
0000
0000
0000
,
0000
0000
0000
0000
,
0000
0000
0000
0000
,
0000
0000
0000
0000
,
0000
3000
0000
0000
0000
0000
0000
0000
;

//---------------dance-single - ----------------
#NOTES:
     dance-single:
     :
     Medium:
     12:
     0.517768,0.768009,0.046948,0.187792,0.159623,361.000000,5.000000,20.000000,0.000000,0.000000,0.000000,0.517768,0.768009,0.046948,0.187792,0.159623,361.000000,5.000000,20.000000,0.000000,0.000000,0.000000:
0000
0000
0010
0000
0100
0000
0001
0000
0000
0000
1000
0010
0100
0000
0001
0010
,
0100
0000
1000
0001
0100
0001
1000
0000
0100
0000
0010
0000
0001
0000
0000
0000
,
0000
0000
0100
0000
0001
0000
1000
0000
0000
0000
0001
0001
0100
0000
0010
0010
,
1000
0000
0001
1000
0001
1000
0010
0100
0010
0100
0001
0010
0100
1000
0100
0010
,
0001
1000
0001
0000
0000
0000
1000
0000
0000
0000
0010
0000
1000
0000
0001
0000
,
0000
0100
0000
0001
0000
0010
0100
1000
,
0000
0100
0000
0010
0000
0001
0100
0010
,
0000
1000
0000
0001
0000
1000
0001
0100
,
0001
1000
0000
0001
0100
0001
0000
1000
,
0000
0010
0000
1000
0100
1000
0000
0001
,
0000
0010
0000
0100
1000
0001
0000
0100
,
0000
0010
0000
0100
0001
1000
0000
0010
,
0000
0100
0001
0100
0010
1000
0010
0010
,
1000
0001
0001
0001
1000
1000
0010
1000
,
0001
0010
0100
1000
0100
0010
0001
1000
,
0001
1000
0010
0100
0010
0200
0000
0000
,
0000
0302
0000
2003
0000
3020
0000
0230
,
0000
0302
0000
1003
0001
0200
0000
0300
,
0000
0001
0100
1000
0100
0010
0100
0001
,
0100
1000
0100
0001
0100
0010
0100
1000
,
0100
0010
1000
0001
0001
0010
0100
1000
,
1000
0001
0100
0010
0010
0100
0001
1000
,
0010
0100
0001
1000
1000
0010
1000
0010
,
0010
0100
0001
0100
0100
0001
1000
0001
,
0100
0010
1000
0001
0001
0010
0100
1000
,
1000
0001
0100
0010
0010
1000
0001
1000
,
0001
1001
0000
0010
0100
0110
0000
0100
,
0001
0101
0000
1010
0000
1001
0000
0100
,
0000
0000
0001
0000
1000
0000
0010
0100
0010
0000
0100
0000
0001
0000
1000
0001
,
1000
0000
0010
0000
0100
0000
0001
0010
0001
0000
1000
0000
0100
0000
0010
0001
,
0100
0000
0010
0000
1000
0000
0001
1000
0010
0000
1000
0000
0100
0000
0010
0001
,
1000
0000
0010
0100
0010
0100
0001
0000
1000
0000
0100
1000
0100
0010
0001
1000
,
0001
1000
0010
0100
0100
0001
0010
0010
0100
1000
1000
0100
0010
0010
0001
1000
,
1000
0001
0010
0000
0000
0000
0000
0000
0000
0000
0010
0000
0000
0000
0000
0000
,
0000
0001
0000
0000
0000
0010
0000
0000
,
0000
0100
0000
0000
0000
1000
0000
0000
,
0000
0010
0000
0000
0000
0100
0000
0000
,
0000
0001
0000
0100
0000
0010
0000
1000
,
0000
0010
0000
0100
0000
0001
0000
1000
,
0000
0100
0000
0000
0000
0010
0000
0000
,
0000
0001
0000
1000
0000
0010
0000
1000
,
0000
0001
0000
0000
0000
1000
0000
0000
,
0000
0001
0000
0000
0000
0001
0000
0000
,
0000
1000
0000
0000
0000
0010
0000
0000
,
0000
0100
0000
0000
0000
0100
0000
0000
,
0000
0001
0000
1000
0000
0010
0000
1000
,
0000
0001
0000
0100
0000
0001
0000
1000
,
0000
0100
0000
0010
0000
0100
0000
1000
,
0000
0001
0000
0100
0000
0010
0000
1000
,
0000
0001
0000
0100
0000
0001
0000
1000
,
0000
0010
0000
1000
0000
0001
0000
0100
,
0000
0020
0030
0020
0030
0200
0300
0020
,
0030
0020
0030
1000
0000
0001
0000
1000
,
0000
0001
0000
0010
0000
0100
0000
1000
,
0000
0100
0000
1000
0000
0010
0000
0100
,
0000
0010
0000
1000
0000
0001
0000
0100
,
0000
0020
0000
0000
0000
0000
0000
0000
,
0000
0230
0000
0000
0000
0302
0000
0000
,
0000
2003
0000
0000
0000
3020
0000
0000
,
0000
0230
0000
0000
0000
0301
0000
1000
,
0000
0020
0000
0000
0000
0000
0000
0000
,
0000
0130
0000
0001
0000
1000
0000
0100
,
0000
1000
0000
0010
0000
0100
0000
0001
,
0000
0010
0000
0100
0000
1000
0000
0001
,
0000
0100
0000
0010
0000
1000
0000
0001
,
0000
0000
1000
0001
1000
0001
0100
0010
,
0100
0020
0000
0000
0000
0000
0000
0000
,
0000
0000
0000
0000
,
0000
0000
0000
0000
,
0000
0000
0000
0000
,
0000
0000
0000
0000
,
0000
0030
0000
0000
0000
0000
0000
0000
;

//---------------dance-single - ----------------
#NOTES:
     dance-single:
     :
     Easy:
     5:
     0.383632,0.500876,0.046948,0.403752,0.000000,238.000000,5.000000,43.000000,0.000000,0.000000,0.000000,0.383632,0.500876,0.046948,0.403752,0.000000,238.000000,5.000000,43.000000,0.000000,0.000000,0.000000:
0000
0000
0000
0000
0000
0001
1000
0001
,
1000
0100
1000
0010
0000
0000
0000
0000
,
0000
0100
0010
0100
0000
0001
0100
0010
,
1000
0002
0000
2003
0000
3020
0000
0230
,
0000
0310
0000
1000
0000
0010
0000
0100
,
0000
0001
0000
0010
0000
0100
0000
1000
,
0000
0001
0000
1000
0000
0010
0000
0100
,
0000
0010
0000
1000
0000
0001
0000
1000
,
0000
0010
0000
0100
0000
0001
0000
0100
,
0000
0010
0000
1000
0000
0010
0000
0100
,
0000
0001
0000
0010
0000
0001
0000
1000
,
0000
0100
0000
1000
0000
0001
0000
0100
,
0000
0001
1000
0001
0100
0020
0000
0000
,
0030
1000
0001
0100
0010
0200
0000
0000
,
0300
0001
1000
0100
0010
0002
0000
2003
,
0000
3002
0000
0023
0000
0230
0000
0000
,
0000
2300
0000
3002
0000
2003
0000
3020
,
0000
0230
0000
0310
1000
0020
0000
0000
,
0030
0100
0000
0001
0000
1000
0000
0100
,
0000
0010
0000
0001
0000
0010
0000
0100
,
0000
1000
1000
0010
0010
0100
0100
0001
,
0001
2000
0000
3002
0000
0103
0010
0100
,
0000
0001
0001
0010
0010
0100
0100
1000
,
1000
0002
0000
2003
0000
3001
1000
0001
,
0000
1000
1000
0001
0001
0100
0100
0010
,
0010
2000
0000
3002
0000
1003
0001
1000
,
0000
1001
0000
0001
0000
0101
0000
0100
,
0000
0110
0000
0110
0000
1001
0000
0100
,
0000
0010
0000
0010
0000
0100
0000
0001
,
0000
1000
0000
0001
0000
0100
0000
0010
,
0000
0010
0010
0100
0001
1000
1000
0010
,
0100
0001
0001
0000
0000
1000
1000
0001
,
0001
0010
0001
0100
1000
0010
0001
0100
,
1000
0010
0000
0000
0000
0001
0000
0000
,
0000
1000
0000
0000
0000
0010
0000
0000
,
0000
0100
0000
0000
0000
0001
0000
0000
,
0000
1000
0000
0000
0000
0010
0000
0000
,
0000
0100
0000
0010
0000
0100
0000
0000
,
0000
0001
0000
0100
0000
0001
0000
0000
,
0000
1000
0000
0000
0000
0001
0000
0000
,
0000
0100
0000
0010
0000
0100
0000
0001
,
0000
1000
0000
0000
0000
1000
0000
0000
,
0000
0010
0000
0000
0000
0010
0000
0000
,
0000
0100
0000
0000
0000
0100
0000
0000
,
0000
0001
0000
0000
0000
0001
0000
0000
,
0000
2000
0000
0000
0000
3020
0000
0000
,
0000
0230
0000
0000
0000
0302
0000
0000
,
0000
0203
0000
0000
0000
0320
0000
0000
,
0000
2030
0000
0000
0000
3002
0000
0000
,
0000
1003
0000
0000
0000
0010
0000
0000
,
0000
0100
0000
0000
0000
0001
0000
0000
,
0000
0200
0300
0200
0300
0002
0003
0200
,
0300
0200
0300
0001
0000
1000
0000
0001
,
0000
1000
0000
0000
0000
0010
0000
0000
,
0000
0100
0000
0000
0000
0001
0000
0000
,
0000
1000
0000
0000
0000
0001
0000
0000
,
0000
0100
0000
0000
0000
0000
0000
0000
,
0000
0020
0000
0000
0000
2030
0000
0000
,
0000
3002
0000
0000
0000
0203
0000
0000
,
0000
0320
0000
0000
0000
1030
0000
0001
,
0000
0200
0000
0000
0000
0000
0000
0000
,
0300
0010
0000
0000
0000
1000
0000
0000
,
0000
0001
0000
0000
0000
0010
0000
0000
,
0000
0100
0000
0000
0000
1000
0000
0000
,
0000
0001
0000
0000
0000
0100
0000
0001
,
0000
0000
0000
1000
0000
0001
0000
0100
,
0000
0020
0000
0000
0000
0000
0000
0000
,
0000
0000
0000
0000
,
0000
0000
0000
0000
,
0000
0000
0000
0000
,
0000
0000
0000
0000
,
0000
0030
0000
0000
0000
0000
0000
0000
;

//---------------dance-single - ----------------
#NOTES:
     dance-single:
     :
     Beginner:
     3:
     0.237422,0.434092,0.046948,0.253519,0.000000,145.000000,5.000000,27.000000,0.000000,0.000000,0.000000,0.237422,0.434092,0.046948,0.253519,0.000000,145.000000,5.000000,27.000000,0.000000,0.000000,0.000000:
// measure 0
0000
0000
0000
0000
0000
1000
0000
0001
,  // measure 1
0000
0100
0000
0010
0000
0000
0000
0000
,  // measure 2
0000
0010
0000
0010
0000
1000
0000
0001
,  // measure 3
0000
2000
0000
3002
0000
0203
0000
0320
,  // measure 4
0000
0130
0000
0000
0000
0001
0000
0000
,  // measure 5
0000
1000
0000
0000
0000
0100
0000
0000
,  // measure 6
0000
0010
0000
0000
0000
0001
0000
0000
,  // measure 7
0000
1000
0000
0000
0000
0010
0000
0000
,  // measure 8
0000
0100
0000
0000
0000
0001
0000
0000
,  // measure 9
0000
1000
0000
0000
0000
0010
0000
0000
,  // measure 10
0000
1000
0000
0000
0000
0001
0000
0000
,  // measure 11
0000
0010
0000
0000
0000
0100
0000
0000
,  // measure 12
0000
1000
0000
0001
0000
2000
0000
0000
,  // measure 13
3000
0001
0000
0100
0000
0020
0000
0000
,  // measure 14
0030
1000
0000
0001
0000
0200
0000
0302
,  // measure 15
0000
2003
0000
3002
0000
0023
0000
0000
,  // measure 16
0000
0032
0000
0203
0000
0320
0000
2030
,  // measure 17
0000
3200
0000
0310
0000
0020
0000
0000
,  // measure 18
0030
0100
0000
0000
0000
1000
0000
0000
,  // measure 19
0000
0001
0000
0000
0000
0100
0000
0000
,  // measure 20
0000
0001
0000
0001
0000
1000
0000
1000
,  // measure 21
0000
0010
0000
0010
0000
1000
0000
0001
,  // measure 22
0000
1000
0000
1000
0000
0001
0000
0001
,  // measure 23
0000
0010
0000
0010
0000
0100
0000
1000
,  // measure 24
0000
0001
0000
0001
0000
1000
0000
1000
,  // measure 25
0000
0010
0000
0010
0000
1000
0000
0001
,  // measure 26
0000
1001
0000
0000
0000
0110
0000
0000
,  // measure 27
0000
1001
0000
1001
0000
0110
0000
0000
,  // measure 28
0000
0100
0000
0010
0000
1000
0000
0001
,  // measure 29
0000
0010
0000
0100
0000
1000
0000
0001
,  // measure 30
0000
0100
0100
0100
0000
0001
0001
0001
,  // measure 31
0000
1000
1000
0000
0000
0001
0001
1000
,  // measure 32
1000
0010
0000
0010
0000
1000
0000
0001
,  // measure 33
0000
0100
0000
0000
0000
0000
0000
0000
,  // measure 34
0000
0001
0000
0000
0000
0000
0000
0000
,  // measure 35
0000
1000
0000
0000
0000
0000
0000
0000
,  // measure 36
0000
0100
0000
0000
0000
0000
0000
0000
,  // measure 37
0000
1000
0000
0000
0000
0000
0000
0000
,  // measure 38
0000
0001
0000
0000
0000
0000
0000
0000
,  // measure 39
0000
0100
0000
0000
0000
0000
0000
0000
,  // measure 40
0000
0020
0000
0000
0000
0000
0000
0000
,  // measure 41
0000
0130
0000
0000
0000
0000
0000
0000
,  // measure 42
0000
0001
0000
0000
0000
0000
0000
0000
,  // measure 43
0000
1000
0000
0000
0000
0000
0000
0000
,  // measure 44
0000
0001
0000
0000
0000
0000
0000
0000
,  // measure 45
0000
0002
0000
0000
0000
0000
0000
0000
,  // measure 46
0000
2003
0000
0000
0000
0000
0000
0000
,  // measure 47
0000
3020
0000
0000
0000
0000
0000
0000
,  // measure 48
0000
0230
0000
0000
0000
0000
0000
0000
,  // measure 49
0000
0310
0000
0000
0000
0000
0000
0000
,  // measure 50
0000
1000
0000
0000
0000
0000
0000
0000
,  // measure 51
0000
0010
0000
0000
0000
0010
0000
0000
,  // measure 52
0000
0010
0000
0000
0000
1000
0000
0000
,  // measure 53
0000
0001
0000
0000
0000
0000
0000
0000
,  // measure 54
0000
0100
0000
0000
0000
0000
0000
0000
,  // measure 55
0000
0001
0000
0000
0000
0000
0000
0000
,  // measure 56
0000
1000
0000
0000
0000
0000
0000
0000
,  // measure 57
0000
0200
0000
0000
0000
0000
0000
0000
,  // measure 58
0000
2300
0000
0000
0000
0000
0000
0000
,  // measure 59
0000
3002
0000
0000
0000
0103
0000
0000
,  // measure 60
0000
0020
0000
0000
0000
0000
0000
0000
,  // measure 61
0030
0100
0000
0000
0000
0000
0000
0000
,  // measure 62
0000
1000
0000
0000
0000
0000
0000
0000
,  // measure 63
0000
0010
0000
0000
0000
0000
0000
0000
,  // measure 64
0000
1000
0000
0000
0000
0000
0000
0001
,  // measure 65
0000
0000
0000
1000
0000
0010
0000
0100
,  // measure 66
0000
0200
0000
0000
0000
0000
0000
0000
,  // measure 67
0000
0000
0000
0000
,  // measure 68
0000
0000
0000
0000
,  // measure 69
0000
0000
0000
0000
,  // measure 70
0000
0000
0000
0000
,  // measure 71
0000
0300
0000
0000
0000
0000
0000
0000
;
