#VERSION:0.81;
#TITLE:Invitation from Mr.C;
#SUBTITLE:;
#ARTIST:C-Show;
#TITLETRANSLIT:;
#SUBTITLETRANSLIT:;
#ARTISTTRANSLIT:;
#GENRE:;
#ORIGIN:;
#CREDIT:;
#BANNER:;
#BACKGROUND:Invitation from Mr.C-bg.png;
#PREVIEWVID:;
#JACKET:Invitation from Mr.C-jacket.png;
#CDIMAGE:;
#DISCIMAGE:;
#LYRICSPATH:;
#CDTITLE:;
#MUSIC:Invitation from Mr.C.mp3;
#OFFSET:-0.150000;
#SAMPLESTART:28.789984;
#SAMPLELENGTH:12.000000;
#SELECTABLE:YES;
#BPMS:0.000=230.000;
#STOPS:236.000=0.950,
241.500=0.480;
#DELAYS:;
#WARPS:;
#TIMESIGNATURES:0.000=4=4;
#TICKCOUNTS:0.000=4;
#COMBOS:0.000=1;
#SPEEDS:0.000=1.000=0.000=0;
#SCROLLS:0.000=1.000;
#FAKES:;
#LABELS:0.000=Song Start;
#BGCHANGES:;
#KEYSOUNDS:;
#ATTACKS:
;

//---------------dance-single - ----------------
#NOTEDATA:;
#CHARTNAME:;
#STEPSTYPE:dance-single;
#DESCRIPTION:;
#CHARTSTYLE:;
#DIFFICULTY:Hard;
#METER:17;
#RADARVALUES:1.000000,1.000000,0.464625,0.282419,0.464625,822.000000,51.000000,31.000000,0.000000,0.000000,0.000000,0.000000,0.000000,1.000000,1.000000,0.464625,0.282419,0.464625,822.000000,51.000000,31.000000,0.000000,0.000000,0.000000,0.000000,0.000000;
#CREDIT:;
#NOTES:
0000
0000
0000
0000
,
0001
0000
1000
0010
1000
0000
0100
0000
0000
0000
0010
0000
0000
0000
0001
0000
,
0000
1000
0000
0001
1000
0001
0100
0010
,
1000
0000
0010
0100
0010
0000
0100
0000
0000
0000
0001
0000
0000
0000
1000
0000
,
0000
0010
0000
0220
0000
0330
1001
0000
,
1000
0000
0001
0100
0001
0000
0010
0000
0000
0000
0100
0000
0000
0000
1000
0000
,
0000
0001
0000
1000
0001
1000
0010
0100
,
0001
0000
0100
0010
0100
0000
0010
0000
0000
0000
1000
0000
0000
0000
0001
0000
,
0000
0100
0000
0010
1000
0000
0002
0000
,
1003
0100
0010
0100
0001
0100
1000
0010
,
0100
0010
0001
0010
1000
0001
0100
0010
,
0001
1000
0100
0010
1000
0001
0010
1000
,
0001
0100
1000
0100
0020
0000
0032
0000
,
1003
0100
0001
0100
1000
0010
0001
1000
,
0100
0010
0100
1000
0001
0010
1000
0001
,
0010
0100
0010
0001
1000
0010
0100
0001
,
1000
0000
0010
0100
0010
0000
2000
0000
0002
0000
3003
0000
0220
0000
0330
0000
,
1001
0001
0100
0110
0010
1000
1001
0001
,
0010
0011
0001
1000
1100
0100
0110
0010
,
0100
1000
0001
0100
0010
0001
0010
1000
,
0001
0010
0001
1000
0100
1000
0001
0100
,
1001
1000
0010
0110
0100
0001
1001
1000
,
0100
1100
1000
0001
0011
0010
0110
0100
,
0010
0001
0001
1000
0001
0001
0100
0001
,
0001
0010
0100
0100
0100
1000
0010
1000
,
1001
0001
0100
0110
0010
1000
1001
0001
,
0010
0011
0001
1000
1100
0100
1001
0010
,
0101
0001
1000
1100
0010
1000
0101
0010
,
0100
1001
0010
1000
0101
0020
0200
0330
,
1001
0100
0010
0101
1000
0010
1100
0001
,
0100
0101
0001
0100
0110
0010
1010
1000
,
0001
1000
0001
1000
0001
1000
0001
1000
,
0010
0100
0010
0100
0010
0100
0010
0100
,
0001
0010
0100
1000
0010
0100
1000
0100
0010
1000
0001
0010
,
0001
1000
0100
0010
0100
0010
0001
1000
0010
0100
1000
0100
,
0020
0000
0000
0100
,
1030
0001
0001
0100
0010
0010
1000
0100
,
0010
0001
0010
0000
0100
0000
1000
0000
0010
0000
0000
0000
0110
0000
0000
0000
,
0100
0000
0001
0000
0001
0000
0010
0000
0100
0000
0100
0000
1000
0000
0010
0100
,
0010
1000
0001
0100
0001
0010
0100
1000
,
0001
0100
0100
1000
0100
0100
0001
0010
,
0100
1000
0100
0000
0010
0000
0001
0000
0100
0000
0000
0000
1010
0000
0000
0000
,
0100
0001
0001
0010
0100
0100
1000
0010
,
0010
0000
0100
0000
0010
1000
0001
0000
0100
0000
0000
0000
0101
0000
0000
0000
,
1000
0010
1000
0001
0100
0010
1000
0100
,
0010
0001
0010
0000
0100
0000
1000
0000
0010
0000
0100
0000
0001
0000
0010
0000
,
0001
1000
0001
0000
0010
0000
0100
0000
1000
0010
1000
0000
0001
0000
0100
0000
,
0100
0010
0010
1000
1000
0001
0001
1000
,
0010
0100
0010
0000
1000
0000
0001
0000
0100
0000
1000
0000
0100
0000
0001
0000
,
1000
0010
1000
0000
0100
0000
0010
0000
0100
0000
1000
0000
0010
0000
0100
0000
,
0001
0100
0001
0000
1000
0000
0010
0000
0100
0000
1000
0000
0001
0000
0010
0000
,
0100
1000
0100
0000
0010
0000
0100
0000
0100
0000
0000
0000
1010
0000
0000
0000
,
0001
0100
0001
1000
0010
0100
0001
0010
,
0100
1000
0100
0000
0010
0000
0001
0000
0100
0000
0010
0000
1000
0000
0100
0000
,
1000
0001
1000
0000
0100
0000
0010
0000
0001
0100
0001
0000
1000
0000
0010
0000
,
0010
0100
0100
0001
0001
1000
1000
0001
,
0100
0010
0100
0000
0001
0000
1000
0000
0010
0000
0001
0000
0010
0000
1000
0000
,
0001
0100
0001
0000
0010
0000
0100
0000
0010
0000
0001
0000
0100
0000
0010
0000
,
1000
0000
0001
0000
1000
0010
0100
0010
1000
0000
0001
0000
0100
0010
0100
0010
,
2000
3000
0000
0000
0001
0000
0000
0000
0100
0000
0000
0000
0002
0000
0000
0000
0000
0000
0000
0000
2003
0000
0000
0000
0000
0000
0000
0000
3020
0000
0000
0000
,
0000
0000
0230
0000
0000
0300
2002
3003
0000
0000
0010
0000
1000
0000
0100
0000
,
1000
0001
0100
0010
1000
0001
0010
0100
,
1000
0000
0000
0010
0000
0000
0100
0000
0000
1000
0000
0000
0100
0000
0000
0001
0000
0010
0000
0100
0000
1000
0000
0010
,
0000
1000
0000
0001
0000
0010
0000
0100
0000
1000
0000
0010
0000
0100
0000
1000
0000
0100
0000
0001
0000
0010
0000
1000
,
0000
0000
0010
0000
0000
0000
0001
0000
0000
0000
0100
0000
0000
0000
1000
0000
0000
0000
0100
0000
0000
0000
0001
0000
0000
0000
1000
0000
0000
0000
0100
0000
0000
0000
0000
0000
0010
0000
0000
0000
0000
0000
0001
0000
0000
1000
0000
0000
,
0001
1000
0000
0110
0000
0010
1000
0001
,
0101
0000
0010
1000
1000
0001
1000
0100
,
0100
0010
0000
0011
0000
0001
1000
0001
,
1000
0000
0100
0000
0010
0000
0001
0000
0100
0000
0010
1000
0010
0000
1000
0001
,
1000
0000
0010
0000
1000
0000
0001
0000
0100
0000
0010
0000
1000
0000
0100
0000
0010
0000
0001
0000
0000
0010
0000
0000
,
0110
0000
0100
1000
1000
0001
0100
0010
,
0010
0100
0000
1010
0000
0100
0001
0100
,
0001
0000
0010
0000
0100
0000
1000
0000
0010
0000
0100
0001
0100
0000
0001
1000
,
0001
0000
0000
0000
0100
0000
0000
0000
0001
0000
0000
0000
1000
0000
0000
0000
0010
0000
0000
0000
0100
0000
0000
0000
0001
0000
0000
0000
0000
0000
1000
0000
0000
0000
0000
0000
0010
0000
0000
1000
0000
0000
0010
0000
0000
0000
0000
0000
,
0100
0000
1000
0000
0000
0000
2200
0000
3300
0000
0100
0000
0001
0010
0001
0000
,
0010
0000
0100
0000
0000
0000
0220
0000
0330
0000
0100
0000
1000
0001
1000
0000
,
0010
0000
0100
0000
0000
0000
2002
0000
3003
0000
0001
0000
0100
0010
0100
0000
,
0010
1000
0010
0010
0100
0001
1000
0010
,
1000
0100
0010
0001
0100
1000
0100
0010
,
1000
0000
0000
0001
0000
0000
0010
0000
0000
0001
0000
1000
0000
0010
0000
0100
0000
1000
0000
0001
0000
0010
0000
1000
,
0000
0010
0000
0100
0000
0001
0000
0010
0000
0001
0000
1000
0000
0100
0000
0010
0000
0000
0000
0000
0000
0001
0000
0000
,
1000
0001
0000
0110
0000
1000
0010
1000
,
0001
0000
0100
0000
0010
0000
1000
0000
0100
0000
0010
0001
0010
0000
0100
0000
,
1000
0000
0010
0000
0100
0000
0001
0000
0010
0000
0001
1000
0001
0000
0010
0000
,
0100
0000
1000
0010
1000
0000
0001
0000
0100
0000
0100
0000
0010
0000
0010
0000
,
1000
0000
1000
0000
0001
0000
0001
0000
1000
0000
0010
0100
0010
0000
1000
0000
,
0001
0000
0100
0000
1000
0000
0100
0000
0001
0000
1000
0010
1000
0000
0100
0000
,
0010
0000
0100
0000
1000
0000
0010
0000
0100
0000
0001
0100
0001
0000
1000
0000
,
0010
0000
0100
0000
1000
0000
0001
0000
0010
0000
0100
1000
0100
0000
0010
0000
,
0100
0100
0000
1010
0000
0001
0100
0001
,
1000
0000
0010
0000
0100
0000
0001
0000
0010
0000
0100
1000
0100
0000
0010
0000
,
0001
0000
0100
0000
0010
0000
1000
0000
0100
0000
1000
0001
1000
0000
0100
0000
,
0010
0000
0001
0100
0001
0000
1000
0000
0010
0000
0010
0000
0100
0000
0100
0000
,
0001
0000
0001
0000
1000
0000
1000
0000
0001
0000
0100
0010
0100
0000
0001
0000
,
1000
0000
0010
0000
0001
0000
0010
0000
1000
0000
0001
0100
0001
0000
0010
0000
,
0100
0000
0010
0000
0001
0000
0100
0000
0010
0000
1000
0100
1000
0000
0001
0000
,
0100
0000
0010
1000
0010
0000
0100
0000
0010
0000
0010
0000
1000
0000
1000
0000
,
0001
0001
0100
0100
0010
1000
0001
0001
,
0100
0000
0010
0000
0010
0000
1000
0000
0100
0000
0010
0001
0010
0000
0100
0000
,
1000
0010
0100
1001
0000
0100
0001
0001
,
0010
0000
0100
0000
0100
0000
1000
0000
0001
0010
0001
0000
1000
0000
0001
0000
,
1000
0010
1000
0100
0010
0001
2002
3003
,
0010
0202
0303
1000
2002
3003
0000
0000
;

//---------------dance-single - ----------------
#NOTEDATA:;
#CHARTNAME:;
#STEPSTYPE:dance-single;
#DESCRIPTION:;
#CHARTSTYLE:;
#DIFFICULTY:Medium;
#METER:13;
#RADARVALUES:1.000000,1.000000,0.391742,0.683272,0.000000,658.000000,43.000000,75.000000,0.000000,0.000000,0.000000,0.000000,0.000000,1.000000,1.000000,0.391742,0.683272,0.000000,658.000000,43.000000,75.000000,0.000000,0.000000,0.000000,0.000000,0.000000;
#CREDIT:;
#NOTES:
0000
0000
0000
0000
,
0001
1000
0001
0100
0000
0010
0000
1000
,
0000
0001
0000
1000
0100
0010
0001
0010
,
0100
1000
0010
0100
0000
0010
0000
1000
,
0000
0001
0000
2010
0000
0000
3100
0000
,
1000
0001
0001
1000
0000
0010
0000
0100
,
0000
0001
0000
1000
0001
1000
0010
0100
,
0001
0100
0100
0010
0000
1000
0000
0001
,
0000
0010
0000
0001
0100
0000
0020
0000
,
1030
0010
0000
0100
0001
0100
0000
0010
,
1000
0001
0000
1000
0100
0010
0001
0100
,
0010
1000
0000
0001
1000
0001
0000
0100
,
0001
0100
0000
0010
2000
0000
3002
0000
,
1003
0001
1000
0100
1000
0100
0010
0001
,
0010
0001
1000
0100
1000
0010
0100
0010
,
1000
0001
0010
0001
0010
0001
0010
0100
,
1000
0010
0100
0010
0100
0000
0220
0330
,
2002
0000
3003
2020
0000
3030
0202
0000
,
0303
0022
0000
0033
2200
3300
2001
0000
,
3010
0000
0100
0000
0001
0100
0001
0000
,
1000
0010
0100
0000
0001
0000
1000
0000
,
2002
0000
3003
0220
0000
0330
2020
0000
,
3030
0202
0000
0303
0022
0033
2100
0000
,
3010
0100
0100
0000
0001
1000
0000
1000
,
0010
0100
0001
0001
0001
1000
0020
0030
,
0202
0000
0303
0220
0000
0330
2020
0000
,
3030
2200
0000
3300
0220
0330
0022
0033
,
2002
0000
3003
2200
0000
3300
0022
0000
,
0033
0202
0000
0303
1000
0010
0200
0300
,
2020
0000
3030
0202
0000
0303
0022
0000
,
0033
2200
0000
3300
2002
3003
0110
0100
,
0001
0100
0001
0100
0001
0100
0001
0100
,
0010
1000
0010
1000
0010
1000
0010
1000
,
0001
0100
0001
0010
0100
1000
0010
0100
,
0010
1000
0001
0100
0010
0100
0001
0100
,
0010
1000
0001
0100
0010
0000
1001
0000
,
1000
0001
1000
0010
0100
0010
1000
0100
,
0010
0001
0010
0100
1000
0000
1100
0000
,
0100
0010
0100
1000
0001
1000
0001
0100
,
0010
1000
0010
1000
0100
0010
0001
0100
,
0010
1000
0010
1000
0001
0100
0001
1000
,
0010
1000
0001
0100
0001
0000
0101
0000
,
0100
0010
0100
0001
1000
0001
0100
0010
,
1000
0100
0010
0001
0100
0000
0110
0000
,
1000
0010
0000
0010
0100
0010
0100
0001
,
0000
0010
0100
1000
0010
0100
0010
0100
,
1000
0100
0000
0100
0010
0100
0001
0100
,
0010
1000
0010
0100
0010
1000
0001
1000
,
0010
0100
0000
0001
0010
0100
0010
0001
,
0000
1000
0001
0100
0001
1000
0010
0100
,
0010
1000
0000
0010
0100
0001
1000
0010
,
0100
0001
0100
0010
0100
0000
1010
0000
,
0001
0100
0000
0100
0010
0100
0010
1000
,
0000
0100
0010
0001
0100
0010
0100
0010
,
0001
0010
0000
0010
0100
0010
1000
0010
,
0100
0001
0100
0010
0100
0001
1000
0001
,
0100
0010
0000
1000
0100
0010
0100
1000
,
0000
0001
1000
0010
1000
0001
0100
0010
,
0100
0001
0000
0100
0010
1000
0001
1000
,
0001
0100
0010
0200
0000
0302
0000
2003
,
0000
3020
0000
0130
0000
0001
0100
0001
,
0100
0001
0100
0001
0100
0010
1000
0010
,
1000
0010
1000
0010
1000
0001
0010
0001
,
1000
0010
1000
0010
0100
0001
0010
0001
,
1000
0010
0100
0010
2000
0002
0000
0000
,
3003
0100
0000
0110
0000
0010
1000
0010
,
0010
0000
1000
0001
1000
0010
0000
1000
,
1000
0001
0000
1001
0000
1000
0010
1000
,
0001
0000
0100
0010
0100
0001
0001
1000
,
1000
0001
0010
0001
0010
0100
1000
0001
,
0001
0000
0010
0100
0010
0100
0000
1000
,
1000
0001
0000
1001
0000
0100
0001
0100
,
0001
0000
1000
0010
1000
0100
0100
0010
,
0010
0001
1000
0001
1000
0001
0100
0100
,
0001
1000
0000
2002
3003
0100
0010
0010
,
1000
0001
0000
0220
0330
0100
0001
0001
,
1000
0010
0000
2002
3003
0001
0100
0100
,
0010
1000
0001
0001
1000
0001
1000
0010
,
1000
0100
1000
0100
0010
0001
0010
0001
,
0100
0001
1000
0001
0100
0010
1000
0100
,
0010
0100
1000
0001
0100
0001
0100
0010
,
1000
0001
0000
0110
0000
1000
0010
0000
,
0010
0100
0010
0100
0001
0000
0010
0100
,
1000
0010
0100
0010
0100
1000
0100
0000
,
0100
0010
0100
0001
0100
0010
1000
0010
,
0100
0010
1000
0001
1000
0010
0100
0000
,
0001
0010
0100
0010
0001
0000
1000
0001
,
0100
0001
1000
0010
0100
0010
1000
0000
,
0010
0100
0001
1000
0010
0100
0001
0100
,
0010
0100
0000
1010
0000
0001
0100
0000
,
0100
0010
0100
0010
1000
0000
0100
0010
,
0001
0100
0010
0100
0010
0001
0010
0000
,
0010
0100
0010
1000
0010
0100
0001
0100
,
0010
0100
0001
1000
0001
0100
0010
0000
,
1000
0100
0010
0100
1000
0000
0001
1000
,
0010
1000
0001
0100
0010
0100
0001
0000
,
0100
0010
1000
0001
1000
0010
1000
1000
,
0001
0001
0100
0100
0010
1000
0001
1000
,
0010
0100
0010
1000
0001
0100
0010
1000
,
0001
0010
0100
0100
0000
1000
0010
1000
,
0001
0100
0001
0010
0100
0010
0001
1000
,
0100
0010
0100
1000
0010
0100
0002
0000
,
1003
0002
0000
1003
0002
0000
0003
0000
;

//---------------dance-single - ----------------
#NOTEDATA:;
#CHARTNAME:;
#STEPSTYPE:dance-single;
#DESCRIPTION:;
#CHARTSTYLE:;
#DIFFICULTY:Easy;
#METER:5;
#RADARVALUES:0.623404,0.655258,0.200426,0.546617,0.000000,397.000000,22.000000,60.000000,0.000000,0.000000,0.000000,0.000000,0.000000,0.623404,0.655258,0.200426,0.546617,0.000000,397.000000,22.000000,60.000000,0.000000,0.000000,0.000000,0.000000,0.000000;
#CREDIT:;
#NOTES:
0000
0000
0000
0000
,
0001
1000
0000
0100
0000
0010
0000
0001
,
0000
0010
0000
0100
0000
1000
0010
0000
,
0000
0100
0010
0100
0000
0010
0000
1000
,
0000
0001
0000
2002
0000
0000
3003
0000
,
1000
0001
0000
0100
0000
0010
0000
0100
,
0000
0001
0000
1000
0000
0001
1000
0000
,
0000
0010
1000
0001
0000
0100
0000
0001
,
0000
1000
0000
0001
0200
0000
0000
0300
,
0100
0010
0000
0100
0000
0100
0000
0010
,
0000
0010
0000
1000
0001
1000
0000
0010
,
0100
0010
0000
0001
1000
0001
0000
0100
,
0000
0100
0000
0020
0000
0000
0130
0000
,
0001
1000
0001
0100
,
0010
1000
0001
0010
,
0001
1000
0010
1000
,
2002
3003
0000
0000
,
0102
0000
0000
2003
0000
0000
3020
0000
,
0000
0230
0000
0000
0301
0000
2002
0000
,
3003
0000
0000
0000
,
0000
0000
0000
0000
,
2001
0000
0000
3020
0000
0000
0230
0000
,
0000
0302
0000
0000
0013
0000
0220
0330
,
0100
0100
0100
0010
,
0010
0001
0001
1000
,
0102
0000
0000
0203
0000
0000
0320
0000
,
0000
2030
0000
0000
3200
0000
0320
0000
,
0032
0000
0000
0203
0000
0000
0320
0000
,
0000
2030
0000
0000
3001
0000
0000
0000
,
2010
0000
0000
3200
0000
0000
0320
0000
,
0000
0032
0000
0003
1001
0000
1001
0000
,
0100
0100
0100
0100
,
0010
0010
0010
0010
,
1000
1000
1000
1000
,
0001
0001
0001
0001
,
1000
0010
0100
1001
,
1000
0010
0000
0010
0100
0000
0100
0001
,
0000
1000
1000
1100
,
0100
0010
0000
0010
0001
0000
0001
0100
,
0000
0010
0010
1000
,
0010
1000
0000
1000
0001
0000
0001
1000
,
0000
0001
0001
0101
,
0100
0001
1000
0010
,
0100
0001
1000
0110
,
1000
0010
1000
0010
,
1000
0001
0100
0001
,
1000
0100
0010
0001
,
0010
0100
1000
0010
,
0100
0001
1000
0001
,
0100
0001
0010
0001
,
1000
0100
1000
0010
,
0100
0001
0100
1001
,
0001
1000
1000
0010
,
0010
0100
0100
0001
,
0010
0100
0010
0001
,
1000
0010
1000
0001
,
0100
0001
1000
0010
,
0100
0001
1000
0001
,
1000
0100
0010
0001
,
1000
0002
0000
2003
0000
3002
0000
2003
,
0000
3020
0000
0130
0000
0001
0000
1000
,
0000
0010
0000
0100
0000
0001
0000
0010
,
0000
0100
0000
1000
0000
0020
0000
0230
,
0000
0302
0000
2003
0000
3020
0000
0230
,
0000
0320
0000
2030
0000
0002
0000
0000
,
3003
0100
0000
0110
0000
0010
0000
0100
,
0010
0000
0000
1000
0000
0001
0000
0000
,
2000
0002
0000
3003
0000
1000
0000
0001
,
0000
1000
0000
0000
0000
0001
1000
0000
,
1000
0001
0000
0100
0000
0010
0000
1000
,
0100
0000
0000
0010
0000
0001
0000
0000
,
2000
0020
0000
3030
0000
0100
0000
0010
,
0000
0100
0000
0000
0000
0010
1000
0000
,
1000
0001
0000
0000
0000
1001
0000
0010
,
0000
0200
0000
0310
0000
0110
0000
0100
,
0000
0002
0000
0103
0000
0101
0000
0001
,
0000
2000
0000
3010
0000
1001
0000
0100
,
0000
0001
1000
0001
1000
0001
0000
0100
,
0000
0010
0000
1000
0000
0001
0000
0100
,
0000
0010
0000
1000
0000
0001
0000
0100
,
0000
0010
0000
0100
0000
0001
0000
1000
,
0010
1000
0000
0110
0000
1000
0000
0010
,
0000
1000
0000
0010
0000
1000
0000
0001
,
0000
0100
0000
0001
0000
1000
0000
0100
,
0000
0010
0000
0001
0000
0010
0000
0100
,
0000
1000
0000
0010
0000
0100
0000
0001
,
0000
1000
0000
0001
0000
0100
0000
0001
,
0000
0010
0000
0001
0000
1000
0000
0100
,
0000
1000
0000
0010
0000
0100
0000
0001
,
0000
0100
0000
1001
0000
0001
0000
1000
,
0000
1000
0000
0010
0000
0010
0000
0100
,
0000
0100
0000
0001
0000
0010
0000
0100
,
0000
0010
0000
0001
0000
1000
0000
0010
,
0000
1000
0000
0001
0000
0100
0000
0001
,
0000
1000
0000
0010
0000
0100
0000
0001
,
0000
1000
0000
0001
0000
1000
0000
0100
,
0000
0010
0000
0001
0000
0020
0000
0230
,
0000
2300
0000
3002
0000
1003
0001
0000
,
1000
0001
0000
0100
0010
0000
0010
1000
,
0000
0001
0000
0100
0000
0010
1000
0000
,
0001
0100
0000
0001
1000
0000
1000
0100
,
0000
0100
0000
0010
0000
0010
0002
0000
,
1003
0002
0000
1003
0002
0000
0003
0000
;

//---------------dance-single - ----------------
#NOTEDATA:;
#CHARTNAME:;
#STEPSTYPE:dance-single;
#DESCRIPTION:;
#CHARTSTYLE:;
#DIFFICULTY:Beginner;
#METER:3;
#RADARVALUES:0.329272,0.420725,0.109323,0.273309,0.000000,211.000000,12.000000,30.000000,0.000000,0.000000,0.000000,0.000000,0.000000,0.329272,0.420725,0.109323,0.273309,0.000000,211.000000,12.000000,30.000000,0.000000,0.000000,0.000000,0.000000,0.000000;
#CREDIT:;
#NOTES:
// measure 0
0000
0000
0000
0000
,  // measure 1
0000
0000
0000
0000
,  // measure 2
0000
0000
0000
0000
,  // measure 3
0000
0000
0000
0000
,  // measure 4
0000
0000
0000
0000
,  // measure 5
0000
0000
0000
0000
,  // measure 6
0000
0000
0000
0000
,  // measure 7
0000
0000
0000
0000
,  // measure 8
0000
0000
0000
0000
,  // measure 9
0000
0010
0000
0000
0000
1000
0000
0000
,  // measure 10
0000
0001
0000
0000
0000
0100
0000
0000
,  // measure 11
0000
0001
0000
0000
0000
1000
0000
0000
,  // measure 12
0000
0010
0000
0020
0000
0000
0030
0000
,  // measure 13
0001
0000
1000
0000
,  // measure 14
0010
0000
0100
0000
,  // measure 15
0001
0000
1000
0000
,  // measure 16
2002
3003
0000
0000
,  // measure 17
0001
0000
0000
1000
0000
0000
0010
0000
,  // measure 18
0000
0100
0000
0000
0010
0000
2002
0000
,  // measure 19
3003
0000
0000
0000
,  // measure 20
0000
0000
0000
0000
,  // measure 21
1000
0000
0000
0010
0000
0000
0100
0000
,  // measure 22
0000
0001
0000
0000
0100
0000
0220
0330
,  // measure 23
0000
0000
0000
0000
,  // measure 24
0000
0000
0000
0000
,  // measure 25
0001
0000
0000
0100
0000
0000
0010
0000
,  // measure 26
0000
1000
0000
0000
0001
0000
1000
0000
,  // measure 27
0001
0000
0000
0100
0000
0000
0010
0000
,  // measure 28
0000
1000
0000
0000
0001
0000
0000
0000
,  // measure 29
1000
0000
0000
0100
0000
0000
0010
0000
,  // measure 30
0000
0001
0000
0000
0100
0000
1001
0000
,  // measure 31
0200
0000
0000
0000
,  // measure 32
0320
0000
0000
0000
,  // measure 33
2030
0000
0000
0000
,  // measure 34
3002
0000
0000
0000
,  // measure 35
2003
0000
0000
0000
0000
3000
1001
0000
,  // measure 36
0100
0000
0000
0010
0000
0000
0100
0000
,  // measure 37
0000
0000
0001
1001
,  // measure 38
0100
0000
0000
0010
0000
0000
1000
0000
,  // measure 39
0000
0000
0001
1000
,  // measure 40
0010
0000
0000
1000
0000
0000
0001
0000
,  // measure 41
0000
0000
1000
1001
,  // measure 42
0100
0000
1000
0000
,  // measure 43
0100
0000
0020
0031
,  // measure 44
1000
0000
0001
0000
,  // measure 45
0100
0000
0010
0000
,  // measure 46
1000
0000
0100
0000
,  // measure 47
0010
0000
0001
0000
,  // measure 48
0100
0000
0010
0000
,  // measure 49
1000
0000
0001
0000
,  // measure 50
0100
0000
0010
0000
,  // measure 51
1000
0000
0010
1001
,  // measure 52
0001
0001
0001
0001
,  // measure 53
0100
0100
0100
0100
,  // measure 54
0010
0010
0010
0010
,  // measure 55
1000
1000
1000
1000
,  // measure 56
0001
0001
0001
0001
,  // measure 57
0010
0010
0010
0010
,  // measure 58
0100
0100
0100
0100
,  // measure 59
1000
0002
0000
0000
0000
0203
0000
0000
,  // measure 60
0000
0320
0000
0030
0000
0010
0000
0000
,  // measure 61
0000
1000
0000
0000
0000
0001
0000
0000
,  // measure 62
0000
0100
0000
0000
0000
0020
0000
0000
,  // measure 63
0000
2030
0000
0000
0000
3002
0000
0000
,  // measure 64
0000
2003
0000
0000
0000
0002
0000
0000
,  // measure 65
3003
0100
0000
0010
0000
0000
0000
0000
,  // measure 66
0010
0000
0000
1000
0000
0001
0000
1000
,  // measure 67
0000
0002
0000
0003
0000
1000
0000
0000
,  // measure 68
0000
0001
0000
0000
0000
1000
0000
0000
,  // measure 69
0000
0001
0000
0000
0000
0100
0000
0000
,  // measure 70
0000
0000
0000
0000
0000
0001
0000
1000
,  // measure 71
0000
0020
0000
0030
0000
0100
0000
0000
,  // measure 72
0000
0100
0000
0000
0000
0010
0000
0000
,  // measure 73
0000
0001
0000
0000
0000
1001
0000
0000
,  // measure 74
0000
0200
0000
0300
0000
0110
0000
0000
,  // measure 75
0000
0002
0000
0003
0000
0101
0000
0000
,  // measure 76
0000
2000
0000
3000
0000
1001
0000
0000
,  // measure 77
0000
0002
0000
1003
0000
0010
0000
0000
,  // measure 78
0000
0010
0000
0000
0000
0100
0000
0000
,  // measure 79
0000
0010
0000
0000
0000
0001
0000
0000
,  // measure 80
0000
1000
0000
0000
0000
0001
0000
0000
,  // measure 81
0000
0000
0000
0000
0000
1000
0000
0000
,  // measure 82
0000
1000
0000
0000
0000
1000
0000
0000
,  // measure 83
0000
0100
0000
0000
0000
1000
0000
0000
,  // measure 84
0000
0010
0000
0000
0000
0010
0000
0000
,  // measure 85
0000
1000
0000
0000
0000
0100
0000
0000
,  // measure 86
0000
1000
0000
0000
0000
0100
0000
0000
,  // measure 87
0000
0010
0000
0000
0000
1000
0000
0000
,  // measure 88
0000
1000
0000
0000
0000
0100
0000
0000
,  // measure 89
0000
0100
0000
0000
0000
0001
0000
0000
,  // measure 90
0000
1000
0000
0000
0000
0010
0000
0000
,  // measure 91
0000
0100
0000
0000
0000
0010
0000
0000
,  // measure 92
0000
0010
0000
0000
0000
1000
0000
0000
,  // measure 93
0000
1000
0000
0000
0000
0100
0000
0000
,  // measure 94
0000
1000
0000
0000
0000
0100
0000
0000
,  // measure 95
0000
1000
0000
0000
0000
1000
0000
0000
,  // measure 96
0000
0010
0000
0000
0000
0001
0000
1000
,  // measure 97
0000
0001
0000
0200
0000
0301
0000
0000
,  // measure 98
1000
0000
0000
0100
0000
0000
0000
0000
,  // measure 99
0000
0002
0000
1003
0000
0010
0000
0000
,  // measure 100
0100
0000
0000
0001
0000
0000
0000
0100
,  // measure 101
0000
0010
0000
1000
0000
0010
0000
0000
,  // measure 102
0010
0000
0000
0020
0000
0030
0000
0000
;
