#TITLE:Innocence;
#SUBTITLE:;
#ARTIST:ZERO+ZIBA;
#TITLETRANSLIT:;
#SUBTITLETRANSLIT:;
#ARTISTTRANSLIT:;
#GENRE:;
#CREDIT:;
#BANNER:;
#BACKGROUND:;
#LYRICSPATH:;
#CDTITLE:;
#MUSIC:Innocence.mp3;
#OFFSET:-0.040000;
#SAMPLESTART:78.219948;
#SAMPLELENGTH:12.000000;
#SELECTABLE:YES;
#BPMS:0.000000=180.000000
,331.000000=174.000000
,339.000000=168.000000
,343.000000=164.000000
,351.000000=160.000000
,355.000000=154.000000
,359.000000=147.000000
,361.000000=120.000000
;
#STOPS:
;
#BGCHANGES:;
#KEYSOUNDS:;
#ATTACKS:;

//---------------dance-single - ----------------
#NOTES:
     dance-single:
     :
     Easy:
     5:
     0.401389,0.452827,0.084677,0.407987,0.000000,301.000000,11.000000,53.000000,0.000000,0.000000,0.000000,0.401389,0.452827,0.084677,0.407987,0.000000,301.000000,11.000000,53.000000,0.000000,0.000000,0.000000:
0000
0000
0000
0001
,
0000
1000
0000
0001
,
0000
1000
0000
0010
,
0000
0100
0000
0001
,
0000
1000
0000
0001
,
0000
0100
0000
0001
,
0000
0010
0000
0100
,
0000
0010
0000
0001
,
0000
1000
0001
0000
,
0000
0000
0000
0000
,
0000
0000
0000
2000
,
0000
3002
0000
0103
,
0000
1001
0000
0020
,
0000
2030
0000
3002
,
0000
0203
0000
0000
0310
0000
0020
0000
,
0000
2030
0000
3002
,
0100
0103
0000
0020
,
0000
1030
1000
0002
,
0000
0203
0000
0000
0310
0000
1000
0000
,
2000
3001
0002
0103
,
0200
0310
0020
2030
,
0000
3002
0000
0103
,
0100
0010
0010
1000
,
2000
3001
0002
0013
,
0020
0130
0200
1300
,
2000
0000
3001
0000
0002
0000
0103
0100
,
0000
0010
0010
0000
0220
0330
0100
0000
,
0001
1000
0001
0010
,
0100
0000
1000
0001
0001
0000
0100
0000
,
0010
1000
0001
0100
,
0010
1000
0010
1000
,
0100
0010
0001
0100
,
0010
0000
1000
0001
0001
0000
0100
0000
,
0010
1000
0001
1000
,
0100
0000
0010
0000
0001
0000
0000
1000
,
0000
0000
1000
0000
1001
0000
0000
0001
,
0000
0000
0001
0000
0101
0000
0000
0100
,
0000
0000
0100
0000
0110
0000
0000
0001
,
0000
0000
1000
0000
0010
0010
0000
0001
,
0000
0000
0001
0000
1001
0000
0000
1000
,
0000
0000
1000
0000
1010
0000
0000
0010
,
0000
0000
0010
0000
0110
0000
0000
1000
,
0000
0000
0001
0000
0100
0100
0010
0000
,
0001
0001
1000
1000
,
0001
0001
0200
0310
,
1000
1000
0001
0001
,
1000
1000
0020
0130
,
0010
0010
0100
0100
,
0001
0001
2000
3002
,
0000
0000
2003
0000
0000
3000
0110
0000
,
0000
0100
1001
0010
,
0000
0010
0000
0100
,
0100
0200
0000
0301
,
0000
0001
0000
0100
,
1000
0001
0000
1000
,
0000
0001
0100
0000
0100
0000
0010
0000
,
0000
1000
0010
0000
0100
0000
0100
0000
,
0000
0001
1000
0000
0010
0000
0010
0000
,
0000
2000
3001
0100
,
0000
0010
0000
0000
1000
0000
0000
0001
,
0000
1000
0010
1000
,
0000
0001
0000
0000
0100
0000
0000
0010
,
0000
1000
1000
0020
,
0000
0230
0000
0000
0302
0000
1003
0000
,
1000
0001
0001
0200
,
0000
0302
0000
0000
1003
0000
2000
0000
,
0000
0000
3010
0100
,
0001
0000
1000
0000
0010
0100
0000
0100
,
0001
0100
0010
1000
,
0001
0010
0100
1000
,
0100
0010
0001
2000
,
3002
0203
0320
2030
,
3200
1300
0010
0100
,
0001
1000
0100
1000
,
0001
0010
0001
1000
,
1000
0000
0001
0000
0100
0010
0000
0010
,
1000
0010
0100
0001
,
1000
0100
0010
0001
,
0010
0100
1000
0002
,
2003
3020
0230
0302
,
0023
0031
0100
0010
,
1000
0001
0010
0001
,
1000
0100
1000
0020
,
0100
0130
0010
0010
,
1000
0001
0100
0010
,
1000
0100
0010
0002
,
0000
0000
0000
1003
,
0010
0100
0001
1000
,
0010
0100
1000
0100
,
0001
0010
0001
1000
,
0100
1000
1001
0000
;

//---------------dance-single - ----------------
#NOTES:
     dance-single:
     :
     Challenge:
     18:
     0.956736,1.000000,0.538851,0.292519,0.777485,762.000000,70.000000,38.000000,0.000000,0.000000,0.000000,0.956736,1.000000,0.538851,0.292519,0.777485,762.000000,70.000000,38.000000,0.000000,0.000000,0.000000:
0000
0000
0000
0000
0000
0000
1000
0001
,
0100
0001
1000
0000
0010
0000
0100
0000
,
0001
1000
0100
0000
0010
0000
0001
0000
,
1000
0010
0100
0001
,
1000
0100
0010
0001
,
1000
0010
0100
0001
,
0100
1000
0100
0001
,
0010
0100
0010
0001
,
0100
1000
0100
0000
,
0000
0000
0000
0000
,
0000
0000
0000
0010
,
1000
0001
0100
0010
,
1000
1010
0010
0000
0100
0000
0100
0000
,
0001
0000
1000
0000
1000
0000
0100
0010
,
0001
0000
0010
0000
0100
0000
1000
0000
0001
0010
0100
0010
0001
0000
0000
0000
,
1000
1000
0001
0001
,
0100
0010
0100
0000
0010
0000
0010
0000
,
1000
0001
0100
0001
1000
0100
0010
0000
,
0001
1000
0001
0000
0100
0000
0100
0001
,
1000
0001
0100
0001
0100
0001
1000
0100
,
1000
0100
0010
0001
0100
0010
1000
0001
,
1000
0000
0010
0000
0100
0000
0001
0000
0010
0000
0100
0000
1000
0000
0010
0100
,
0010
0000
0100
0000
0001
0000
1000
0001
1000
0000
0100
0000
1000
0100
0010
0001
,
0010
0100
1000
0100
1000
0001
0100
0010
0100
0001
1000
0100
1000
0010
0100
0001
,
0100
0001
0010
0100
0010
0001
1000
0010
1000
0001
0100
0001
0100
0010
1000
0100
,
0010
0100
1000
0001
0100
1000
0100
0001
0010
0100
1000
0100
0010
0000
0001
0000
,
0000
0001
0100
0000
2002
3003
0010
1000
,
0001
0010
0001
1000
0100
0010
1001
0000
,
0110
0010
0010
0100
0100
0000
0101
0010
,
1000
0010
0100
0001
0010
0001
0100
0100
,
0010
1000
1000
0001
0100
0000
0100
0001
,
1000
0100
1000
0001
0010
0100
1001
0000
,
0110
0100
0100
0010
0010
0000
1010
0100
,
0001
0100
0010
1000
0100
1000
0010
0010
,
0100
0001
0001
1000
0010
0010
0000
0110
,
0101
0110
1010
1100
0110
1001
0000
0101
,
1010
0110
0011
0110
1010
0101
0000
1100
,
1001
0101
0011
0110
1100
1001
0000
0010
,
1000
0001
0010
0100
1000
1000
0000
0110
,
1010
0110
0101
0011
0110
1001
0000
1010
,
0101
0110
1100
0110
0101
1010
0000
0011
,
1001
1010
1100
0110
0011
1001
0000
0001
,
1000
0010
0100
0001
0100
0100
0001
0000
,
1000
0010
0100
0001
0010
0000
0000
0000
0100
1000
0100
0010
0001
0000
0000
0000
,
1000
0001
0010
0100
1000
0000
0001
0000
2000
0100
0000
0000
3002
0000
0000
0000
,
1003
0010
1000
0010
0100
0000
0000
0000
0001
0010
0001
0010
0100
0000
0000
0000
,
1000
0001
0100
0001
0100
0000
0010
0000
2000
0001
0000
0000
3020
0000
0000
0000
,
1030
0001
0100
0001
1000
0000
0000
0000
0001
0100
0010
0100
0001
0000
0000
0000
,
1000
0100
0010
0100
1000
0000
0010
0000
2000
0001
0000
0000
3010
0000
1000
0010
,
1000
0000
0001
0000
0100
0010
0100
0000
0001
1000
0010
1000
0001
0000
0000
0000
,
1000
0010
0100
0010
0100
0000
0000
0000
1001
0000
0000
0000
0010
0000
0000
0000
,
0000
1000
0001
0000
0001
1000
0010
0000
,
0100
0010
0200
0000
0000
0000
0310
0000
,
0000
1000
0001
0000
0100
0000
0010
0000
,
1000
0001
0001
1000
,
1000
0010
0220
0300
0130
0000
0010
0000
,
0010
0100
0202
0003
0301
0000
0100
0000
,
0100
0000
0010
0000
2020
0000
3000
0000
1030
0000
0000
0000
0010
0000
1000
0001
,
1000
0000
0010
0000
0220
0000
0330
0000
1001
0000
0000
0000
0001
1000
0001
1000
,
0100
0000
1000
0001
1000
0001
0100
0000
0010
1000
0010
1000
0100
0000
0010
0001
,
0010
0001
0100
0000
0001
0010
1000
0001
0100
1000
0010
0100
0001
1000
0001
1000
,
0100
0000
1000
0001
1000
0001
0100
0000
0010
1000
0010
1000
0100
0000
0010
0001
,
0010
0001
1000
0000
0001
0100
1000
0100
0001
0010
0100
1000
0001
0100
0010
1000
,
0100
0000
0010
0001
0010
0100
1000
0000
0010
0100
0001
1000
0010
0100
0001
1000
,
0100
1000
0001
0010
0001
1000
0100
1000
0010
0100
0010
1000
0001
0010
0100
1000
,
0100
0000
0010
0001
0010
0001
1000
0000
0010
1000
0010
1000
0001
0010
0001
1000
,
0100
1000
0010
0100
0010
1000
0001
0100
0002
0000
0000
0000
0103
0010
1000
0010
,
1000
0100
0010
0001
1000
0001
0100
0010
0100
0001
0200
0000
0000
0000
0301
0010
,
0001
0100
1000
0100
0001
0010
0001
0100
1000
0100
0001
0010
0100
0010
0100
1000
,
0001
0100
0001
1000
0010
1000
0100
0010
0100
1000
0010
0100
1000
0100
0001
0010
,
0100
0010
0001
1000
0100
1000
0010
0100
0001
0100
0010
0000
0110
0000
0010
0000
,
1010
1000
1001
0001
0011
0010
0110
0100
,
1100
0000
1000
0000
0001
0100
0001
0010
0100
0010
0100
1000
0010
0100
0010
0100
,
0001
0010
0001
1000
0010
0001
0010
1000
0100
0010
0100
1000
0001
0010
0100
0010
,
0001
1000
0010
1000
0010
0100
0001
0100
0010
0000
0000
0000
1000
0100
0010
0001
,
0100
0010
0001
0010
0100
0001
1000
0100
1000
0100
0020
0000
0000
0000
0031
1000
,
0001
0100
0010
1000
0100
1000
0001
0010
0100
0010
0001
0100
0010
0001
0010
1000
,
0100
0010
0100
1000
0010
0001
0010
1000
0001
0100
1000
0100
0001
1000
0010
0001
,
0010
1000
0100
1000
0010
0001
0010
1000
0001
1000
0100
0000
1010
0000
0100
0000
,
0011
0100
1010
0100
0101
0010
1100
0010
,
0101
0000
0010
0000
1000
0001
1000
0010
0100
1000
0100
0001
0010
0001
0100
1000
,
0100
0010
0100
1000
0001
0010
1000
0100
0010
0001
1000
0100
1000
0100
0010
0001
,
0010
0100
1000
0100
0010
0001
1000
0010
1000
0001
0100
0010
1000
0000
0010
0000
,
0100
0001
0100
0000
0010
0000
0100
0000
,
0001
1000
0010
0000
0200
0000
0302
0000
,
2003
3020
0130
2001
,
0000
0000
0000
3002
,
0023
0230
2300
3200
,
0320
0032
0203
0320
,
2030
3002
0203
0320
,
2030
3010
0110
0000
;

//---------------dance-single - ----------------
#NOTES:
     dance-single:
     :
     Hard:
     14:
     0.818174,1.000000,0.323311,0.269426,0.469570,667.000000,42.000000,35.000000,0.000000,0.000000,0.000000,0.818174,1.000000,0.323311,0.269426,0.469570,667.000000,42.000000,35.000000,0.000000,0.000000,0.000000:
0000
0000
0000
0000
0000
0000
1000
0001
,
0100
0010
0100
0000
0001
0000
0010
0000
,
0100
1000
0100
0000
0010
0000
0001
0000
,
0100
0010
1000
0010
,
0100
0001
1000
0010
,
0100
0001
1000
0100
,
0010
0001
0100
1000
,
0100
0001
0010
1000
,
0010
0001
0100
0000
,
0000
0000
0000
0000
,
0000
0000
0000
0001
,
1000
0010
1000
0001
,
1000
1001
0001
0000
1000
0000
1000
0000
,
0010
0000
0100
0000
0100
0000
0001
1000
,
0001
0000
1000
0000
0010
0000
0100
0000
0001
1000
0001
1000
0001
0000
0000
0000
,
0100
0100
0010
0010
,
1000
0001
1000
0000
0010
0000
0010
0000
,
0100
0010
0100
0010
1000
0001
1000
0000
,
0010
1000
0010
0000
1000
0000
1000
0100
,
1000
0100
0001
0100
0001
0100
1000
0100
,
1000
0100
0010
0001
1000
0010
0100
0010
,
0100
0000
0001
0000
1000
0000
0100
0000
0010
0000
0100
0000
1000
0000
0001
0100
,
0001
0000
1000
0000
0010
0000
0100
0001
0100
0000
0010
0000
1000
0100
1000
0000
,
0010
0100
0010
0000
0100
0001
0100
0000
0010
1000
0010
0000
0100
0010
0100
0000
,
0010
1000
0010
0000
1000
0100
1000
0000
0100
0010
0100
0000
0010
0001
0010
0000
,
0100
1000
0100
0000
0010
0001
1000
0001
1000
0010
0100
0010
0100
0000
0010
0000
,
0000
0010
0100
0000
2002
3003
0010
1000
,
0010
1000
0001
0100
0010
1000
0110
0000
,
1001
0001
0001
1000
1000
0000
1010
0010
,
1000
0001
0100
0001
0010
0100
1000
1000
,
0100
0010
0010
0001
0100
0000
0100
0001
,
0100
0001
1000
0010
0100
0001
0110
0000
,
1001
1000
1000
0001
0001
0000
0101
0100
,
0001
1000
0010
1000
0100
0010
0001
0001
,
0010
0100
0100
1000
0010
0010
0000
0100
,
0100
0001
0001
1000
1010
1001
0000
0001
,
0001
0100
0100
0010
0110
0101
0000
0010
,
0010
1000
1000
0100
1100
0011
0000
0001
,
0010
0001
1000
0100
1000
1000
0000
0010
,
0010
1000
1000
0001
0101
1001
0000
1000
,
1000
0010
0010
0100
0110
1010
0000
0100
,
0100
0001
0001
0010
0011
1100
0000
1000
,
0100
1000
0001
0010
0100
1000
1000
0000
,
0001
0100
0001
0000
1000
0000
0000
0000
0010
1000
0010
0000
0100
0000
0000
0000
,
0001
0010
0001
0000
1000
0000
0010
0000
0210
0000
0000
0000
0302
0000
0000
0000
,
1003
0010
1000
0000
0001
0000
0000
0000
0100
0010
0100
0000
0010
0000
0000
0000
,
1000
0100
1000
0000
0001
0000
0010
0000
0012
0000
0000
0000
2003
0000
0000
0000
,
3001
0100
0001
0000
1000
0000
0000
0000
0010
0100
0010
0000
1000
0000
0000
0000
,
0001
0100
0001
0000
0010
0000
0100
0000
2100
0000
0000
0000
3001
0000
0010
0000
,
0010
0000
0001
0000
0100
0000
0100
0000
0001
1000
0001
1000
0001
0000
0000
0000
,
0100
0010
0100
0010
0100
0000
0000
0000
1001
0000
0000
0000
0010
0000
0000
0000
,
0000
1000
0001
0000
0001
1000
0010
0000
,
0100
0010
0200
0000
0000
0000
0310
0000
,
0000
1000
0001
0000
0100
0000
0010
0000
,
1000
0001
0001
1000
,
1000
0010
0110
0000
0100
0000
0010
0000
,
0010
0100
0101
0000
0001
0000
0100
0000
,
0100
0000
0010
0000
1010
0000
0000
0000
1000
0000
0000
0000
0010
0000
1000
0001
,
1000
0000
0010
0000
0100
0000
0000
0000
1001
0000
0000
0000
0001
0010
0001
0000
,
1000
0000
0010
0100
0010
0000
1000
0000
0001
0010
0001
0000
1000
0000
0010
0100
,
0010
0000
1000
0000
0001
0010
0001
0010
0001
0010
0001
0010
0100
1000
0100
0000
,
0001
0000
0100
0010
0100
0000
0001
0000
0100
1000
0100
0000
0001
0000
0100
0010
,
0100
0000
0001
0000
0100
1000
0100
1000
0100
1000
0100
1000
0001
0100
0001
0000
,
0100
0000
0010
1000
0010
0000
0100
0000
0001
0100
0001
0000
0100
0001
0000
0100
,
0001
0000
1000
0010
0000
1000
0010
0000
0100
0001
0000
0100
0001
1000
0001
0000
,
0100
0000
0001
0010
0001
0000
0100
0000
0001
1000
0001
0000
0100
0010
0100
0001
,
0100
0010
0100
0001
0100
0010
0100
0001
1000
0000
0000
0000
0001
1000
0001
0000
,
1000
0010
1000
0000
0001
0100
0001
0000
0100
0000
0020
0000
0000
0000
1030
0001
,
1000
0001
0100
0000
0010
1000
0010
0000
0100
0001
0100
0000
0001
1000
0001
0000
,
1000
0100
1000
0000
0100
0010
0100
0000
0010
0001
0010
0000
0001
1000
0100
0000
,
1000
0001
0100
0000
0010
0100
0001
1000
0001
0100
0010
0000
0220
0000
0330
0000
,
2020
3030
2002
3003
0022
0033
0220
0330
,
2002
0000
3003
0000
0001
0100
0010
0100
0001
0000
1000
0000
0010
1000
0010
1000
,
0001
0000
0100
0000
0001
1000
0001
0000
0100
0010
0100
0000
0010
1000
0010
0000
,
1000
0001
1000
0001
0100
0010
0100
0010
1000
0000
0000
0000
1000
0001
1000
0000
,
0001
0100
0001
0000
1000
0010
1000
0000
0010
0000
0200
0000
0000
0000
0301
1000
,
0001
1000
0010
0000
0100
0001
0100
0000
0010
1000
0010
0000
1000
0001
1000
0000
,
0001
0010
0001
0000
0010
0100
0010
0000
0100
1000
0100
0000
1000
0001
0010
0000
,
0001
1000
0010
0000
0100
0010
1000
0001
1000
0010
0100
0000
0220
0000
0330
0000
,
0202
0303
2002
3003
2200
3300
0220
0330
,
2002
0000
3003
0000
1000
0010
0100
0010
1000
0000
0001
0000
0100
0001
0100
0001
,
1000
0000
0010
0000
1000
0001
1000
0000
0010
0100
0010
0000
0100
0001
0100
0000
,
0001
1000
0001
1000
0010
0100
0001
0100
0010
0100
0001
0100
0010
0000
1000
0000
,
0010
0100
0010
0000
0100
0000
0100
0000
,
0001
1000
0001
0000
0100
0000
0001
0000
,
0100
0010
1000
1020
,
0000
0000
0000
1030
,
0001
0100
0010
1000
,
0100
0010
0001
0010
,
1000
0100
0001
0010
,
1000
0001
1001
0000
;

//---------------dance-single - ----------------
#NOTES:
     dance-single:
     :
     Medium:
     11:
     0.561945,0.557326,0.200145,0.323311,0.000000,443.000000,26.000000,42.000000,0.000000,0.000000,0.000000,0.561945,0.557326,0.200145,0.323311,0.000000,443.000000,26.000000,42.000000,0.000000,0.000000,0.000000:
0000
0000
0000
1000
,
0001
1000
0001
0001
,
1000
1000
0010
0010
,
0100
0100
0001
0001
,
1000
1000
0001
0001
,
0100
0100
0010
0010
,
1000
1000
0001
0001
,
0010
0010
0100
0100
,
1000
1000
0001
0000
,
0000
0000
0000
0000
,
0000
0000
0000
0002
,
0000
2003
0000
3010
,
0100
1001
0010
0020
,
0000
2030
0000
3002
,
0000
0203
0000
0000
0310
0000
0010
0000
,
1000
0001
1000
0001
,
0100
0010
0100
0010
,
1000
0100
0010
0001
,
0010
0100
2000
3010
,
0002
0103
2000
3010
,
0002
0000
0013
0000
0200
0000
1300
0001
,
1000
0000
0010
0100
0010
0000
1000
0001
,
0100
0000
0010
1000
0001
0000
1000
0010
,
1000
0000
0001
0100
0001
0000
1000
0100
,
1000
0000
0001
1000
0100
0000
1000
0001
,
0100
0001
0100
0001
0100
0010
1000
0010
,
0000
0100
0010
0000
2002
3003
0010
0000
,
1000
0001
1000
0010
,
0100
0100
0100
0001
0001
0000
1000
0000
,
0010
0000
0100
0000
0010
0000
1000
0001
,
0100
0001
1000
0010
0100
0000
0001
0000
,
0010
0001
1000
0100
,
1000
1000
1000
0001
0001
0000
1000
0000
,
0100
0000
1000
0000
0010
0000
0100
0010
,
0100
0001
1000
0010
0100
0001
0000
1000
,
1000
1000
1000
1000
1000
1001
0000
0001
,
0001
0001
0001
0001
0001
0101
0000
0100
,
0100
0100
0100
0100
0100
0110
0000
0001
,
1000
0001
1000
0010
0100
0100
0000
0001
,
0001
0001
0001
0001
0001
1001
0000
1000
,
1000
1000
1000
1000
1000
1010
0000
0010
,
0010
0010
0010
0010
0010
0110
0000
1000
,
0001
1000
0001
0100
0010
1000
1000
0000
,
0001
0101
1000
1100
,
0001
0101
2000
3001
,
1000
1010
0001
0011
,
1000
1010
0002
0103
,
0010
0110
0100
1001
,
0010
0110
0200
0302
,
0003
1000
2000
0000
3010
0000
0110
0000
,
0100
0010
0100
0000
1001
0000
0010
0000
,
0000
0100
0010
0000
1000
0000
0001
0000
,
0100
0200
0000
0301
,
0000
1000
0001
0000
1000
0000
0100
0000
,
1000
0001
0001
0100
,
0100
0010
0200
0000
0310
0000
1000
0000
,
1000
0010
2000
0000
3100
0000
0010
0000
,
0010
0001
0020
0000
0031
0000
1000
0001
,
1000
0001
0100
0000
1001
0000
0001
1000
,
0000
0001
0100
0000
0001
1000
0000
0001
,
0100
0000
0010
0000
0010
0000
1000
0001
,
0000
0100
0010
0000
1000
0001
0000
0100
,
0010
0100
0100
0002
,
0000
2003
0000
0000
3020
0000
0130
0000
,
0100
0010
0010
0101
,
0000
1010
0000
0000
1001
0000
0220
0000
,
0000
0000
0000
0030
0310
0000
0001
0100
,
0001
1000
0001
1000
0100
0020
0000
0031
,
1000
0001
0100
0010
1000
0100
1000
0001
,
0010
0001
1000
0010
0100
0001
0010
0100
,
1000
0001
0010
0001
1000
0010
0200
0000
,
0320
2030
3002
0023
,
0230
0000
1300
0001
0010
0000
0100
1000
,
0010
0000
0100
0001
0100
0000
0010
1000
,
0001
1000
0010
0100
0010
0000
1000
0010
,
1000
0001
1000
0001
0010
0200
0000
1300
,
0001
1000
0010
0100
0001
0010
0001
1000
,
0100
1000
0001
0100
0010
1000
0100
0010
,
0001
1000
0100
1000
0001
0100
0020
0000
,
0230
0302
2003
3200
,
0320
0000
0031
1000
0100
0000
0010
0001
,
0100
0000
0010
1000
0010
0000
0100
0001
,
1000
0001
0100
0010
0100
0001
1000
0001
,
0010
0100
1000
0000
0100
0000
0100
0000
,
0010
0001
0010
0000
0100
0000
1000
0000
,
0001
0100
0010
1002
,
0000
0000
0000
0103
,
0010
1000
0001
0010
,
0100
1000
0100
0010
,
0001
0100
0010
1000
,
0010
0100
1001
0000
;

//---------------dance-single - ----------------
#NOTES:
     dance-single:
     :
     Beginner:
     3:
     0.251830,0.313496,0.023094,0.215540,0.000000,198.000000,3.000000,28.000000,0.000000,0.000000,0.000000,0.251830,0.313496,0.023094,0.215540,0.000000,198.000000,3.000000,28.000000,0.000000,0.000000,0.000000:
// measure 0
0000
0000
0000
1000
,  // measure 1
0000
0001
0000
1000
,  // measure 2
0000
0001
0000
0100
,  // measure 3
0000
0010
0000
1000
,  // measure 4
0000
0001
0000
1000
,  // measure 5
0000
0010
0000
1000
,  // measure 6
0000
0100
0000
0010
,  // measure 7
0000
0100
0000
1000
,  // measure 8
0000
0001
1000
0000
,  // measure 9
0000
0000
0000
0000
,  // measure 10
0000
0000
0000
0002
,  // measure 11
0000
2003
0000
3010
,  // measure 12
0000
1001
0000
0200
,  // measure 13
0000
0302
0000
2003
,  // measure 14
0000
3020
0000
0000
0130
0000
0200
0000
,  // measure 15
0000
0302
0000
2003
,  // measure 16
0000
3010
0000
0200
,  // measure 17
0000
0301
0000
2000
,  // measure 18
0000
3020
0000
0000
0130
0000
0001
0000
,  // measure 19
0000
1000
0000
0010
,  // measure 20
0000
0100
0000
0001
,  // measure 21
0000
1000
0000
0010
,  // measure 22
0000
0100
0000
0001
,  // measure 23
0000
1000
0000
0100
,  // measure 24
0000
0010
0000
0001
,  // measure 25
0000
1000
0000
0020
,  // measure 26
0000
0130
0110
0010
,  // measure 27
0000
0010
0000
0100
,  // measure 28
0000
0001
1000
0100
,  // measure 29
0000
0001
0000
0010
,  // measure 30
0000
0001
0000
0001
,  // measure 31
0000
0100
0000
0010
,  // measure 32
0000
0001
1000
0010
,  // measure 33
0000
0100
0000
0001
,  // measure 34
0000
0000
0100
0000
0000
0000
0000
0001
,  // measure 35
0000
0000
0001
0000
1000
0000
0000
1000
,  // measure 36
0000
0000
1000
0000
0010
0000
0000
0010
,  // measure 37
0000
0000
0010
0000
0100
0000
0000
1000
,  // measure 38
0000
0000
0001
0000
0000
0000
0000
1000
,  // measure 39
0000
0000
1000
0000
0001
0000
0000
0001
,  // measure 40
0000
0000
0001
0000
0100
0000
0000
0100
,  // measure 41
0000
0000
0100
0000
0010
0000
0000
0001
,  // measure 42
0000
1000
0010
0100
,  // measure 43
0000
1000
0000
0001
,  // measure 44
0000
1000
0000
0100
,  // measure 45
0000
0001
0000
1000
,  // measure 46
0000
0001
0000
0010
,  // measure 47
0000
0100
0000
0010
,  // measure 48
0000
1000
0000
0001
,  // measure 49
0000
0020
0000
0130
,  // measure 50
0000
0010
1001
0100
,  // measure 51
0000
0100
0000
0010
,  // measure 52
0000
0020
0000
1030
,  // measure 53
0000
1000
0000
0010
,  // measure 54
0000
1000
0000
0001
,  // measure 55
0000
1000
1000
1000
,  // measure 56
0000
0010
0010
0010
,  // measure 57
0000
0100
0100
0100
,  // measure 58
0000
0020
0030
0010
,  // measure 59
0000
0100
0000
0000
0001
0000
0000
1000
,  // measure 60
0000
0001
0000
0001
,  // measure 61
0000
1000
0000
0000
0010
0000
0000
0100
,  // measure 62
0000
0001
0000
0100
,  // measure 63
0000
0010
0000
0000
1000
0000
0001
0000
,  // measure 64
0000
1000
0000
0010
,  // measure 65
0000
1000
0000
0000
0001
0000
0002
0000
,  // measure 66
0000
0000
0103
0010
,  // measure 67
0000
0001
0200
0000
,  // measure 68
0310
0000
0100
0000
,  // measure 69
1000
0000
0010
0000
,  // measure 70
0010
0000
1000
0002
,  // measure 71
0000
2003
0000
3020
,  // measure 72
0000
0130
0000
0010
,  // measure 73
0000
0001
0000
0001
,  // measure 74
0000
0100
0000
0100
,  // measure 75
0000
1000
0020
0000
,  // measure 76
0130
0000
0010
0000
,  // measure 77
0001
0000
0100
0000
,  // measure 78
0100
0000
0001
2000
,  // measure 79
0000
3002
0000
0203
,  // measure 80
0000
0310
0000
0100
,  // measure 81
0000
0001
0000
1000
,  // measure 82
0000
0010
0000
0200
,  // measure 83
0000
0310
0000
0001
,  // measure 84
0000
1000
0000
0010
,  // measure 85
0000
0100
0000
0020
,  // measure 86
0000
0000
0000
0130
,  // measure 87
0000
0010
0000
1000
,  // measure 88
0000
0001
0000
0100
,  // measure 89
0000
0010
0000
0100
,  // measure 90
0000
0002
0003
0000
;
