#TITLE:I/O;
#SUBTITLE:;
#ARTIST:Ryu☆;
#TITLETRANSLIT:;
#SUBTITLETRANSLIT:;
#ARTISTTRANSLIT:;
#CREDIT:;
#BANNER:IO.png;
#BACKGROUND:IO-bg.png;
#LYRICSPATH:;
#CDTITLE:./CDTitles/DanceDanceRevolution X3.png;
#MUSIC:IO.mp3;
#OFFSET:0.960;
#SAMPLESTART:73.700;
#SAMPLELENGTH:14.000;
#SELECTABLE:YES;
#BPMS:0.000=151.000;
#STOPS:;
#BGCHANGES:;

//---------------dance-single - ----------------
#NOTES:
     dance-single:
     :
     Beginner:
     2:
     0.123,0.151,0.019,0.000,0.000:
0000
0000
0000
0000
,
0000
0000
0000
0000
,
0000
0000
0000
0000
,
0001
0000
0000
0000
,
1000
0000
0000
0000
,
0001
0000
0000
0000
,
1000
0000
0000
0000
,
1000
0000
0000
0000
,
0001
0000
0000
0000
,
1000
0000
0000
0000
,
0001
0000
0000
0000
,
0010
0000
0000
0000
,
0100
0000
0000
0000
,
0010
0000
0000
0000
,
0100
0000
0000
0000
,
0001
0000
0001
0000
,
0001
0000
0000
0000
,
1000
0000
1000
0000
,
1000
0000
0000
0000
,
1001
0000
0000
0000
,
0000
0000
0000
0000
,
0001
0000
0001
0000
,
0001
0000
0000
0000
,
1000
0000
1000
0000
,
1000
0000
0000
0000
,
0001
0000
0001
0000
,
0100
0000
0000
0000
,
1000
0000
1000
0000
,
0100
0000
0000
0000
,
0010
0000
0010
0000
,
0010
0000
0000
0000
,
0010
0000
0010
0000
,
0010
0000
0000
0000
,
0100
0000
0100
0000
,
0100
0000
0000
0000
,
0100
0000
0100
0000
,
0100
0000
0000
0000
,
0001
0000
0000
0000
,
0001
0001
0001
0000
,
1000
0000
0000
0000
,
1000
1000
1000
0000
,
0001
0000
0000
0000
,
0001
0001
0001
0000
,
0100
0000
0000
0000
,
0100
0100
0100
0000
,
0000
0000
0000
0000
,
0000
0000
0000
0000
,
0001
0000
0001
0000
,
1000
0000
1000
0000
,
0001
0000
0001
0000
,
0100
0000
0000
0000
,
1000
0000
1000
0000
,
0001
0000
0001
0000
,
1000
0000
1000
0000
,
0010
0000
0000
0000
,
1000
0000
1000
0000
,
0100
0000
0100
0000
,
0001
0000
0001
0000
,
0100
0000
0000
0000
,
0010
0000
0010
0000
,
1000
0000
1000
0000
,
0001
0000
0001
0000
,
0010
0000
0000
0000
,
1001
0000
0000
0000
;

//---------------dance-single - ----------------
#NOTES:
     dance-single:
     :
     Easy:
     4:
     0.211,0.242,0.010,0.077,0.000:
0000
0000
0000
0000
,
0000
0000
0000
0000
,
0000
0000
0000
0000
,
0100
0000
0000
0010
,
0100
0001
0000
0000
,
0100
0000
0000
0010
,
0100
0001
0001
0000
,
0100
0000
0000
0010
,
0100
0100
0000
0000
,
0100
0000
0000
0010
,
0100
0001
0000
0000
,
2000
0000
0000
3000
,
0002
0000
0000
0003
,
0020
0000
0000
0030
,
0200
0000
0000
0300
,
1000
1000
1000
0000
,
0001
0001
0001
0000
,
0010
0010
0010
0010
,
0100
0100
0100
0100
,
0000
0000
0000
0000
,
0000
0000
0000
0000
,
1000
1000
0001
0000
,
0010
0010
0100
0000
,
1000
0010
0100
0000
,
0001
0001
0001
0000
,
1000
0100
0000
0001
,
0100
0010
0000
0000
,
0100
0100
0010
1000
,
0002
0000
0000
0003
,
0100
0100
0000
0010
,
0100
0001
0000
0000
,
0100
0100
0000
0010
,
0100
0001
0001
0000
,
0100
0100
0000
0010
,
0200
0300
0000
0001
,
0100
0000
0010
0000
,
1000
0001
1000
0000
,
0002
0000
0000
0003
,
0100
0100
0100
0000
,
2000
0000
0000
3000
,
0010
0010
0010
0000
,
1000
0000
0100
0000
,
0010
0001
0010
0000
,
0001
0000
0100
0000
,
0010
1000
0010
0000
,
0000
0000
0000
0000
,
0000
0000
0000
0000
,
0001
0000
0010
0000
,
0100
1000
0010
0000
,
0100
0000
1000
0000
,
0010
0001
0100
0000
,
0010
0000
0100
0000
,
0001
0010
0001
0000
,
0010
0000
0100
0000
,
1000
0001
1000
0000
,
0010
0001
0100
0001
,
0010
0010
0010
0000
,
0001
1000
0010
1000
,
0001
0001
0001
0000
,
0100
0010
1000
0010
,
0100
0100
0100
0000
,
1000
0100
0001
0100
,
1000
1000
1000
0000
,
1001
0000
0000
0000
;

//---------------dance-single - ----------------
#NOTES:
     dance-single:
     :
     Medium:
     7:
     0.383,0.363,0.173,0.182,0.000:
0000
0000
0000
0000
,
0000
0000
0000
0000
,
0000
0000
0000
0000
,
0100
0100
0100
0001
,
0100
0010
0100
0000
,
1000
0000
1000
0000
1000
0000
0010
1000
,
0010
0100
1010
0000
,
0001
0001
0001
0010
,
0002
1003
1001
0010
,
0010
0100
0000
0100
0000
0100
0010
0000
,
0001
0000
1000
0000
0100
0010
0100
0000
,
0002
0100
1000
0003
,
0200
0001
0010
0300
,
0020
0100
1000
0030
,
2000
0100
0001
3010
,
1000
0010
0001
0100
,
1000
0010
0100
0001
,
1000
0100
1000
0000
0001
0100
0001
0000
,
1000
0100
0010
0001
0200
0000
0000
0000
,
0310
1000
0001
0000
,
1000
0100
0001
1001
,
1000
0000
0100
0000
1000
0100
0010
0000
,
1000
0100
1000
0010
,
0001
0000
0100
0000
0001
0100
0010
0000
,
0001
0100
0001
0010
,
1000
0000
0010
0000
1000
0010
0100
0000
,
0001
0010
0001
0100
,
1000
0000
0001
0000
1000
0001
1000
0000
,
0200
0001
0010
1300
,
0100
0100
0100
1000
,
0100
0010
0100
0000
,
0001
0000
0001
0000
0001
0000
0010
0001
,
0010
0100
0011
0000
,
1000
1000
1000
0010
,
2000
3001
1001
0010
,
0010
0100
0000
0100
0000
0100
0010
0000
,
1000
0001
1000
0001
1000
0000
0010
0000
,
2000
0000
0001
3100
,
1000
1100
1100
0000
,
0002
0000
1000
0103
,
0001
0101
0101
0000
,
0020
0100
0001
1030
,
0100
1100
1001
0010
,
0200
0001
1000
0310
,
0001
0011
2002
0000
,
3003
0000
0000
0000
,
0000
0000
0000
0000
,
0001
0000
0010
0000
0001
0010
0100
0000
,
1000
0010
0001
0100
,
1000
0000
0010
0000
1000
0010
0100
0000
,
0001
0010
1001
0000
,
0001
0000
0100
0000
0001
0100
0010
0000
,
0001
0100
1000
0010
,
0001
0000
1000
0000
0001
1000
0001
0000
,
1000
0001
1000
0000
1001
0000
0000
0000
,
0001
0100
0001
0000
0100
0000
1000
0000
,
2000
3010
0002
0103
,
0010
1000
0010
0000
1000
0000
0100
0000
,
0200
0301
0020
1030
,
0001
0010
0001
0000
0010
0000
1000
0000
,
1000
0100
1000
0000
0100
0000
0001
0000
,
0010
1001
0010
1001
,
1000
0100
0010
0001
0200
0000
0300
0000
,
1001
0000
0000
0000
;

//---------------dance-single - ----------------
#NOTES:
     dance-single:
     :
     Hard:
     11:
     0.565,0.574,0.259,0.173,0.226:
0000
0000
0000
0000
,
0000
0000
0000
0000
,
0000
0000
0000
0000
,
0010
0000
0010
0000
0010
0000
1000
0001
,
0010
0010
0010
1001
,
0010
0000
0000
0000
0010
0000
0000
0000
0010
0000
0000
0000
1000
0000
0001
1000
,
0001
0000
0010
0000
0000
0000
0010
0001
0010
0000
0000
0010
0000
0000
0100
0000
,
0010
0000
0010
0000
0010
0000
0001
1000
,
0200
0000
0000
0000
0310
0000
0000
0000
0010
0000
0000
0000
0001
1000
0001
0000
,
0010
0010
0000
0010
0000
0010
0100
0010
,
0100
1100
0101
1001
,
0010
0000
1000
0000
0000
0001
0000
0000
0010
0000
0000
0100
0000
0000
1000
0000
,
0000
0000
0100
0000
0000
0010
0000
0000
0001
0000
0000
0100
0000
0000
0010
0000
,
0000
0000
1000
0000
0000
0100
0000
0000
0010
0000
0000
0001
0000
0000
0010
0000
,
0000
0000
0001
0000
0000
1000
0000
0000
0100
0000
1000
0000
0001
0000
0010
0000
,
0100
0000
1000
0000
0000
0010
0000
0000
0100
0000
0000
0001
0000
0000
0100
0000
,
0000
0000
0001
0000
0000
0100
0000
0000
0010
0000
0000
1000
0000
0000
0010
0000
,
0000
0000
1000
0000
0000
0010
0000
0000
0100
0000
0000
0001
0000
0000
1000
0000
,
0010
1000
0100
0010
0001
0100
0010
1000
,
0010
0010
0010
0010
,
1000
0100
0010
0001
0010
0100
1001
0000
,
1100
0000
1100
0000
0010
0001
0100
0000
,
0101
0000
0101
0000
0010
1000
0100
0000
,
0011
0000
0011
0000
0100
0001
1000
0000
,
1010
0000
1010
0000
1000
0100
0010
0001
,
0100
0000
1001
0000
1000
0001
0010
0000
,
0011
0000
1001
0000
0001
0100
0010
0000
,
1000
0100
0001
0100
1000
0100
0010
0001
,
0000
0000
0020
0000
0000
0032
0000
0000
2003
0000
0000
3020
0000
0000
0100
0000
,
0130
0000
0100
0000
0100
0000
0001
1000
,
0100
0100
0100
1001
,
0100
0000
0000
0000
0100
0000
0000
0000
0100
0000
0000
0000
0001
0000
1000
0001
,
1000
0000
0100
0000
0000
0000
0100
1000
0100
0000
0000
0100
0000
0000
0010
0000
,
0100
0000
0100
0000
0100
0000
1000
0001
,
0020
0000
0000
0000
0130
0000
0000
0000
0100
0000
0000
0000
1000
0001
1000
0000
,
0100
0100
0000
0100
0000
0100
0010
0100
,
1000
0010
0001
0100
1000
0010
1001
0000
,
2000
0000
0100
3100
0010
0001
0100
0010
,
1000
0000
0001
0000
1002
0000
0010
0013
,
0200
0000
1000
1300
0010
0000
0100
0000
,
0011
1010
2002
3003
,
0010
0001
1000
0100
0010
0001
0100
0100
,
0010
1000
0001
0100
0010
1000
0100
0100
,
0010
0001
0010
0100
1000
0100
0001
0100
,
1000
0100
0010
0001
2002
0000
0000
0000
,
3003
0000
0000
0000
,
0000
0000
0000
0000
,
1000
0000
0100
0000
0010
0000
0001
0000
1000
0000
0001
0100
0000
0001
0100
0000
,
0010
1000
0100
1000
0020
0000
1000
0000
,
0130
0000
0001
0000
0010
0000
0100
0000
1000
0000
0010
1000
0000
0010
1000
0000
,
0001
0010
0100
1000
0200
0000
0010
0000
,
1300
0000
0001
0000
1000
0000
0010
0000
0100
0000
0001
0100
0000
0001
0100
0000
,
0010
1000
0100
0010
0002
0000
0100
0000
,
1003
0000
0100
0000
1000
0000
0010
0000
0100
0000
0001
1000
0000
0001
1000
0000
,
0010
0000
0100
0010
0000
0100
0010
0000
1000
0000
0000
0000
1001
0000
0000
0000
,
0100
0000
0010
0000
1000
0000
0001
0000
0100
0000
0010
1000
0000
0010
1000
0000
,
0100
0000
0010
0000
0001
0000
0100
0000
0001
0000
0010
0001
0000
0001
0010
0000
,
0001
0000
0100
0000
0010
0000
1000
0000
0010
0000
1000
0001
0000
1000
0001
0000
,
0100
0100
0010
1000
0001
0000
1001
0000
,
0010
0000
1000
0000
0010
0000
0100
0000
0001
0000
0010
0001
0000
1000
0001
0000
,
0100
0000
0010
0000
0100
0000
0001
0000
1000
0000
0010
0100
0000
0100
0001
0000
,
1000
0000
0100
0000
0010
0000
0001
0000
0010
0000
0100
1000
0000
0001
0100
0000
,
0010
0000
1000
0001
0000
0100
0010
0000
0220
0000
0000
0000
0330
0000
0000
0000
,
1001
0000
0000
0000
;

//---------------dance-double - ----------------
#NOTES:
     dance-double:
     :
     Easy:
     4:
     0.195,0.242,0.010,0.067,0.000:
00000000
00000000
00000000
00000000
,
00000000
00000000
00000000
00000000
,
00000000
00000000
00000000
00000000
,
00010000
00000000
00001000
00000000
,
00010000
00000000
00000000
00000000
,
01000000
00000000
00100000
00000000
,
01000000
00000000
00000000
00000000
,
00010000
00000000
00001000
00000000
,
00010000
00000000
00000000
00000000
,
00000100
00000000
00000010
00000000
,
00000100
00000000
00000000
00000000
,
00000020
00000000
00000000
00000030
,
00002000
00000000
00000000
00003000
,
00020000
00000000
00000000
00030000
,
02000000
00000000
00000000
03000000
,
10000000
10000000
10000000
00000000
,
00100000
00100000
00100000
00000000
,
00010000
00010000
00001000
00001000
,
00010000
00001000
00010000
00001000
,
00000000
00000000
00000000
00000000
,
00000000
00000000
00000000
00000000
,
00001000
00000010
00001000
00000000
,
00000001
00000001
00000100
00000000
,
00000010
00001000
00000100
00000000
,
00001000
00001000
00000000
00000000
,
00100000
00010000
01000000
00000000
,
10000000
10000000
01000000
00000000
,
00010000
00010000
01000000
00000000
,
00020000
00000000
00000000
00030000
,
00001000
00000000
00010000
00000000
,
00001000
00000000
00000000
00000000
,
00000100
00000000
00000010
00000000
,
00000100
00000100
00000100
00000000
,
00001000
00000000
00010000
00000000
,
00001000
00000000
00000000
00000000
,
01000000
00000000
00100000
00000000
,
01000000
01000000
01000000
00000000
,
00020000
00000000
00000000
00030000
,
10000000
10000000
10000000
00000000
,
02000000
00000000
00000000
03000000
,
00100000
00100000
00100000
00000000
,
00001000
00000000
00010000
00000000
,
00001000
00010000
00001000
00000000
,
00000010
00000000
00000100
00000000
,
00000010
00000100
00000010
00000000
,
00000000
00000000
00000000
00000000
,
00000000
00000000
00000000
00000000
,
00000001
00000000
00001000
00000000
,
00000010
00001000
00000100
00000000
,
00010000
00000000
00001000
00000000
,
00010000
00001000
00010000
00000000
,
00100000
00000000
01000000
00000000
,
10000000
00100000
10000000
00000000
,
00010000
00000000
10000000
00000000
,
00010000
00100000
00100000
00000000
,
00001000
00100000
00001000
00010000
,
00001000
00001000
00001000
00000000
,
00010000
00001000
00010000
00000100
,
00001000
00001000
00001000
00000000
,
00000010
00001000
00000001
00000100
,
00000010
00000010
00000010
00000000
,
00001000
00000100
00010000
00001000
,
00010000
00010000
00010000
00000000
,
00011000
00000000
00000000
00000000
;

//---------------dance-double - ----------------
#NOTES:
     dance-double:
     :
     Medium:
     7:
     0.389,0.393,0.154,0.134,0.000:
00000000
00000000
00000000
00000000
,
00000000
00000000
00000000
00000000
,
00000000
00000000
00000000
00000000
,
00000100
00000100
00000100
00001000
,
00000100
00010000
00001000
00000000
,
00100000
00000000
00100000
00000000
00100000
00000000
00010000
00100000
,
00001000
00010000
00011000
00000000
,
00000010
00000010
00000010
00001000
,
00000200
00010300
00011000
00001000
,
00100000
01000000
00000000
01000000
00000000
01000000
00100000
00000000
,
00010000
00000000
10000000
00000000
00010000
10000000
00010000
00000000
,
20000000
00000000
00010000
30010000
,
00200000
00000000
01000000
01300000
,
00002000
00000000
00100000
00103000
,
00000200
00000000
00010000
00010300
,
00000010
00001000
00000001
00000100
,
00000010
00001000
00000001
00001000
,
00000100
00010000
00001000
00000000
00001000
00100000
00010000
00000000
,
00010000
00100000
01000000
10000000
00200000
00000000
01000000
00000000
,
01300000
00010000
10000000
00100000
,
01000000
00001000
00010000
00011000
,
00100000
00000000
00001000
00000000
00010000
00000010
00001000
00000000
,
00000001
00000100
00000001
00000010
,
00000100
00000000
00001000
00000000
00000100
00010000
00001000
00000000
,
00010000
00001000
00100000
00010000
,
01000000
00000000
00100000
00000000
10000000
00010000
01000000
00000000
,
00100000
10000000
00010000
00100000
,
00001000
00010000
00001000
00000000
00010000
00001000
00010000
00000000
,
00000020
00010000
00001000
00000130
,
00000001
00000001
00000001
00000001
,
00001000
00000010
00010000
00000000
,
00001000
00000000
00001000
00000000
00001000
00000000
00100000
00001000
,
00100000
00001000
00101000
00000000
,
00010000
00010000
00010000
01000000
,
00200000
01300000
10010000
01000000
,
00100000
00010000
00000000
00010000
00000000
00010000
00100000
00000000
,
00010000
00100000
01000000
10000000
01000000
00000000
01100000
00000000
,
00020000
01000000
10000000
00130000
,
00001000
00101000
00011000
00000000
,
00002000
00000100
00000001
00003010
,
00010000
00010010
00011000
00000000
,
00001000
00010000
00001000
00000000
00100000
01000000
00100000
00000000
,
00010000
10000000
00010000
00000000
01000000
00000000
01100000
00000000
,
00010000
00001000
00010000
00000000
00000010
00000100
00000010
00000000
,
00001000
00000001
00001000
00000000
00002002
00000000
00000000
00000000
,
00003003
00000000
00000000
00000000
,
00000000
00000000
00000000
00000000
,
00000001
00000000
00000100
00000000
00000010
00001000
00000100
00000000
,
00010000
00001000
00100000
00010000
,
10000000
00000000
00010000
00000000
00100000
01000000
10000000
00000000
,
00100000
01000000
01010000
00000000
,
00100000
00000000
00001000
00000000
00010000
00000100
00001000
00000000
,
00000010
00000100
00000001
00001000
,
00000010
00000000
00001000
00000000
00000100
00010000
00001000
00000000
,
00100000
00001000
00010000
00000000
00011000
00000000
00000000
00000000
,
00010000
00001000
01000000
00000000
00010000
00000000
10000000
00000000
,
00100000
00000000
01000000
00000000
00001000
00010000
00001000
00000000
,
00010000
00000010
00001000
00000000
00000001
00000000
00000100
00000000
,
00000001
00001000
00000100
00010000
,
00001000
00010000
00001000
00000000
00100000
00000000
01000000
00000000
,
10000000
00010000
10000000
00000000
00100000
01000000
00001000
00000000
,
00010000
00001000
00010000
00000000
00000010
00000000
00000100
00000000
,
00000001
00001000
00000001
00000000
00000220
00000000
00000330
00000000
,
00001001
00000000
00000000
00000000
;

//---------------dance-double - ----------------
#NOTES:
     dance-double:
     :
     Hard:
     12:
     0.573,0.574,0.269,0.211,0.240:
00000000
00000000
00000000
00000000
,
00000000
00000000
00000000
00000000
,
00000000
00000000
00000000
00000000
,
00100000
00000000
00100000
00000000
00100000
00000000
00010000
10000000
,
00100000
00000000
00100000
00000000
00100000
01000000
10010000
00000000
,
01000000
00000000
00000000
00000000
01000000
00000000
00000000
00000000
01000000
00000000
00000000
00000000
00100000
00000000
00010000
01000000
,
00010000
00000000
01000000
00000000
00000000
00000000
00001000
00010000
00001000
00000000
00000000
00010000
00000000
00000000
00000100
00000000
,
00000010
00000000
00000010
00000000
00000010
00000000
00000001
00001000
,
00000020
00000000
00000000
00000000
00000130
00000000
00000000
00000000
00000010
00000100
00000000
00000100
00000010
00000000
00000010
00000000
,
00000100
00000001
00000000
00001000
00000000
00000010
00010000
00001000
,
00010000
00010010
00011000
01001000
,
00010000
00000000
01000000
00000000
00000000
00100000
00000000
00000000
10000000
00000000
00000000
00010000
00000000
00000000
01000000
00000000
,
00000000
00000000
00100000
00000000
00000000
10000000
00000000
00000000
01000000
00000000
00000000
00100000
00000000
00000000
00001000
00000000
,
00000000
00000000
00010000
00000000
00000000
00000010
00000000
00000000
00001000
00000000
00000000
00000001
00000000
00000000
00000100
00000000
,
00000000
00000000
00000001
00000000
00000000
00001000
00000000
00000000
00000001
00000000
00000100
00000000
00000010
00000000
00001000
00000000
,
00000010
00000000
00010000
00000000
00000000
00001000
00000000
00000000
00100000
00000000
00000000
00001000
00000000
00000000
00010000
00000000
,
00000000
00000000
00001000
00000000
00000000
00100000
00000000
00000000
00010000
00000000
00000000
10000000
00000000
00000000
01000000
00000000
,
00000000
00000000
00100000
00000000
00000000
00010000
00000000
00000000
01000000
00000000
00000000
00100000
00000000
00000000
10000000
00000000
,
10000000
00100000
01000000
00010000
00100000
00001000
00010000
00000100
,
00001000
00000000
00001000
00000000
00001000
00000000
00001000
00001000
,
00000001
00000100
00000010
00001000
00000100
00010000
00011000
00000000
,
00010100
00000000
00010010
00000000
00001000
00100000
00010000
00000000
,
01010000
00000000
00110000
00000000
01000000
10000000
00010000
00000000
,
11000000
00000000
10100000
00000000
01000000
00010000
00100000
00000000
,
01001000
00000000
00101000
00000000
00010000
01000000
00001000
00010000
,
00000100
00000000
00001001
00000000
00001000
00000100
00000010
00000000
,
00000101
00000000
00000011
00000000
00000100
00000001
00001000
00000000
,
00000010
00001000
00000100
00010000
00001000
00100000
00010000
10000000
,
00000000
00000000
02000000
00000000
00000000
03020000
00000000
00000000
00032000
00000000
00000000
00003020
00000000
00000000
00000031
00000000
,
00000100
00000000
00000100
00000000
00000100
00000000
00000001
00001000
,
00000100
00000000
00000100
00000000
00000100
00000010
00001001
00000000
,
00000010
00000000
00000000
00000000
00000010
00000000
00000000
00000000
00000010
00000000
00000000
00000000
00000100
00000000
00001000
00000010
,
00001000
00000000
00000010
00000000
00000000
00000000
00010000
00001000
00010000
00000000
00000000
00001000
00000000
00000000
00100000
00000000
,
01000000
00000000
01000000
00000000
01000000
00000000
10000000
00010000
,
02000000
00000000
00000000
00000000
03100000
00000000
00000000
00000000
01000000
00100000
00000000
00100000
01000000
00000000
01000000
00000000
,
00100000
00000000
10000000
00000000
00000000
00000000
01000000
00000000
00000000
00000000
00010000
00000000
10000000
00010000
10000000
00000000
,
01000000
00100000
00001000
00010000
00000100
00000010
00000110
00000000
,
00000002
00000000
00000103
00000010
00001000
00000001
00000100
00001000
,
00010000
00000000
00001000
00000000
00012000
00000000
00103000
00010000
,
00200000
00000000
00310000
10000000
02000000
00000000
03100000
00000000
,
00110000
11000000
20020000
30030000
,
20000000
00000000
30100000
01000000
00010000
10000000
00100000
00010000
,
00001000
00000000
00010000
00000000
00021000
00000000
00030100
00001000
,
00000010
00000100
00000001
00000010
00000200
00000000
00001300
00000100
,
00010000
00001000
00100000
00010000
20020000
00000000
00000000
00000000
,
30030000
00000000
00000000
00000000
,
00000000
00000000
00000000
00000000
,
10000000
00000000
01000000
00000000
00100000
00000000
00010000
00000000
00100000
00000000
00001000
00010000
00000000
00001000
00010000
00000000
,
00000100
00010000
00000010
00001000
00000002
00000000
00000100
00000000
,
00001003
00000000
00000100
00000000
00000010
00000000
00000001
00000000
00000010
00000000
00000100
00001000
00000000
00000100
00001000
00000000
,
00000001
00000100
00001000
00010000
00002000
00000000
00010000
00000000
,
00103000
00000000
00010000
00000000
10000000
00000000
01000000
00000000
00100000
00000000
00010000
10000000
00000000
00010000
10000000
00000000
,
00100000
01000000
00001000
00010000
00002000
00000000
00010000
00000000
,
00003100
00000000
00000010
00000000
00001000
00000000
00000001
00000000
00000010
00000000
00000001
00001000
00000000
00000001
00001000
00000000
,
00000010
00000000
00000100
00000010
00000000
00000100
00000010
00000000
00001000
00000000
00000000
00000000
00001001
00000000
00000000
00000000
,
00000001
00000000
00000100
00000000
00000010
00000000
00001000
00000000
00000001
00000000
00001000
00000100
00000000
00010000
00001000
00000000
,
00100000
00000000
00001000
00000000
01000000
00000000
00010000
00000000
00100000
00000000
00001000
01000000
00000000
00010000
10000000
00000000
,
00010000
00000000
00100000
00000000
01000000
00000000
10000000
00000000
00100000
00000000
10000000
00010000
00000000
00100000
00001000
00000000
,
00010000
00001000
00000010
00000001
00001000
00000000
00001001
00000000
,
00000010
00000000
00000100
00000000
00000001
00000000
00001000
00000000
00000010
00000000
00010000
00001000
00000000
00100000
00001000
00000000
,
01000000
00000000
00100000
00000000
10000000
00000000
00010000
00000000
01000000
00000000
00001000
00100000
00000000
00000100
00010000
00000000
,
00000010
00000000
00001000
00000000
00000001
00000000
00000100
00000000
00000010
00000000
00010000
00000100
00000000
00100000
00001000
00000000
,
01000000
00000000
00100000
10000000
00000000
00010000
01000000
00000000
00202000
00000000
00000000
00000000
00303000
00000000
00000000
00000000
,
00011000
00000000
00000000
00000000
;

//---------------dance-single - Copied from ----------------
#NOTES:
     dance-single:
     Copied from:
     Challenge:
     15:
     0.890,0.818,0.384,0.384,0.830: // measure 1
0000
0000
0000
0000
,  // measure 2
1000
0010
0100
0001
0010
0100
1000
0100
0010
0001
1000
0010
1000
0001
0100
0001
,  // measure 3
0010
0100
1000
0100
0010
0100
1000
0010
0100
0001
0100
0010
1000
0000
0001
0000
,  // measure 4
0100
0000
0001
0000
1000
0000
0100
0010
0000
0000
0001
0000
1000
0000
0001
0000
,  // measure 5
0010
0000
0100
0000
1000
0000
0100
0010
0000
0000
0001
0000
1001
0000
1000
0000
,  // measure 6
0010
0000
0100
0000
0001
0000
0010
0100
0000
0000
1000
0000
1000
0000
0100
0010
,  // measure 7
0001
0000
0011
0000
0000
0000
0010
0100
1000
0000
0000
1100
0000
0000
0100
0000
,  // measure 8
0010
0000
0001
0000
1000
0000
0010
0100
0000
0000
0001
0000
1000
0000
0010
0000
,  // measure 9
0100
0010
1000
0010
0100
0000
0000
0100
0010
0100
0000
0100
0001
1000
0001
0000
,  // measure 10
1000
0000
2001
0000
0000
0000
0002
0000
3000
0000
1003
0000
0010
0100
0001
0010
,  // measure 11
0100
1000
0100
0010
0001
0010
0100
1000
0001
1000
0001
0100
0010
0100
0010
1000
,  // measure 12
0001
0000
0100
0000
0000
0101
0000
0000
0001
0000
0000
1002
0000
0000
2003
0000
,  // measure 13
0000
0000
3100
0000
0000
0011
0000
0000
1000
0000
0000
0102
0000
0000
0023
0000
,  // measure 14
0000
0000
0031
0000
0000
1001
0000
0000
1000
0000
0000
2010
0000
0000
3020
0000
,  // measure 15
0000
0000
0130
0000
0000
1001
0000
0000
0100
0000
1000
0000
0001
0000
0010
0000
,  // measure 16
0100
1000
1000
0010
0010
0100
0100
0001
,  // measure 17
0001
1000
1000
0100
0100
0010
0010
0001
,  // measure 18
0001
0010
0010
0100
0100
1100
1000
1010
,  // measure 19
0010
1000
0010
1000
0001
0100
0001
0100
0001
1000
0001
1000
0100
0010
0001
0000
,  // measure 20
0100
0000
0001
0000
1000
0000
0100
0010
0000
0000
0001
0000
1000
0000
0001
0000
,  // measure 21
0010
0000
0100
0000
1000
0000
0100
0010
0000
0000
0100
0000
2200
0000
3300
0000
,  // measure 22
2002
0000
3003
0000
1000
0000
0010
0100
0000
0001
0100
0010
1000
0010
0100
0000
,  // measure 23
0100
0001
0000
0100
0010
0000
0010
1000
0000
0010
1000
0001
0010
0100
1000
0000
,  // measure 24
0100
0010
0000
0010
0001
0000
0001
1000
0000
0010
1000
0010
0100
0001
0100
0000
,  // measure 25
0010
1000
0000
0001
0100
0000
0010
1000
0000
0010
1000
0100
0010
0001
1000
0000
,  // measure 26
0100
0010
0000
0010
0001
0000
0001
1000
0000
0010
0100
0010
1000
0001
0100
0000
,  // measure 27
0100
0001
0000
0100
0010
0000
0010
1000
0000
0010
1000
0001
0010
0100
1000
0000
,  // measure 28
0100
0010
0000
0010
0001
0000
0001
1000
0000
0010
1000
0010
0100
0001
1000
0000
,  // measure 29
0010
0000
2020
0000
3030
0202
0000
0303
2002
0000
3003
0220
0000
0330
1000
0000
,  // measure 30
0010
0000
1000
0000
0001
0000
0010
0100
0000
0000
1000
0000
0001
0000
1000
0000
,  // measure 31
0100
0000
0010
0000
0001
0000
0010
0100
0000
0000
1000
0000
1001
0000
0001
0000
,  // measure 32
0100
0000
0010
0000
1000
0000
0100
0010
0000
0000
0001
0000
0001
0000
0010
0100
,  // measure 33
1000
0000
1100
0000
0000
0000
0100
0010
0001
0000
0000
0011
0000
0000
0010
0000
,  // measure 34
0100
0000
1000
0000
0001
0000
0100
0010
0000
0000
1000
0000
0001
0000
0100
0000
,  // measure 35
0010
0100
0001
0100
0010
0000
0000
0010
0100
0010
0000
0010
1000
0001
1000
0000
,  // measure 36
0001
0000
0100
0000
0000
0000
0100
0000
0000
0000
0100
0000
0010
1000
0010
0100
,  // measure 37
0001
0100
1000
0100
0001
0010
0100
1000
0100
1000
0001
0000
1001
0000
0000
0000
,  // measure 38
0210
0000
0001
0301
0010
0001
1000
0010
,  // measure 39
0200
0000
0002
0300
2000
0003
0010
3010
,  // measure 40
0200
0000
0001
0301
2000
0000
3010
0000
,  // measure 41
1001
1010
2002
3003
,  // measure 42
1000
0000
1000
0000
0010
0000
0010
0000
1000
0000
0001
0000
0010
0000
0100
0001
,  // measure 43
0100
0000
1000
0000
0001
0000
0100
0000
0010
1000
0010
1000
0100
1000
0100
0000
,  // measure 44
0010
0001
0010
0000
0100
1000
0100
0000
0010
0001
0100
0000
0010
1000
0100
0000
,  // measure 45
0010
0100
0010
0001
2001
0000
0000
0000
,  // measure 46
3010
0100
0001
0100
0010
1000
0001
0100
0010
1000
0100
0010
0001
0010
0100
1000
,  // measure 47
0100
0010
0001
1000
0001
1000
0001
0100
0010
0100
0010
1000
0020
0000
0000
0000
,  // measure 48
1030
0000
0100
0000
0010
0000
0001
1000
0001
0000
0001
0100
0000
0010
1000
0000
,  // measure 49
0010
0000
1000
0000
0100
0000
1000
0100
0010
0000
0001
1000
0000
0100
0010
0000
,  // measure 50
0001
0000
0001
0000
0010
0000
0100
1000
0100
0010
0001
0010
0100
0000
1000
0000
,  // measure 51
0010
0100
0001
0100
2002
0000
0000
0003
,  // measure 52
3100
0000
0010
0000
0001
0000
0010
0100
1000
0000
0001
0100
0000
0010
1000
0000
,  // measure 53
0010
0000
1000
0000
0100
0000
0010
0001
1000
0000
0010
0100
0000
0001
1000
0000
,  // measure 54
0010
0000
1000
0000
0100
0000
0010
0000
0011
0000
0000
1001
0000
0000
1010
0000
,  // measure 55
0101
0000
0100
0010
0000
0100
0010
0000
0200
0000
0000
0300
2002
0000
0003
0000
,  // measure 56
3001
0000
0010
0000
0100
0000
1000
0001
1000
0000
1000
0010
0000
0100
0001
0000
,  // measure 57
0100
0000
0001
0000
0010
0000
0001
0010
0100
0000
1000
0001
0000
0010
0100
0000
,  // measure 58
1000
0000
1000
0000
0100
0000
0010
0001
0010
0100
1000
0100
0010
0000
0001
0000
,  // measure 59
0100
0010
1000
0010
2002
0000
0000
3000
,  // measure 60
1003
0000
0010
0000
1000
0000
0100
0010
0001
0000
1000
0010
0000
0100
0001
0000
,  // measure 61
0100
0000
0001
0000
0010
0000
0100
1000
0001
0000
0100
0010
0000
1000
0001
0000
,  // measure 62
0100
0000
0001
0000
0010
0000
0100
0000
1100
0000
0000
1001
0000
0000
0101
0000
,  // measure 63
1010
0000
0010
0100
0000
0010
0100
0000
0020
0000
0000
0000
0130
0000
0000
0000
,  // measure 64
2002
3003
0000
0000
0000
0000
0000
0000
;
