#TITLE:INFINITY OVERDRIVE;
#SUBTITLE:;
#ARTIST:DecisionS(kanone + nora2r);
#TITLETRANSLIT:;
#SUBTITLETRANSLIT:;
#ARTISTTRANSLIT:;
#GENRE:;
#CREDIT:;
#BANNER:;
#BACKGROUND:;
#LYRICSPATH:;
#CDTITLE:;
#MUSIC:INFINITY OVERDRIVE.mp3;
#OFFSET:-0.180000;
#SAMPLESTART:99.820030;
#SAMPLELENGTH:12.000000;
#SELECTABLE:YES;
#BPMS:0.000000=185.020004
,239.000000=92.510002
,253.000000=185.000000
;
#STOPS:62.000000=1.000000,
64.000000=0.180000,
64.500000=0.180000,
66.000000=0.100000,
69.500000=0.180000,
70.000000=0.180000,
70.500000=0.180000,
72.000000=0.180000,
72.500000=0.140000,
75.000000=0.180000,
75.500000=0.160000,
76.000000=0.160000,
77.500000=0.140000,
78.000000=0.180000,
80.500000=0.160000,
82.000000=0.140000,
87.500000=0.180000,
88.000000=0.180000,
88.500000=0.160000,
90.000000=0.180000,
90.500000=0.140000,
93.000000=0.180000,
93.500000=0.160000,
95.000000=0.140000,
95.500000=0.160000,
96.000000=0.160000,
98.500000=0.180000,
99.000000=0.180000,
99.500000=0.140000,
101.000000=0.160000,
101.500000=0.160000,
104.000000=0.160000,
105.500000=0.140000,
253.000000=0.980000
;
#BGCHANGES:;
#KEYSOUNDS:;
#ATTACKS:;

//---------------dance-single - ----------------
#NOTES:
     dance-single:
     :
     Hard:
     17:
     0.924521,1.000000,0.303754,0.421880,0.569539,681.000000,36.000000,50.000000,0.000000,0.000000,0.000000,0.924521,1.000000,0.303754,0.421880,0.569539,681.000000,36.000000,50.000000,0.000000,0.000000,0.000000:
// measure 0
0000
0000
0000
0000
0010
1000
0010
1000
,  // measure 1
0001
0100
0001
0010
0100
1000
0100
0010
,  // measure 2
0001
1000
0001
1000
0001
0100
0010
1000
,  // measure 3
0010
1000
0001
0100
0001
0010
0001
1000
,  // measure 4
0100
1000
0010
0100
0001
1000
0100
0010
,  // measure 5
0100
1000
0001
0010
0100
0010
0001
1000
,  // measure 6
0010
0001
0010
1000
0100
0001
0100
1000
,  // measure 7
0001
0100
0010
1000
0001
0100
1000
0100
,  // measure 8
0001
0000
0000
1000
0100
0000
0010
0001
0010
0000
0000
0000
0100
0000
0000
0000
,  // measure 9
1000
0000
0001
0100
0001
0000
1000
0000
,  // measure 10
0001
0000
0100
0010
0100
0000
0010
0000
,  // measure 11
1000
0000
0001
1000
0001
0000
1000
0000
,  // measure 12
1001
0000
0000
0000
0001
1000
0001
1000
,  // measure 13
0001
1000
0001
1000
0010
0100
0010
0100
,  // measure 14
0010
0000
0000
0100
0000
0000
0001
0000
0000
0100
0000
0000
0001
0000
0010
0000
0100
0000
1000
0000
0100
0000
0010
0000
,  // measure 15
0001
0000
1000
0000
0010
0000
0100
0000
0001
0000
1000
0000
0220
0000
0000
0330
0000
0000
1001
0000
0000
0000
0000
0000
,  // measure 16
0110
0000
1000
0000
0001
0100
0001
0100
0001
0000
1000
0010
0000
0000
0100
0000
,  // measure 17
0100
0000
0000
0001
0000
0000
0001
0000
0000
2001
0000
0000
3200
0000
0000
0320
0000
0000
0031
0000
1000
0000
0001
0000
,  // measure 18
0100
0000
0000
0101
0000
0000
0001
0000
0010
0000
0100
0000
1000
0000
0010
0000
0100
0000
0010
0000
0000
1010
0000
0000
,  // measure 19
0100
0000
0000
0000
0000
0000
0001
0000
0000
0000
1000
0000
0000
0000
0001
0000
0000
0000
1000
0000
0000
0000
0000
0000
1001
0000
0000
0000
0000
0000
0001
0000
0000
1000
0000
0000
0100
0000
0000
0010
0000
0000
0001
0000
0000
1000
0000
0000
,  // measure 20
0001
1000
0001
0000
1000
0010
1000
0010
1000
0000
0001
0100
0001
0100
0010
0000
,  // measure 21
1000
0010
0100
0000
0002
0000
2000
0000
0000
0000
0000
0000
3003
0000
1001
0000
,  // measure 22
1010
0000
0000
0000
0000
0000
1100
0000
0000
0000
0000
0000
0100
0000
0000
0010
0000
0000
0001
0000
0000
0100
0000
0000
0010
0000
0000
0000
0000
0000
1000
0000
0000
0000
0000
0000
0001
0000
0000
0000
0100
0000
0000
0000
0010
0000
0000
0000
,  // measure 23
0100
0000
1000
0000
0100
0000
0002
0000
0000
2003
0000
0000
3020
0000
0000
0000
0000
0000
0230
0000
0000
0010
0000
0000
,  // measure 24
0302
2000
0003
0002
3003
0110
0201
0320
,  // measure 25
2030
0000
0000
0000
0000
0000
3001
0000
0000
0100
0000
0000
0010
0000
1000
0000
0001
0000
1000
0000
0100
0000
0010
0000
,  // measure 26
0001
0000
1000
0010
1000
0010
0100
0000
0001
1000
0001
1000
0100
0000
0010
0000
,  // measure 27
0001
0000
1000
0000
0001
0000
0000
1001
0000
0000
1000
0000
0010
0000
1000
0000
,  // measure 28
0100
0010
0001
1000
0010
2000
0000
3100
,  // measure 29
1000
0001
0100
0010
0002
0000
0013
1000
,  // measure 30
0001
0010
0100
0010
0001
1000
0010
1000
,  // measure 31
0001
0000
0100
0000
0001
0000
1000
0000
0100
0010
0100
0010
0001
0000
1000
0000
,  // measure 32
0100
1000
0001
0100
0001
0200
0000
0310
,  // measure 33
0100
0001
1000
0010
2000
0000
3100
1000
,  // measure 34
0100
0000
0010
0000
0001
0000
1000
0000
0001
0000
0100
0000
0110
0000
0000
0010
,  // measure 35
0000
0000
1000
0000
0001
0000
0000
1000
0000
0000
0010
0000
0100
0000
0001
0000
,  // measure 36
0010
0100
1000
0001
0100
0002
0000
0013
,  // measure 37
0001
1000
0010
0100
2000
0000
3100
0001
,  // measure 38
1000
0100
0010
0100
1000
0001
0100
0001
,  // measure 39
1000
0000
0010
0000
1000
0000
0001
0000
0010
0100
0010
0100
1000
0000
0001
0000
,  // measure 40
0010
0001
1000
0010
1000
0020
0000
0130
,  // measure 41
0010
1000
0001
0100
0002
0000
0013
0001
,  // measure 42
0010
0000
0100
0000
1000
0000
0001
0000
1000
0000
0010
0000
0110
0000
0000
0100
,  // measure 43
0000
0000
0001
0000
1000
0000
0000
0001
0000
0000
0100
0000
0010
0000
0000
1000
,  // measure 44
0001
0000
0100
0000
0010
0000
0000
0100
0001
0000
0010
0000
0100
0000
0000
0010
,  // measure 45
0001
0000
1000
0000
0010
0000
0000
0100
0001
0000
1000
0000
0100
0000
0000
0001
,  // measure 46
0100
0000
1000
0000
0010
0000
0000
1000
0001
0000
0100
0000
1000
0000
0000
0100
,  // measure 47
0010
0000
1000
0000
0001
0000
0100
0000
0200
0000
0000
0000
0310
0000
1000
0001
,  // measure 48
1000
0001
0100
0000
0010
0100
0001
0010
0001
0100
0010
0000
1000
0001
0010
0100
,  // measure 49
1000
0001
0100
0000
0001
0100
0010
0100
0001
1000
0010
0000
1000
0010
1000
0100
,  // measure 50
0010
0001
0100
0000
0010
1000
0001
1000
0010
0100
0010
0000
0110
0000
0010
1000
,  // measure 51
0100
0001
0200
0000
1000
0000
0301
0000
1001
0000
0000
0000
0100
0000
0000
0001
,  // measure 52
1000
0000
0010
0000
0100
0000
0000
0010
1000
0000
0100
0000
0010
0000
0000
0100
,  // measure 53
1000
0000
0001
0000
0100
0000
0000
0010
1000
0000
0001
0000
0010
0000
0000
1000
,  // measure 54
0010
0000
0001
0000
0100
0000
0000
0001
1000
0000
0010
0000
0001
0000
0000
0010
,  // measure 55
0100
0000
0001
0000
1000
0000
0010
0000
0020
0000
0000
0000
0130
0000
0001
1000
,  // measure 56
0001
1000
0010
0000
0100
0010
1000
0100
1000
0010
0100
0000
0001
1000
0100
0010
,  // measure 57
0001
1000
0010
0000
1000
0010
0100
0010
1000
0001
0100
0000
0001
0100
0001
0010
,  // measure 58
0100
1000
0010
0000
0100
0001
1000
0001
0100
0010
1000
0000
2010
0000
0001
0000
,  // measure 59
0001
0000
0001
0000
0001
0000
3001
0000
1001
0000
0000
0000
0102
0000
0000
1003
,  // measure 60
0010
1000
0001
0020
0000
0130
1000
0100
0010
0001
1002
0000
0103
0010
0100
1000
,  // measure 61
0100
0001
1000
1002
0000
0100
0103
0010
1000
0010
0200
0000
0002
0300
0100
0003
,  // measure 62
2002
3000
0010
0003
0202
0003
0010
0300
2020
3000
0100
0000
0130
0001
1000
0000
,  // measure 63
0010
0100
1000
0100
0010
1000
0001
1000
0020
0030
0000
0000
0000
0000
0000
0000
0100
0000
0000
0000
0001
0000
0000
0000
0010
0000
0000
0000
0100
0000
0000
0000
,  // measure 64
1000
0001
0100
0102
0000
0013
0001
1000
,  // measure 65
0010
0100
2100
0000
3100
0001
1000
0010
,  // measure 66
0001
1000
0100
0001
0010
1000
0001
0100
,  // measure 67
1000
0000
0001
0000
0010
0100
1000
0001
0100
0000
0001
0000
0010
0000
0001
0000
,  // measure 68
0100
0010
1000
1020
0000
0130
0010
1000
,  // measure 69
0001
0100
0102
0000
0013
0001
0010
0100
,  // measure 70
1000
0000
0001
0000
1000
0000
0010
0000
0110
0000
0000
0100
0001
0000
1000
0000
,  // measure 71
0010
0000
0000
1000
0001
0100
0001
0010
0100
0000
1000
0000
0100
0000
0010
0000
,  // measure 72
0001
1000
0001
0201
0010
0310
1000
0001
,  // measure 73
0100
0010
0012
0000
0013
0001
1000
0100
,  // measure 74
0001
0010
1000
0001
0100
1000
0001
0010
,  // measure 75
1000
0000
0001
0000
0100
1000
0100
0010
0001
0000
1000
0000
0100
0000
1000
0000
,  // measure 76
0001
0100
0010
0210
0000
0310
0100
0001
,  // measure 77
1000
0010
2001
0100
3100
1000
0100
0010
,  // measure 78
0001
0000
1000
0000
0001
0000
0100
0000
0110
0000
0000
0010
1000
0000
0001
0000
,  // measure 79
0100
0000
0000
0001
1000
0001
1000
0100
0010
0000
0000
0000
0000
0000
0000
0000
;

//---------------dance-single - ----------------
#NOTES:
     dance-single:
     :
     Medium:
     13:
     0.715991,0.603711,0.160315,0.480944,0.101251,518.000000,19.000000,57.000000,0.000000,0.000000,0.000000,0.715991,0.603711,0.160315,0.480944,0.101251,518.000000,19.000000,57.000000,0.000000,0.000000,0.000000:
0000
0000
0000
0000
0001
0100
0001
0100
,
0010
1000
0010
2000
0000
3001
1000
0001
,
1000
0100
0010
0100
1000
0001
0100
0001
,
0100
0010
1000
0010
1000
0100
0010
0001
,
0010
0100
1000
0001
0010
0100
1000
0010
,
0100
0010
1000
0002
0000
0103
0010
0100
,
0001
1000
0100
1000
0010
0100
0010
0100
,
0001
0010
0001
1000
0100
1000
0010
0100
,
0010
0000
0000
1000
0000
0000
0001
0000
1000
0000
0000
0000
0010
0000
0000
0000
,
0100
0000
0010
1000
0010
0000
0100
0000
,
0001
0000
0100
0001
0100
0000
0001
0000
,
1000
0000
0010
1000
0010
0000
1000
0000
,
1001
0000
0000
0000
0010
0100
0010
0100
,
0010
0100
0010
0100
0001
1000
0001
1000
,
0001
1000
0010
0100
0002
0000
2003
0000
,
3002
0000
0203
0000
0020
0330
1001
0000
,
1001
0100
0002
0000
1003
0020
0000
0130
,
0001
0100
0020
1000
1000
1030
0002
0000
,
1003
1001
0001
0000
0010
0000
0100
0100
,
0100
1000
0000
0001
0001
0002
0000
1003
,
0000
1010
0100
0000
0101
0001
0000
1000
,
0001
1000
0020
0200
0000
0000
0330
0001
,
0001
0101
0100
0000
0010
0010
2010
0000
,
3002
0000
0103
0100
0020
0000
1030
1000
,
0001
0200
0000
0020
0330
0110
1001
0110
,
0002
0000
0013
0010
0010
0000
1000
0000
,
2002
3003
0000
2002
3003
0000
0100
0000
,
0001
0000
1000
0000
0001
0000
0010
0001
,
0010
0100
1000
0100
0010
0002
0000
1003
,
0010
1000
0010
0100
0020
0000
0130
0001
,
1000
0010
1000
0001
1000
0100
0010
0100
,
1000
0100
0010
0001
0200
0000
0310
1000
,
0100
1000
0001
0100
0001
2000
0000
3010
,
0100
0001
1000
0010
2000
0000
3100
1000
,
0100
0010
0001
1000
0001
0100
0020
0000
,
1000
0000
0001
0000
1000
0000
0130
0001
,
0010
0100
1000
0001
0100
0002
0000
0013
,
0001
1000
0010
0100
2000
0000
3100
0001
,
1000
0100
0010
0100
1000
0001
0100
0001
,
1000
0010
1000
0001
0200
0000
0310
1000
,
0001
1000
0001
0100
0010
2000
0000
3001
,
0100
0001
1000
0010
0200
0000
0310
1000
,
0010
0100
0001
0100
0001
1000
0200
0000
,
0001
0000
0000
0000
1000
0000
0000
0000
0001
0000
0000
0000
0310
0000
0000
0001
,
0000
0000
0100
0000
0010
0000
0000
1000
0000
0000
0010
0000
0100
0000
0000
0001
,
0000
0000
1000
0000
0010
0000
0000
0100
0000
0000
0010
0000
1000
0000
0000
0001
,
0000
0000
1000
0000
0100
0000
0000
0010
0000
0000
0001
0000
1000
0000
0000
0010
,
0000
0100
0001
0100
0020
0000
0130
0001
,
0001
1000
0010
1000
1000
0100
0010
0001
,
0001
0100
0010
1000
1000
0001
1000
0100
,
0100
0010
0001
0010
0010
0100
1000
0001
,
0001
0000
1001
0000
1000
0000
0001
0000
1001
0000
0000
0000
0100
0000
0000
1000
,
0000
0000
0010
0000
0100
0000
0000
0001
0000
0000
0100
0000
0010
0000
0000
1000
,
0000
0000
0001
0000
0100
0000
0000
0010
0000
0000
0100
0000
0001
0000
0000
1000
,
0000
0000
0001
0000
0010
0000
0000
0100
0000
0000
1000
0000
0001
0000
0000
0100
,
0000
0010
1000
0010
0200
0000
0310
1000
,
1000
0001
0100
0001
0001
0010
0100
1000
,
1000
0010
0100
0001
0001
1000
0001
0010
,
0010
0100
1000
0100
0100
0010
0001
1000
,
1000
1001
0001
1000
1001
0000
0120
0000
,
0000
0000
0000
0230
0000
0000
0000
0000
0000
0000
0000
0000
0302
0000
0000
0000
,
0000
0000
0000
2003
0000
0000
3020
0000
0000
0000
1030
0000
0002
0000
0000
0000
,
0203
0000
0000
0000
2300
0000
0000
0000
3020
0000
0000
0000
0031
1000
0001
0000
,
1000
0010
0100
0001
0100
0000
0000
0000
0100
0000
1000
0000
0100
0000
0010
0000
,
0001
0010
0100
2000
0000
3001
0100
0001
,
0100
0010
0200
0000
0310
1000
0001
0100
,
0001
1000
0001
0010
0100
0010
0001
0010
,
0100
1000
0020
0000
0130
0001
0010
0001
,
1000
0010
1000
0002
0000
0103
0010
1000
,
0001
0100
0002
0000
0013
0001
0010
0100
,
1000
0000
0001
0000
1000
0000
0010
0000
0100
0000
0000
0001
0000
0000
1000
0000
,
0010
0000
0000
0100
0000
0000
0001
0000
0001
0000
1000
0000
0100
0000
0010
0000
,
0001
1000
0010
2000
0000
3100
1000
0001
,
0100
0010
0002
0000
0013
1000
0001
0010
,
0100
0010
0001
1000
0010
1000
0001
0100
,
0001
1000
0020
0000
0130
0001
1000
0001
,
1000
0010
0100
0002
0000
1003
0010
1000
,
0001
0100
0020
0000
0130
0001
0100
0010
,
1000
0000
0010
0000
1000
0000
0001
0000
0010
0000
0000
0100
0000
0000
1000
0000
,
0100
0000
0000
0010
0000
0000
0001
0000
1001
0000
0000
0000
0000
0000
0000
0000
;

//---------------dance-single - ----------------
#NOTES:
     dance-single:
     :
     Easy:
     5:
     0.447193,0.436013,0.067501,0.345942,0.008438,322.000000,8.000000,41.000000,0.000000,0.000000,0.000000,0.447193,0.436013,0.067501,0.345942,0.008438,322.000000,8.000000,41.000000,0.000000,0.000000,0.000000:
0000
0000
0001
0001
,
0010
0000
0010
2000
0000
3000
1000
0000
,
1000
0010
1000
0100
,
0100
1000
1000
0010
,
0010
1000
0010
1000
,
0100
0000
1000
0002
0000
0003
0010
0000
,
0001
0100
0010
0010
,
0001
0001
0100
0010
,
0010
0010
1001
0010
,
0100
0010
0010
0100
,
0001
0100
0100
0001
,
1000
0010
0010
1000
,
1001
0000
0010
0010
,
0010
0010
0001
0001
,
0001
1000
0001
1000
0002
0000
0000
0000
,
0000
0000
1003
0001
,
1000
0001
1000
0000
0010
0100
0000
0100
,
0000
0001
0000
1000
0001
1000
0002
0000
,
0103
0010
1000
0000
0010
0000
0100
0010
,
0100
0001
0000
0001
1000
0002
0000
1003
,
0000
0110
0000
0000
1001
0000
0000
0100
,
0000
0010
0000
0200
0000
0000
0300
0001
,
0001
0001
0000
0000
0010
0010
0020
0000
,
2030
0000
3100
0100
0100
0000
0010
0010
,
0010
0002
0000
1003
0000
1000
1000
1000
,
0002
0000
0013
0010
0010
0000
0100
0000
,
2200
3300
0000
2002
3003
0000
0100
0000
,
0000
0000
0000
0010
,
1000
0000
0010
0000
1000
0001
0000
0000
,
1000
0100
0020
0031
,
1000
0001
1000
0010
,
0100
0001
0200
0310
,
0100
0000
0001
0000
0001
2000
0000
3000
,
0100
1000
0200
0310
,
0100
1000
0001
0010
,
0100
1000
0010
0100
,
0001
0000
1000
0000
0010
0200
0000
0300
,
0001
0010
0001
1000
,
0010
1000
0001
0100
,
0001
1000
0200
0310
,
0001
0000
0010
0000
0100
2000
0000
3000
,
0100
0010
0002
1003
,
0100
1000
0010
0100
,
0001
0010
0100
1000
,
0000
0100
0010
0000
0000
0010
0001
0000
,
0000
0001
1000
0000
0000
1000
0010
0000
,
0000
0010
0100
0000
0000
0100
0001
0000
,
0000
0001
1000
0000
0020
0000
0130
0000
,
0001
1000
0001
1000
,
0100
0010
0001
1000
,
0100
1000
0001
0100
,
0001
1000
1001
0001
,
0000
0010
0100
0000
0000
0100
1000
0000
,
0000
1000
0001
0000
0000
0001
0100
0000
,
0000
0100
0010
0000
0000
0010
1000
0000
,
0000
1000
0001
0000
0200
0000
0310
0000
,
1000
0001
1000
0001
,
0010
0100
1000
0001
,
0010
0001
1000
0010
,
1000
0001
1001
0020
,
0000
0000
0000
2030
0000
0000
0000
0000
0000
0000
0000
0000
3002
0000
0000
0000
,
0000
0000
0000
2003
0000
0000
3002
0000
0000
0000
0103
0000
0020
0000
0000
0000
,
2030
0000
3200
0000
0320
0000
0031
0010
,
0100
1000
0010
0000
0100
0000
0001
0000
,
0100
0000
0001
1000
0000
0000
0001
0000
,
0010
0200
1300
0001
,
1000
0001
0100
0010
,
1000
0020
0130
0010
,
1000
0000
1000
0002
0000
0003
0010
0000
,
0001
0020
0130
0010
,
0001
1000
0100
0010
,
0001
0100
0010
1000
,
0001
0000
0100
0020
0000
0030
1000
0000
,
0100
1000
0001
0100
,
0001
1000
0010
1000
,
0001
0020
0130
1000
,
0100
0000
0010
0002
0000
0003
0010
0000
,
0100
2000
3001
0010
,
0001
0100
0010
1000
,
0100
0010
0001
0000
;

//---------------dance-single - ----------------
#NOTES:
     dance-single:
     :
     Beginner:
     3:
     0.237458,0.301855,0.033750,0.126564,0.008438,178.000000,4.000000,15.000000,0.000000,0.000000,0.000000,0.237458,0.301855,0.033750,0.126564,0.008438,178.000000,4.000000,15.000000,0.000000,0.000000,0.000000:
0000
0000
1000
0000
,
0100
0000
0000
0001
,
0000
0100
0000
0010
,
0000
0001
0000
0100
,
0000
0001
0000
0001
,
0000
0001
0000
0100
,
0000
0010
0000
0100
,
0000
1000
0000
0100
,
0000
0100
1001
0100
,
0000
0100
0000
0010
,
0000
0010
0000
1000
,
0000
0100
0000
0001
,
1001
0000
0100
0000
,
0100
0000
1000
0000
,
1000
0000
2000
0000
,
0000
0000
3001
0000
,
1000
1000
0000
0000
0010
0000
0000
0000
,
0000
0000
0000
1000
1000
1000
0000
0000
,
0010
0010
0000
0000
0000
0000
0100
0100
,
0100
0000
0000
0001
0001
0000
0000
0000
,
0000
0100
0000
0000
0010
0000
0000
0000
,
0000
0000
0000
0000
0000
0000
0000
1000
,
1000
1000
0000
0000
0001
0001
0000
0000
,
0000
0000
0100
0100
0000
0000
0010
0010
,
0010
0000
0000
0000
0000
1000
1000
1000
,
0000
0000
0001
0001
0000
0000
0000
0000
,
1000
0000
0000
0001
0000
0000
0000
0000
,
0000
0000
0000
0100
,
0000
0100
0001
0000
,
0001
0000
0200
0300
,
0001
0000
0001
0000
,
0010
0000
0020
0030
,
0010
0000
1000
0000
,
0010
0000
0020
0030
,
0010
0000
1000
0000
,
0010
0000
0100
0000
,
1000
0000
0100
0000
,
1000
0000
1000
0000
,
0100
0000
1000
0000
,
1000
0000
0020
0030
,
1000
0000
0010
0000
,
0010
0000
2000
3000
,
0010
0000
0100
0000
,
1000
0000
0010
0000
,
0000
0100
0000
1000
,
0000
0001
0000
0100
,
0000
0010
0000
1000
,
0000
0001
0200
0310
,
0000
0001
0000
0001
,
0000
0100
0000
0001
,
0000
0001
0000
0010
,
0000
0001
1001
1000
,
0000
0010
0000
0001
,
0000
1000
0000
0010
,
0000
0100
0000
0001
,
0000
1000
0020
0130
,
0000
1000
0000
1000
,
0000
0010
0000
1000
,
0000
1000
0000
0100
,
0000
1000
1001
1000
,
0000
0000
0000
0001
0000
0000
0000
0000
0000
0000
0000
0000
0100
0000
0000
0000
,
0000
0000
0000
0010
0000
0000
1000
0000
0000
0000
0001
0000
0001
0000
0000
0000
,
1000
0010
0200
0310
,
2000
3001
0010
0000
,
0010
1000
0000
1000
,
0000
0020
0030
1000
,
0000
1000
0000
0100
,
0000
0200
0300
0100
,
0000
0001
0000
0100
,
0000
0200
0300
0100
,
0000
0001
0000
0100
,
0000
0010
0000
0001
,
0000
0010
0000
0001
,
0000
0001
0000
0010
,
0000
0001
0000
0001
,
0000
0200
0300
0001
,
0000
0100
0000
0100
,
0000
0002
0003
0100
,
0000
0010
0000
0001
,
0000
0100
0001
0000
;
