#VERSION:0.81;
#TITLE:I.D.;
#SUBTITLE:;
#ARTIST:Tatsh feat Ayane;
#TITLETRANSLIT:;
#SUBTITLETRANSLIT:;
#ARTISTTRANSLIT:;
#GENRE:;
#ORIGIN:;
#CREDIT:;
#BANNER:;
#BACKGROUND:;
#PREVIEWVID:;
#JACKET:I.D.-jacket.png;
#CDIMAGE:;
#DISCIMAGE:;
#LYRICSPATH:;
#CDTITLE:;
#MUSIC:I.D..mp3;
#OFFSET:0.320000;
#SAMPLESTART:102.379906;
#SAMPLELENGTH:12.000000;
#SELECTABLE:YES;
#BPMS:0.000=153.000;
#STOPS:;
#DELAYS:;
#WARPS:;
#TIMESIGNATURES:0.000=4=4;
#TICKCOUNTS:0.000=4;
#COMBOS:0.000=1;
#SPEEDS:0.000=1.000=0.000=0;
#SCROLLS:0.000=1.000;
#FAKES:;
#LABELS:0.000=Song Start;
#BGCHANGES:;
#KEYSOUNDS:;
#ATTACKS:
;

//---------------dance-single - ----------------
#NOTEDATA:;
#CHARTNAME:;
#STEPSTYPE:dance-single;
#DESCRIPTION:;
#CHARTSTYLE:;
#DIFFICULTY:Hard;
#METER:14;
#RADARVALUES:0.693827,0.892071,0.215857,0.265670,0.415110,527.000000,26.000000,32.000000,0.000000,0.000000,0.000000,0.000000,0.000000,0.693827,0.892071,0.215857,0.265670,0.415110,527.000000,26.000000,32.000000,0.000000,0.000000,0.000000,0.000000,0.000000;
#CREDIT:;
#NOTES:
0000
0000
0000
0000
1000
0001
1000
0001
0100
0000
0000
0000
0001
0000
0000
0000
,
1000
0100
0010
0001
,
1000
0010
0100
0001
,
1000
0000
0100
0000
1000
0001
0100
0001
,
1000
0100
0010
0001
0010
0000
0100
0000
,
1000
0100
1000
0000
0001
0100
0010
1000
,
0001
0100
0010
1000
0100
0000
0010
0000
,
0001
0000
1000
0010
0100
0001
1000
0001
,
1000
0001
1000
0001
0100
0010
0100
0010
,
0100
0000
0010
0000
1000
0001
1000
0001
1000
0000
0000
0010
0000
0000
0010
0000
,
1000
0000
0010
0000
0100
0000
0001
0000
0100
0000
0000
0010
0000
0000
1000
0000
,
1001
0000
0000
0000
0110
0000
0100
0000
0010
0000
0000
1000
0000
0000
0001
0000
,
0100
0001
1000
0000
0010
0100
0010
0100
,
0001
0000
1100
0000
1000
0001
0100
0001
,
1000
0100
0010
0100
1000
0010
0100
0001
,
0100
0010
1000
0001
0110
0000
1000
1001
,
0000
0010
0000
1010
0000
1000
0001
0200
,
0000
0000
0000
0000
0310
0000
1000
0001
1000
0000
0010
0000
0110
0000
0000
0000
,
0100
0001
1000
0000
0001
0010
0011
0000
,
0001
0000
1000
0000
0100
0000
1000
0001
1000
0000
0001
0000
0101
0000
0000
0000
,
1000
0010
1000
0000
0001
0100
0001
0010
,
0000
0100
1000
0000
0001
1000
0001
0000
,
0100
0010
1000
0000
0001
0100
0010
0000
,
0100
0000
0010
0000
0100
0000
0001
0000
1001
0000
0000
1000
0000
0000
1020
0000
,
0000
0000
0130
0000
0100
0001
1000
0000
,
0010
1000
0001
1000
1002
0000
0100
0000
,
1000
0000
0100
0103
0000
0010
1000
0001
,
1000
0000
0010
0000
0100
0000
0001
0000
1000
0001
1000
0001
1000
0001
0100
0010
,
0100
0010
0100
0001
1000
0001
1000
0001
1000
0000
0000
0100
0000
0000
0010
0000
,
0001
0000
1000
0000
0001
0000
0100
0000
0010
0000
0000
1000
0000
0000
0001
0000
,
0010
0000
0100
0000
0010
0000
0001
0000
1000
0000
0000
0001
0000
0000
0100
0000
,
0010
0000
1000
0000
0001
0000
0010
0000
0001
0000
0000
0100
0000
0000
0010
0000
,
2000
0000
3001
0020
0000
0230
0000
2300
,
0000
3020
0000
0230
0001
0000
0010
0000
,
0001
0000
0010
0000
0301
0000
1000
0001
,
1000
0000
0010
0000
0100
0010
1000
0001
,
1000
0000
0010
0000
0100
0000
0000
0000
0001
0000
0000
0010
0000
0000
0100
0000
,
1000
0000
0001
0000
1000
0000
0010
0000
0100
0000
0000
0001
0000
0000
1000
0000
,
0100
0000
0010
0000
0100
0000
1000
0000
0001
0000
0000
1000
0000
0000
0010
0000
,
0200
0000
0302
0000
2003
0000
0000
0001
,
3001
0000
0000
0100
0110
0000
0001
1000
,
0000
0010
0000
0010
0000
0000
0000
0000
,
1000
0000
0001
0000
1000
0000
0010
0210
,
0000
0000
0300
0102
0000
0000
0000
2003
,
0000
3001
1000
0010
0200
0000
0000
0301
,
1000
0001
1000
0001
1000
0001
1000
0001
1000
0001
1000
0001
1000
0001
1000
0001
,
1000
0001
1000
0001
1000
0001
1000
0001
0100
0000
0010
1000
0000
0001
0100
0001
,
0010
0100
1000
0100
0010
0001
1000
0000
1001
0000
0100
0010
0100
0010
0000
1000
,
0000
0001
1000
0001
0100
0010
0100
0000
0101
0000
0001
1000
0000
0100
1000
0100
,
1000
0001
0100
0010
0100
0000
0010
0000
1010
0000
1000
0001
1000
0010
0000
0100
,
0000
0001
0100
0001
0100
0010
1000
0001
1000
0000
0010
0000
0100
0000
0001
0010
,
0001
0000
1000
0000
0010
1000
0010
0000
0100
0000
0010
0000
1000
0001
0100
0001
,
0000
0000
1000
0000
0010
0100
0010
0000
1001
0000
1000
0010
1000
0001
0100
0001
,
0010
0100
0010
0001
1000
0001
1000
0010
1000
0001
0100
0001
0010
0100
1000
0100
,
0010
0001
1000
0010
1000
0001
0100
0001
0200
0000
0000
0000
0001
0000
0000
0000
,
0010
0000
0001
0301
0000
0000
1000
0001
,
1000
0000
0001
0000
1000
0000
0010
0000
0100
0001
0100
0000
0010
1000
0010
0000
,
1000
0001
1000
0000
0010
0100
0010
0000
1001
0000
0000
0100
0000
0000
0100
0000
,
0001
0000
1000
0000
0001
0000
0100
0000
0101
0000
0000
0010
0000
0000
0010
0000
,
1000
0000
0001
0000
1000
0000
0100
0000
1100
0000
0000
0001
0000
0000
0001
0000
,
1000
0000
0000
0010
0000
0000
0010
0000
1000
0000
0000
0100
0000
0000
0100
0000
,
0010
0000
0001
0001
0000
0010
0000
0100
,
0000
1000
0000
0002
0000
0100
0000
1000
,
0000
0100
0000
1003
0010
0000
0000
0100
,
0100
0000
0000
0000
1001
0000
0000
0020
,
0200
0000
0000
0000
0330
0000
0000
0000
0001
0000
0000
0010
0000
0000
0100
0000
,
1000
0000
0001
0000
1000
0000
0010
0000
0100
0000
0000
0001
0000
0000
1000
0000
,
0100
0000
0010
0000
0100
0000
1000
0000
0001
0000
0000
1000
0000
0000
0010
0000
,
0200
0000
0302
0000
2003
0000
0000
3010
,
0100
0000
0001
1000
0001
0000
1000
0020
,
0000
0230
0000
0302
0000
0000
0000
0000
,
2003
0000
3020
0000
0230
0000
0301
1000
,
0000
0100
0000
1001
0000
0000
0000
0010
,
0000
1000
0001
1000
0210
0000
0000
0301
,
0100
0010
0100
0000
0001
1000
0001
0000
0100
0010
0100
0000
0010
1000
0010
0000
,
0100
0001
0100
0000
0010
1000
0001
1000
0220
0000
0000
0000
0000
0000
0000
0000
,
0000
0000
0000
0330
;

//---------------dance-single - ----------------
#NOTEDATA:;
#CHARTNAME:;
#STEPSTYPE:dance-single;
#DESCRIPTION:;
#CHARTSTYLE:;
#DIFFICULTY:Medium;
#METER:11;
#RADARVALUES:0.504062,0.477895,0.074720,0.282275,0.000000,382.000000,9.000000,34.000000,0.000000,0.000000,0.000000,0.000000,0.000000,0.504062,0.477895,0.074720,0.282275,0.000000,382.000000,9.000000,34.000000,0.000000,0.000000,0.000000,0.000000,0.000000;
#CREDIT:;
#NOTES:
0000
0000
0100
0001
1000
0000
0001
0000
,
1000
0100
0010
0001
,
1000
0010
0100
0001
,
1000
0000
0100
0000
1000
0001
0100
0001
,
1000
0100
0010
0001
0010
0000
0100
0000
,
1000
0100
1000
0000
0001
0100
0010
1000
,
0001
0100
0010
1000
0100
0000
0010
0000
,
0001
0000
1000
0010
0100
0000
0001
1000
,
0001
0000
1000
0010
0100
0000
0001
0100
,
0010
0100
0001
1000
0010
0000
0010
0000
,
1000
0000
0001
0100
0010
0000
0100
0000
,
1001
0110
1010
1000
,
0100
0000
1000
0001
0100
0000
0010
0000
,
0100
0000
1001
0000
1001
0001
0100
0001
,
1000
0001
0000
1000
0010
1000
0000
0100
,
0000
0010
0001
1000
0001
0000
0100
0100
,
0000
0001
0000
1001
0000
1000
0001
2000
,
0000
0000
0000
3001
1000
0001
0001
0000
,
0100
0001
1000
0000
0001
0010
0010
0000
,
0001
1000
0100
0010
0010
0000
1001
0000
,
0001
1000
0010
0000
0100
0001
1000
0010
,
0000
0100
0001
0000
1000
0010
1000
0000
,
0100
0010
0001
0000
1000
0000
0010
0000
,
0100
0000
0001
0100
0001
0000
1000
0020
,
0000
0030
0100
0001
,
1000
0000
0001
1000
0002
0000
0000
0000
,
0000
0000
1000
1003
0000
0010
1000
0001
,
1000
0010
0100
0001
2000
0000
0000
0000
,
3002
0000
0000
0000
1003
0000
0010
0100
,
0010
0000
1000
0000
0001
0000
1000
0010
,
1000
0000
0001
0000
1000
0000
0001
0100
,
0001
0000
1000
0000
0010
0000
0100
0010
,
0200
0000
0301
0002
0000
2003
0000
3020
,
0000
0130
0000
0200
0000
0000
0000
0000
,
0000
0000
0000
0000
0310
0000
1000
0001
,
1000
0000
0010
0000
0100
0000
0001
1000
,
0001
0000
0100
0000
0010
0000
1000
0100
,
1000
0000
0001
0000
0100
0000
0001
1000
,
0100
0000
0010
0000
0001
0000
1000
0100
,
1000
0000
0002
0000
0203
0000
0000
0010
,
0310
0000
0000
0100
0010
0000
1000
0000
,
0001
0100
0010
0000
,
1000
0000
0001
0000
1000
0000
0010
2000
,
0000
0000
0000
3002
0000
0000
0000
2003
,
0000
0000
0000
3001
0200
0000
0000
0301
,
1000
0001
1000
0001
1000
0001
1000
0001
,
1000
0001
1000
0001
0100
0010
0000
0100
,
0010
1000
0010
0100
0001
0000
0100
0000
,
0001
1000
0100
0010
0001
0000
1000
0100
,
1000
0010
0100
0010
0100
0000
0001
0000
,
1000
0001
1000
0010
0200
0000
0000
0301
,
1000
0001
1000
0010
0100
0010
0100
0001
,
0000
1000
0010
0100
0001
0010
0100
1000
,
0100
0010
0001
1000
0010
0100
0001
0010
,
0100
1000
0001
0100
0020
0000
0000
0000
,
0000
0000
0100
0130
0000
0000
0010
0000
,
0100
0001
0200
0320
,
2030
0000
3010
0010
0100
0000
0001
0000
,
0100
0001
0100
0001
0010
0000
0100
0000
,
1000
0100
1000
0010
1000
0000
0001
0000
,
0100
0010
0100
0010
1000
0000
0001
0000
,
0100
0000
0001
1000
0000
0001
0000
1000
,
0000
0100
0000
0010
0000
0001
0000
1000
,
0000
0010
0000
1000
0001
0000
0000
0100
,
0010
0000
0000
0000
1001
0000
0000
0002
,
2000
3003
0010
0100
,
0001
1000
0001
1000
0100
0000
0010
0000
,
0001
1000
0100
1000
0001
0000
0100
0000
,
0020
0000
0230
0000
0302
0000
0000
1000
,
1003
0000
0000
0001
1000
0000
0010
0020
,
0000
0230
0000
0302
0000
0000
0000
0000
,
2003
0000
3020
0000
0230
0000
0301
1000
,
0000
0000
0000
1001
0000
0000
0000
0010
,
0000
1000
0001
1000
0020
0000
0000
0130
,
0001
0100
0001
0010
0100
1000
0100
0010
,
0001
1000
0001
1000
0020
0000
0000
0000
,
0000
0000
0000
0030
;

//---------------dance-single - ----------------
#NOTEDATA:;
#CHARTNAME:;
#STEPSTYPE:dance-single;
#DESCRIPTION:;
#CHARTSTYLE:;
#DIFFICULTY:Easy;
#METER:4;
#RADARVALUES:0.321414,0.351598,0.091324,0.232462,0.000000,232.000000,11.000000,28.000000,0.000000,0.000000,0.000000,0.000000,0.000000,0.321414,0.351598,0.091324,0.232462,0.000000,232.000000,11.000000,28.000000,0.000000,0.000000,0.000000,0.000000,0.000000;
#CREDIT:;
#NOTES:
0000
0000
0000
0000
,
0000
0000
0000
0000
,
0000
0000
0000
0000
,
0000
0000
0001
1000
,
0001
0100
0100
0000
,
0010
0010
1000
0001
,
0100
0010
1000
0000
,
0001
0100
0001
0000
,
1000
1000
0010
0000
,
0010
0000
0010
0100
,
0010
1000
0001
1000
,
1001
1001
0110
0100
,
0001
0100
0110
0010
,
1000
1001
1001
0001
,
1000
0010
0010
0000
,
0000
0000
0101
0000
0101
0000
0000
0100
,
0000
0000
0000
1001
0000
0000
0000
0200
,
0000
0000
0000
0310
1000
0000
0001
0000
,
0000
1000
0001
0100
,
0001
1000
0000
0000
0010
0000
0000
0000
,
0001
0000
0100
0100
,
0010
0000
1000
1000
,
0001
0000
0100
0100
,
0010
0000
0000
0000
0100
0000
0000
0002
,
0000
0003
0100
0000
,
0001
1000
0020
0000
,
0000
0000
0130
0100
0000
0000
0001
0000
,
1000
0010
0200
0000
,
0000
0000
0310
0000
,
0100
0000
0001
0000
,
1000
0000
0001
0000
,
0100
0000
0010
0010
,
0100
0000
0100
0001
0000
1000
0000
0010
,
0000
0010
0000
2000
0000
0000
0000
0000
,
0000
0000
3010
0000
,
0010
0000
0100
0000
,
0100
0000
0010
1000
,
1000
0000
0001
0100
,
0100
0000
0001
0010
,
0010
0000
0001
0000
2000
0000
0000
0001
,
3001
0000
1000
1000
,
0001
0100
0000
0000
,
0001
0000
0001
0000
1000
0000
0000
0200
,
0000
0000
0000
0320
0000
0000
0000
0032
,
0000
0000
0000
0003
0100
0000
0000
0000
,
0001
0010
1000
0100
,
0001
0010
0100
0100
,
0010
0010
0002
2003
,
3001
1000
0001
0000
0100
0000
0100
0000
,
0010
1000
0010
0010
,
1000
0001
1000
0000
0020
0000
0000
0000
,
1030
1000
0001
1000
,
0000
0001
0010
0100
,
1000
0100
0010
0001
,
1000
0001
0200
0000
,
0000
0000
0010
0310
0000
0000
0010
0000
,
0100
0001
0200
0302
,
2003
3010
0100
0000
,
0010
0000
1000
0000
,
0001
0000
1000
0001
,
0100
0010
0100
0000
0010
0000
1000
0000
,
0001
0000
0001
1000
0000
0100
0000
1000
,
0000
0010
0000
0001
0000
1000
0000
0100
,
0000
0010
0000
0100
0100
0000
0000
0010
,
0010
0000
0000
0000
1001
0000
0000
0002
,
2000
3003
0010
0100
,
0001
0001
1000
0010
,
0100
0100
0001
0100
,
0002
0000
2003
0000
3020
0000
0000
0100
,
0130
0000
0000
0000
0001
0000
0000
2000
,
0000
3002
0000
0203
0000
0000
0000
0000
,
0310
0000
0020
0000
0230
0000
0301
1000
,
0000
0000
0000
1001
0000
0000
0000
0010
,
0000
1000
0000
0010
0020
0000
0000
0130
,
0010
0010
0100
0100
,
0001
0001
2000
0000
,
0000
0000
0000
0000
,
3000
0000
0000
0000
;

//---------------dance-single - ----------------
#NOTEDATA:;
#CHARTNAME:;
#STEPSTYPE:dance-single;
#DESCRIPTION:;
#CHARTSTYLE:;
#DIFFICULTY:Beginner;
#METER:2;
#RADARVALUES:0.218229,0.255708,0.058115,0.207555,0.000000,152.000000,7.000000,25.000000,0.000000,0.000000,0.000000,0.000000,0.000000,0.218229,0.255708,0.058115,0.207555,0.000000,152.000000,7.000000,25.000000,0.000000,0.000000,0.000000,0.000000,0.000000;
#CREDIT:;
#NOTES:
// measure 0
0000
0000
0000
0000
,  // measure 1
0000
0000
0000
0000
,  // measure 2
0000
0000
0000
0000
,  // measure 3
0000
0000
1000
0000
,  // measure 4
1000
0000
0010
0000
,  // measure 5
0100
0000
0001
0000
,  // measure 6
0010
0000
0001
0000
,  // measure 7
1000
0000
1000
0000
,  // measure 8
0001
0000
0100
0000
,  // measure 9
0100
0000
0100
0000
,  // measure 10
0100
0000
1000
0000
,  // measure 11
0100
0100
0110
0000
,  // measure 12
1000
0010
0110
0000
,  // measure 13
0001
0000
1001
0000
,  // measure 14
0001
0000
0100
0000
,  // measure 15
0000
0000
0010
0000
0110
0000
0000
0010
,  // measure 16
0000
0000
0000
1001
0000
0000
0000
0020
,  // measure 17
0000
0000
0000
0030
0010
0000
1000
0000
,  // measure 18
0000
0001
0000
0010
,  // measure 19
1000
0000
0100
0000
,  // measure 20
1000
0000
0010
0000
,  // measure 21
0100
0000
0001
0000
,  // measure 22
1000
0000
0010
0000
,  // measure 23
0100
0000
0000
0000
0010
0000
0000
2000
,  // measure 24
0000
3000
0010
0000
,  // measure 25
1000
0001
0200
0000
,  // measure 26
0000
0310
0000
0000
,  // measure 27
0001
0000
0020
0000
,  // measure 28
0000
0000
0130
0000
,  // measure 29
0010
0000
1000
0000
,  // measure 30
0001
0000
1000
0000
,  // measure 31
0010
0000
0100
0000
,  // measure 32
0010
0000
0000
1000
0000
0001
0000
0000
,  // measure 33
0000
0100
0000
0002
0000
0000
0000
0000
,  // measure 34
0000
0000
0103
0000
,  // measure 35
0100
0000
0010
0000
,  // measure 36
0010
0000
0100
0000
,  // measure 37
0001
0000
1000
0000
,  // measure 38
0010
0000
1000
0000
,  // measure 39
0100
0000
0002
0000
,  // measure 40
1003
0000
0000
0001
,  // measure 41
0000
0010
0000
0000
,  // measure 42
1000
0000
0000
0000
0001
0000
0000
0020
,  // measure 43
0000
0000
0000
0230
0000
0000
0000
2300
,  // measure 44
0000
0000
0000
3000
0010
0000
0000
0000
,  // measure 45
1000
0000
0001
0000
,  // measure 46
1000
0000
0010
0000
,  // measure 47
0100
0000
2000
3002
,  // measure 48
1003
0000
0010
0000
,  // measure 49
0100
0000
0100
0000
,  // measure 50
0001
0000
0200
0000
,  // measure 51
0301
0000
1000
0001
,  // measure 52
0000
1000
0000
0010
,  // measure 53
0000
0010
0000
1000
,  // measure 54
0000
1000
0020
0000
,  // measure 55
0000
0000
0100
0030
0000
0000
0100
0000
,  // measure 56
0000
1000
0020
0030
,  // measure 57
0002
0103
0000
0000
,  // measure 58
0100
0000
0001
0000
,  // measure 59
1000
0000
0001
1000
,  // measure 60
0000
0010
0000
0001
,  // measure 61
0000
0000
1000
0000
0000
0010
0000
0000
,  // measure 62
0000
0100
0000
0000
0000
0001
0000
0000
,  // measure 63
0000
0100
0000
0000
0010
0000
0000
0000
,  // measure 64
0100
0000
0000
0000
1001
0000
0000
2000
,  // measure 65
0002
3003
0100
0000
,  // measure 66
1000
0000
0001
0000
,  // measure 67
0010
0000
1000
0000
,  // measure 68
2000
3000
0200
0000
,  // measure 69
0310
0000
0000
0000
1000
0000
0000
0002
,  // measure 70
0000
2003
0000
3020
0000
0000
0000
0000
,  // measure 71
0130
0000
0020
1030
,  // measure 72
0000
0000
0000
1001
0000
0000
0000
0100
,  // measure 73
0000
0000
0000
0000
0200
0000
0000
0310
,  // measure 74
0000
0100
0000
0010
,  // measure 75
0000
1000
0002
0000
,  // measure 76
0000
0000
0000
0000
,  // measure 77
0003
0000
0000
0000
;
