#TITLE:Hanafubuki;
#SUBTITLE:(IIDX Limited);
#ARTIST:S.S.D.FANTASICA feat Yukko;
#TITLETRANSLIT:;
#SUBTITLETRANSLIT:;
#ARTISTTRANSLIT:;
#CREDIT:;
#BANNER:Hanafubuki (IIDX Limited)-bn.png;
#BACKGROUND:Hanafubuki (IIDX Limited)-bg.png;
#LYRICSPATH:;
#CDTITLE:;
#MUSIC:Hanafubuki (IIDX Limited).mp3;
#OFFSET:-0.140;
#SAMPLESTART:12.100;
#SAMPLELENGTH:12.000;
#SELECTABLE:YES;
#BPMS:0.000=150.000;
#STOPS:;
#BGCHANGES:;

//---------------dance-single - ----------------
#NOTES:
     dance-single:
     :
     Hard:
     13:
     0.761,0.919,0.595,0.259,0.270:
0000
0000
0000
0000
0000
0000
0000
1000
,
0001
0010
0100
1000
0001
0000
0000
1000
,
0010
0100
0001
1000
0010
0000
0000
0100
,
0010
1000
0001
0010
0100
0000
0000
0000
,
0000
0000
1000
0010
1000
0000
0001
0100
,
0001
0000
0000
0000
1000
0000
0001
0100
0010
0000
0000
0000
1010
0000
0000
0000
,
0101
0000
0110
0000
1001
1000
0001
0010
,
0100
0000
1000
0000
0010
0000
0100
0000
0001
0000
1000
0001
0100
0000
0010
0000
,
0200
0000
0000
0000
0010
0000
0000
0000
0310
0000
1000
0001
1000
0000
0001
0100
,
0001
0000
0100
0010
0100
0000
1001
0000
0000
0000
0001
0010
0001
0000
1000
0100
,
1000
0000
0010
0100
0010
0000
1001
0000
0000
0000
0010
0100
0010
0000
1000
0001
,
1000
0000
0001
0100
0001
0000
0100
0000
0001
0000
0010
0000
0100
0000
1000
0000
,
0100
0000
0010
0000
0001
0000
1000
0000
0010
0000
1000
0001
1000
0000
0001
0100
,
0001
0000
0100
0010
0100
0000
1001
0000
0000
0000
0001
0010
0001
0000
1000
0100
,
1000
0000
0010
0100
0010
0000
1001
0000
0000
0000
0010
0100
0010
0000
1000
0001
,
1000
0000
0001
0100
0001
0000
0100
0000
0001
0000
0010
0000
0100
0000
1000
0000
,
0100
0000
0010
0000
0001
0000
1000
0000
0010
0000
0000
1000
0010
0000
0100
0000
,
0001
0000
0000
0000
0010
0000
0100
0000
1000
0000
0000
0001
0010
0000
0100
0000
,
0010
0000
0001
1000
0020
0000
0230
0000
,
0302
0000
0000
0000
2003
0000
0000
0000
3002
0000
0013
0100
1000
0000
1100
0000
,
1001
0000
0001
0000
0010
0000
0001
0000
1000
0000
0000
0001
0100
0000
0010
0000
,
1000
0000
0000
0000
0100
0000
0010
0000
0001
0000
0000
1000
0100
0000
0010
0000
,
0100
0000
1000
0001
0200
0000
0320
0000
,
2030
0000
0000
0000
3002
0000
0000
0000
2003
0000
3100
0010
0001
0000
1001
0000
,
1001
0000
0001
0010
0001
1000
0100
0010
,
0001
1000
0010
0100
0001
0001
1000
1000
,
0010
0010
0100
0100
0010
0001
0010
1000
,
0100
0001
0100
1000
0010
0001
0010
1000
,
0100
0010
0001
0010
1100
0000
1001
0000
,
0101
0110
1010
0101
,
1001
0110
1010
0101
,
1010
0000
0000
0000
1001
0000
0000
0000
1001
0000
0010
0100
0010
0000
1001
0000
,
1001
0000
0001
1000
0100
0000
1000
0001
,
0100
0000
0000
0000
0010
0000
1000
0000
0001
0000
0000
0010
0100
0000
1000
0000
,
0001
0000
0000
0100
0010
0000
1000
0000
0002
0000
0000
0000
0023
0000
0000
0000
,
2030
0000
0000
0000
3200
0000
0000
0000
0302
0000
0013
0100
2000
0000
0001
0000
,
3001
0000
0100
0010
1000
0000
0100
0010
,
0001
0000
0000
0000
1000
0000
0010
0000
0100
0000
0000
0001
1000
0000
0100
0000
,
0010
0000
0001
0010
1100
0000
1001
0000
,
0101
0000
0000
0000
0110
0000
0000
0000
1010
0000
0010
0100
0002
0000
1000
0000
,
1003
1000
0001
0010
1000
0010
0001
0010
,
1000
0010
0001
0100
1000
0100
0001
0100
,
1000
0100
0001
0010
0100
1000
0100
0010
,
0001
0000
1000
0000
0010
0000
0100
0000
0001
0000
0010
0001
0200
0000
0010
0000
,
0310
0000
1000
0001
0100
0000
0001
0010
,
0100
0000
0000
0000
1000
0000
0010
1000
0001
0000
0000
0000
1001
0000
0000
0000
,
0101
0000
0011
0000
1001
0001
1000
0010
,
1000
0000
0100
0000
0010
0000
0001
0000
0010
0000
0100
1000
0002
0000
0100
0000
,
0203
0000
0000
0000
0302
0000
0000
0000
0013
0000
0001
1000
0001
0000
1000
0010
,
1000
0000
0010
0100
0010
0000
1001
0000
0000
0000
1000
0100
1000
0000
0001
0010
,
0001
0000
0100
0010
0100
0000
1001
0000
0000
0000
0100
0010
0100
0000
0001
1000
,
0001
0000
1000
0010
1000
0000
0010
0000
1000
0000
0100
0000
0010
0000
0001
0000
,
0010
0000
0100
0000
1000
0000
0001
0000
0100
0000
0001
1000
0001
0000
1000
0010
,
1000
0000
0010
0100
0010
0000
1001
0000
0000
0000
1000
0100
1000
0000
0001
0010
,
0001
0000
0100
0010
0100
0000
1001
0000
0000
0000
0101
0000
0011
0000
1001
0000
,
0110
1001
1010
0101
0110
1100
0101
0011
,
1100
0000
1001
0000
0110
0000
2002
0000
0000
0000
0000
3003
0000
0000
0000
0000
;

//---------------dance-single - Copied from----------------
#NOTES:
     dance-single:
     Copied from:
     Medium:
     10:
     0.615,0.551,0.205,0.530,0.000:
0000
0000
0000
0000
0000
0000
0000
0100
,
0001
0000
2000
0001
3001
0000
0000
1000
,
0010
0000
0200
0010
0310
0000
0000
1000
,
0001
0000
0020
0100
0130
0000
0000
0000
,
0000
0000
1000
0010
0100
0000
0001
0100
,
0010
0000
1000
0001
0200
0000
0010
0000
,
1000
0301
1002
0103
,
0210
0310
2001
3100
,
0200
0000
0010
0000
0310
0001
0010
0100
,
1000
0100
0010
0001
0000
1000
0010
0100
,
0001
0010
0100
1000
0000
0001
1000
0010
,
0100
0001
1000
0010
1000
0001
0100
0001
,
1000
0100
1000
0001
0100
0001
0010
0100
,
1000
0100
0010
0001
0000
1000
0010
0100
,
0001
0010
0100
1000
0000
0001
1000
0010
,
0100
0001
1000
0010
0001
0010
1000
0010
,
0100
0001
1000
0001
0100
0000
0010
1000
,
0001
0000
0010
0100
1000
0000
0001
1000
,
0010
0000
0010
0100
0002
0000
2003
0000
,
3002
0000
0203
0000
0302
0000
0003
1000
,
1000
0001
0000
0001
0100
0000
0100
0001
,
1000
0000
0100
1000
0100
0000
0010
0001
,
0100
0000
0010
1000
0200
0000
0320
0000
,
0032
0000
2003
0000
3020
0100
0130
0001
,
0001
0000
1000
0001
0100
0000
0101
0000
,
1010
0000
1001
0000
0001
0001
0100
0100
,
0010
0010
1000
1000
0010
0000
0110
0000
,
0101
0000
1001
0000
0110
0010
0000
0100
,
0010
1000
0001
0010
0012
0000
2003
0000
,
3020
0230
0302
2003
,
3020
0032
0203
2300
,
3020
0000
0230
0000
0301
1000
0001
0100
,
0100
0000
0001
0010
1000
0000
1000
0010
,
0001
0000
0010
0100
1000
0000
0010
0100
,
0001
0000
0001
0100
0002
0000
2003
0000
,
3020
0000
0230
0000
0302
1000
1003
0010
,
0010
0000
0100
0001
0010
0000
0010
0001
,
0100
0000
0010
1000
0100
0000
0010
0001
,
1000
0000
0010
0100
0020
0000
2030
0000
,
3002
0000
0203
0000
0320
1000
1030
0001
,
0001
0000
1000
0010
0200
0000
0001
0000
,
0001
0000
0301
0100
2000
0000
0100
0000
,
0100
0000
3100
0001
1001
0000
0101
0000
,
0110
0000
1010
0000
2000
0001
3001
0100
,
0100
0000
0010
1000
0001
0000
1000
0001
,
0100
0000
0010
1000
0001
0000
1001
0000
,
0110
0000
1001
0000
1000
0001
0100
0001
,
0010
0001
1000
0010
0200
0000
0302
0000
,
2003
0000
3020
0000
0130
0001
0010
0100
,
1000
0100
0010
0001
0000
1000
0010
0100
,
0001
0010
0100
1000
0000
0001
1000
0010
,
0100
0001
1000
0010
0001
0010
1000
0001
,
0100
0010
0100
0001
1000
0001
0010
0100
,
1000
0100
0010
0001
0000
1000
0010
0100
,
0001
0010
0100
1000
0000
0001
1000
0010
,
0100
0001
0100
0010
1000
1000
0001
0001
,
0100
0100
0001
2002
0000
3003
0000
0000
;

//---------------dance-single - Copied from Copied f----------------
#NOTES:
     dance-single:
     Copied from Copied f:
     Easy:
     7:
     0.432,0.459,0.130,0.454,0.000:
0000
0000
0000
0000
0000
0000
0000
1000
,
0001
0000
0000
1000
0001
0000
0000
0100
,
0010
0000
0000
0100
0010
0000
0000
1000
,
0001
0000
0000
0100
0010
0000
0000
0000
,
0000
0100
0001
1000
,
0010
0000
1000
0001
0100
0000
0010
0000
,
1000
0001
0002
0103
,
0020
1030
0002
0103
,
0200
0010
0320
0130
,
0010
0000
1000
0001
0000
0000
1000
0000
,
0010
0000
0100
0001
0000
0000
0010
0000
,
0100
1000
0001
0010
,
1000
0100
0001
0010
,
0100
0000
1000
0001
0000
0000
1000
0000
,
0010
0000
0100
0001
0000
0000
1000
0000
,
0001
0100
0010
0001
,
0100
0000
1000
0000
0010
0000
0000
1000
,
0001
0000
0100
0000
0010
0000
0000
0100
,
0001
0010
0002
0023
,
0230
2300
0002
0000
,
0000
3003
0100
0000
0100
0000
0010
1000
,
0010
0000
1000
0000
1000
0000
0001
1000
,
0001
0100
0100
0010
,
0010
2000
0002
0000
,
0000
3000
0103
0100
0100
0000
1001
0000
,
0110
1001
0202
0000
,
0000
0000
0000
0303
1010
0000
0110
0000
,
0101
1001
0220
0000
,
0000
0030
0301
0001
0002
0000
1003
0000
,
2000
3010
0020
0130
,
0200
0301
0002
1003
,
2000
0000
3001
0000
0001
0000
0000
0100
,
0100
0000
0001
0100
1000
0000
1000
0100
,
0001
0010
0100
1000
,
0100
0010
0002
0203
,
0320
0000
2030
0000
3200
0000
0300
1000
,
1000
0000
0001
0010
0100
0000
0100
0010
,
0001
1000
0100
0010
,
0001
0000
0010
0010
0020
0000
0032
0000
,
0023
0000
0230
0000
2300
0000
3000
0001
,
0001
0000
0100
0100
0200
0000
0000
0000
,
0000
0000
0310
0010
0020
0000
0000
0000
,
0000
0000
1030
1000
1000
0000
1001
0000
,
0110
0000
0101
0000
2000
0000
0000
3001
,
0001
0000
0001
1000
0001
0000
1000
0001
,
1000
0000
0010
0100
0020
0000
1000
0000
,
1000
1000
1030
0001
,
0100
0010
2000
3002
,
0203
0320
2030
3010
,
0010
0000
1000
0001
0000
0000
1000
0000
,
0010
0000
0100
0001
0000
0000
0010
0000
,
0100
1000
0001
0010
,
1000
0100
0001
0010
,
0100
0000
1000
0001
0000
0000
1000
0000
,
0010
0000
0100
0001
0000
0000
1000
0000
,
0001
0100
0010
1000
,
0001
0001
1000
2000
0000
3000
0000
0000
;

//---------------dance-single - Copied from Copied f----------------
#NOTES:
     dance-single:
     Copied from Copied f:
     Beginner:
     2:
     0.275,0.306,0.032,0.216,0.000: // measure 1
0000
0000
0000
0000
,  // measure 2
0001
0000
1000
0000
,  // measure 3
0010
0000
0100
0000
,  // measure 4
0001
0000
1000
0000
,  // measure 5
0000
0000
0001
0000
,  // measure 6
1000
0000
0010
0010
,  // measure 7
1000
1000
0002
0003
,  // measure 8
0000
0000
1000
0001
,  // measure 9
1000
0010
0100
0000
,  // measure 10
0000
0000
0001
1000
0000
0000
0000
0000
,  // measure 11
0000
0000
1000
0001
0000
0000
0000
0000
,  // measure 12
0000
0000
0001
0010
,  // measure 13
0100
1000
0000
0000
,  // measure 14
0000
0000
0001
0010
0000
0000
0000
0000
,  // measure 15
0000
0000
0010
0100
0000
0000
0000
0000
,  // measure 16
0000
0000
1000
0100
,  // measure 17
0010
0000
0001
0000
0000
0000
0000
0010
,  // measure 18
0100
0000
0000
0000
0000
0000
0000
1000
,  // measure 19
0001
0000
1000
0010
,  // measure 20
1000
0000
0001
0000
0200
0000
0000
0300
,  // measure 21
0000
0000
0010
0000
0010
0000
0000
1000
,  // measure 22
0001
0000
0100
0000
0100
0000
0000
0001
,  // measure 23
1000
0010
0100
0100
,  // measure 24
0010
2000
0002
0000
,  // measure 25
0000
3000
0103
0000
0010
0000
1000
0000
,  // measure 26
0001
0100
0002
0000
,  // measure 27
0000
0000
1003
0010
,  // measure 28
0100
0001
0200
0000
,  // measure 29
0000
0000
0301
0001
0002
0000
0003
0000
,  // measure 30
0020
0030
0200
0300
,  // measure 31
2000
3000
0002
0003
,  // measure 32
0200
0000
0300
0000
0001
0000
0000
1000
,  // measure 33
1000
0001
1000
0001
,  // measure 34
1000
0010
0100
0001
,  // measure 35
0100
0010
1000
0001
,  // measure 36
0100
0000
0010
0000
0200
0000
0300
0010
,  // measure 37
0010
0100
0001
1000
,  // measure 38
0010
0100
0001
0010
,  // measure 39
0100
1000
0010
0100
,  // measure 40
0001
1000
0002
0000
,  // measure 41
0000
1003
2000
0000
,  // measure 42
0000
3001
0002
0000
,  // measure 43
0000
1003
0001
1001
,  // measure 44
1001
1001
0200
0000
,  // measure 45
0300
0001
1000
0001
,  // measure 46
0100
0010
0100
0010
,  // measure 47
0100
0010
0200
0000
,  // measure 48
0300
0000
0001
0001
,  // measure 49
1000
1000
0020
0030
,  // measure 50
0000
0000
1000
0001
0000
0000
0000
0000
,  // measure 51
0000
0000
0100
0010
0000
0000
0000
0000
,  // measure 52
0000
0000
0001
0010
,  // measure 53
0100
1000
0000
0000
,  // measure 54
0000
0000
1000
0001
0000
0000
0000
0000
,  // measure 55
0000
0000
0100
0010
0000
0000
0100
0000
,  // measure 56
0001
0010
0100
1000
,  // measure 57
1000
0001
1000
0002
0000
0003
0000
0000
;
