#VERSION:0.81;
#TITLE:Hallelujah;
#SUBTITLE:;
#ARTIST:SOUND HOLIC feat. Nana Takahashi;
#TITLETRANSLIT:;
#SUBTITLETRANSLIT:;
#ARTISTTRANSLIT:;
#GENRE:;
#ORIGIN:;
#CREDIT:;
#BANNER:Hallelujah-bn.png;
#BACKGROUND:Hallelujah-bg.png;
#PREVIEWVID:;
#JACKET:Hallelujah-jacket.png;
#CDIMAGE:;
#DISCIMAGE:;
#LYRICSPATH:;
#CDTITLE:;
#MUSIC:Hallelujah.mp3;
#OFFSET:-0.120000;
#SAMPLESTART:61.600021;
#SAMPLELENGTH:12.000000;
#SELECTABLE:YES;
#BPMS:0.000=150.020;
#STOPS:;
#DELAYS:;
#WARPS:;
#TIMESIGNATURES:0.000=4=4;
#TICKCOUNTS:0.000=4;
#COMBOS:0.000=1;
#SPEEDS:0.000=1.000=0.000=0;
#SCROLLS:0.000=1.000;
#FAKES:;
#LABELS:0.000=Song Start;
#BGCHANGES:;
#KEYSOUNDS:;
#ATTACKS:
;

//---------------dance-single - ----------------
#NOTEDATA:;
#CHARTNAME:;
#STEPSTYPE:dance-single;
#DESCRIPTION:;
#CHARTSTYLE:;
#DIFFICULTY:Hard;
#METER:14;
#RADARVALUES:0.709065,0.701358,0.243950,0.253333,0.426913,476.000000,26.000000,27.000000,0.000000,0.000000,0.000000,0.000000,0.000000,0.709065,0.701358,0.243950,0.253333,0.426913,476.000000,26.000000,27.000000,0.000000,0.000000,0.000000,0.000000,0.000000;
#CREDIT:;
#NOTES:
// measure 0
0000
0000
0000
0000
,  // measure 1
0100
0010
1000
0001
0100
0001
1000
0010
,  // measure 2
0200
0000
0320
0000
2030
0000
0000
3100
,  // measure 3
0010
0000
0000
0000
0001
0000
1000
0000
0100
0000
0010
0001
0010
0000
0001
0000
,  // measure 4
1000
0010
0100
0010
0020
0000
0000
0000
,  // measure 5
1030
0001
0010
0100
1000
0010
0100
0010
1000
0001
0100
0001
0010
0100
1000
0100
,  // measure 6
0010
0000
0001
0000
1000
0010
0000
0100
0000
0000
0010
1000
0000
0010
0100
0010
,  // measure 7
0100
0000
0001
0000
1000
0100
0000
0010
0000
0000
0001
1000
0000
0100
1000
0100
,  // measure 8
0010
0000
0001
0000
1000
0001
0000
1000
0000
0000
0010
0100
0000
0001
0100
0001
,  // measure 9
1000
0000
0010
0000
0100
0001
0000
0000
0101
0000
0000
0000
1001
0000
0000
0000
,  // measure 10
0010
0000
1000
0000
0001
0100
0000
0010
0000
0000
0100
0001
0000
0100
0010
0100
,  // measure 11
0010
0000
1000
0000
0001
0010
0000
0100
0000
0000
1000
0001
0000
0010
0001
0010
,  // measure 12
0100
0000
1000
0000
0001
1000
0000
0001
0000
0000
0100
0010
0000
1000
0010
1000
,  // measure 13
0001
0000
1000
0000
0100
0010
0000
0001
0000
0000
1000
0001
0000
0100
0010
0100
,  // measure 14
0001
0010
1000
0010
0001
0000
1000
0010
,  // measure 15
0001
0010
1000
0000
0001
0100
0001
1000
,  // measure 16
0010
0000
0010
1000
0000
1010
0000
0010
,  // measure 17
0000
0000
0100
0000
0010
0000
1000
0000
0000
0000
0001
1000
0001
0000
1000
0000
,  // measure 18
0001
0100
1000
0100
0001
0000
1000
0100
,  // measure 19
0001
0000
0100
0000
1000
0100
1000
0000
0010
0000
0100
0000
0010
0000
1000
0000
,  // measure 20
0010
1000
0010
0000
0100
0001
0100
0000
0010
1000
0001
0000
0100
0001
1000
0000
,  // measure 21
0010
1000
0010
0000
0100
0001
1000
0000
0010
0100
0010
0000
0100
0000
0100
0000
,  // measure 22
0001
0000
1000
0000
0100
0000
0010
0000
0001
0000
1000
0001
0000
0000
0010
0000
,  // measure 23
0001
0000
0010
0000
0100
0000
1000
0000
0001
0000
1000
0010
0000
0000
0100
0000
,  // measure 24
0010
0000
1000
0000
0001
0000
0100
0000
0010
0000
1000
0100
0000
0000
0010
0000
,  // measure 25
0001
0000
0000
0101
0000
0000
0001
0000
1000
0000
0000
1100
0000
0000
0100
0000
,  // measure 26
0010
0000
0001
0000
0010
0000
0100
0000
1000
0000
0001
1000
0000
0000
0100
0000
,  // measure 27
1000
0000
0100
0000
0010
0000
0001
0000
1000
0000
0001
0100
0000
0000
0010
0000
,  // measure 28
0100
0000
0000
1010
0000
0000
0100
0000
0001
0000
0000
0101
0000
0000
0010
0000
,  // measure 29
1000
0001
0100
0000
0001
1000
0100
0000
0010
0001
1000
0000
0100
0000
0010
0000
,  // measure 30
0002
0000
2000
0003
,  // measure 31
0020
3000
0000
0130
0100
0001
0001
1000
,  // measure 32
2000
0000
0200
3000
,  // measure 33
0020
0000
0300
0000
0030
0001
0010
0100
,  // measure 34
1100
0000
0100
0020
0000
0031
0010
0100
,  // measure 35
1100
0000
0100
0020
0000
0031
0010
0100
,  // measure 36
1100
0000
1001
0000
,  // measure 37
1010
0000
0000
0101
0000
0000
0110
0000
1001
0000
0000
0000
0110
0000
0000
0000
,  // measure 38
0001
0010
0100
1000
0010
0100
0001
0010
0100
0000
1000
0000
0010
0000
0100
0000
,  // measure 39
1000
0100
0110
0000
0010
1000
1010
0000
,  // measure 40
0010
0100
0001
0020
0000
0031
0010
1000
,  // measure 41
0010
0001
0100
0020
0000
1030
0010
0100
,  // measure 42
0010
0000
0000
1000
0010
0000
0100
0000
0001
0000
0100
0000
1000
0000
0100
0000
,  // measure 43
0010
1000
1100
0000
0010
0001
0101
0000
,  // measure 44
1000
0010
0100
2000
0000
3100
0010
1000
,  // measure 45
0001
0010
0001
0200
0000
0310
1000
0010
,  // measure 46
0100
0010
0100
0000
0010
0100
0010
0000
1000
0000
0100
0000
0001
0000
1000
0000
,  // measure 47
0010
0001
0100
1000
0002
0000
0023
0000
,  // measure 48
2030
0000
3000
0000
0010
0010
1000
1000
,  // measure 49
0001
0000
0001
0100
0000
0000
0010
0000
1000
0000
0001
0000
0010
0000
0100
0000
,  // measure 50
1000
0000
0100
0010
0000
0000
0000
0000
0001
0000
1000
0000
0010
0000
1000
0000
,  // measure 51
0100
0000
0010
0001
0010
0000
0100
0000
2000
0000
0000
0000
0001
0000
0000
0000
,  // measure 52
3020
0000
0000
0000
1030
0010
0100
0010
,  // measure 53
0100
0000
0001
0010
0000
0000
0100
0000
1000
0000
0100
0000
0010
0000
0001
0000
,  // measure 54
0011
0000
1100
0000
0100
0010
0001
0010
,  // measure 55
0100
1000
1100
0000
0010
0100
1001
0000
,  // measure 56
0010
0100
0010
0002
0000
0013
0100
1000
,  // measure 57
0100
0001
1000
0200
0000
0310
0001
0100
,  // measure 58
0001
1000
0001
0000
0100
0010
0100
0000
0001
0000
0010
0000
1000
0000
0001
0000
,  // measure 59
0100
1000
1100
0000
0010
0001
0110
0000
,  // measure 60
1000
0010
0100
0020
0000
0130
0001
1000
,  // measure 61
0010
0100
0001
0020
0000
0031
0010
0100
,  // measure 62
2000
0000
0000
0000
0010
0000
0000
0000
3100
0000
1000
0000
0001
0100
0000
0010
,  // measure 63
0000
0000
0100
0001
0000
0100
0010
0100
0010
0000
1000
0000
0010
1000
0000
1000
,  // measure 64
0001
0010
0001
0100
0001
0010
0100
1000
0200
0000
0000
0000
0000
0000
0000
0000
,  // measure 65
0300
0000
0000
0000
;

//---------------dance-single - ----------------
#NOTEDATA:;
#CHARTNAME:;
#STEPSTYPE:dance-single;
#DESCRIPTION:;
#CHARTSTYLE:;
#DIFFICULTY:Medium;
#METER:11;
#RADARVALUES:0.517389,0.487901,0.093827,0.215802,0.065679,353.000000,10.000000,23.000000,0.000000,0.000000,0.000000,0.000000,0.000000,0.517389,0.487901,0.093827,0.215802,0.065679,353.000000,10.000000,23.000000,0.000000,0.000000,0.000000,0.000000,0.000000;
#CREDIT:;
#NOTES:
0000
0000
0000
0000
,
0000
0000
0000
0000
,
0000
0000
0000
0000
,
0000
0000
0000
0000
,
0000
0000
0000
0000
,
0000
0000
0000
0000
,
1000
0001
1000
0000
0010
1000
0010
0000
,
0100
0001
1000
0000
0100
0010
0001
0000
,
0010
0100
1000
0000
0001
1000
0001
0000
,
1000
0010
0100
0000
0110
0000
1001
0000
,
0010
1000
0001
1000
0010
0100
0010
0100
,
0001
0010
0001
0010
0001
1000
0100
1000
,
0010
0100
0001
1000
0100
0010
0001
0010
,
0001
1000
0100
1000
0002
0000
0000
0000
,
1003
0010
1000
0010
0100
0000
0001
0010
,
0001
0010
0100
0000
1000
0001
1000
0001
,
0100
0000
0010
0200
0000
0302
0000
2003
,
0000
3010
0100
0010
0000
1001
0000
0000
,
0001
0100
0001
0100
0010
0000
1000
0100
,
1000
0100
0010
0000
0001
0010
0100
1000
,
0001
0000
0100
0020
0000
2030
0000
3001
,
0100
0100
0001
0001
0100
0100
0010
0010
,
1000
0000
0010
0000
1000
0000
0010
0000
0100
0000
0000
0010
0000
0000
0100
0000
,
0001
0000
0100
0000
0001
0000
0010
0000
0100
0000
0000
1000
0000
0000
0100
0000
,
0010
0000
0100
0000
0010
0000
0001
0000
0100
0000
0000
0010
0000
0000
1000
0000
,
0001
0000
0000
0100
0000
0000
0001
0000
0010
0000
0000
0100
0000
0000
1000
0000
,
0100
0000
0010
0000
0100
0000
1000
0000
0100
0000
0000
0010
0000
0000
0001
0000
,
0010
0000
0100
0000
0010
0000
0001
0000
0010
0000
0000
0100
0000
0000
1000
0000
,
0001
0000
0000
1000
0000
0000
0010
0000
0100
0000
0000
0001
0000
0000
0010
0000
,
0200
0000
0000
0310
0001
1000
0100
1000
,
0020
0000
0230
0000
,
0302
0000
0000
1003
0001
1000
0010
0100
,
0020
0000
2030
0000
,
0002
0000
0000
0000
3003
0010
0100
0010
,
1001
0000
0100
0010
0000
0100
0001
0100
,
1001
0000
0000
0200
0000
0310
0100
0010
,
1001
0000
0110
0000
,
0100
0000
0000
0010
0000
0000
1000
0000
0001
0000
0000
0000
0110
0000
0000
0000
,
0001
0010
0100
1000
0001
0010
0001
0100
,
0010
0100
0100
0000
0010
1000
1000
0000
,
0010
0100
0001
0001
0000
1000
0100
1000
,
0100
0010
0001
0010
0000
0100
1000
0100
,
0010
0000
0000
0000
0001
1000
0010
1000
,
0010
0100
0100
0000
0001
1000
1000
0000
,
0010
0100
0010
0010
0000
1000
0001
1000
,
0001
0010
0001
0001
0000
1000
0010
0100
,
0200
0000
0000
0000
0301
0100
0001
1000
,
0010
1000
0001
0010
0002
0000
0023
0000
,
0230
0000
0300
0000
1000
0010
1000
0001
,
0100
0000
0000
0001
0000
0000
1000
0000
0010
0000
1000
0000
0010
0000
0100
0000
,
0010
0000
0000
1000
0000
0000
0000
0000
0001
0000
1000
0000
0001
0000
0010
0000
,
0001
0000
0000
1000
0000
0000
0100
0000
0020
0000
0000
0000
0032
0000
0000
0000
,
2003
0000
3000
0000
0010
0100
0001
0100
,
0010
0000
0000
0010
0000
0000
0100
0000
0010
0000
1000
0000
0001
0000
0100
0000
,
0110
0000
1001
0000
1000
0100
1000
0010
,
0100
0010
0010
0000
0100
0001
0001
0000
,
0100
0010
1000
1000
0000
0001
0010
0001
,
0010
0100
1000
0100
0000
0010
0001
0100
,
0010
0000
0100
0000
0001
0010
0001
0100
,
0010
0100
0100
0000
0010
1000
1000
0000
,
0010
0100
0001
0001
0000
1000
0100
1000
,
0100
0010
0001
0010
0000
0100
1000
0100
,
0020
0000
0000
0000
0031
0100
0001
0000
,
1000
0001
1000
0000
0010
1000
0001
0000
,
0100
0001
0010
0100
2000
0000
0000
0000
,
3000
0000
0000
0000
;

//---------------dance-single - ----------------
#NOTEDATA:;
#CHARTNAME:;
#STEPSTYPE:dance-single;
#DESCRIPTION:;
#CHARTSTYLE:;
#DIFFICULTY:Easy;
#METER:4;
#RADARVALUES:0.365926,0.426092,0.093827,0.356543,0.004691,225.000000,10.000000,38.000000,0.000000,0.000000,0.000000,0.000000,0.000000,0.365926,0.426092,0.093827,0.356543,0.004691,225.000000,10.000000,38.000000,0.000000,0.000000,0.000000,0.000000,0.000000;
#CREDIT:;
#NOTES:
0000
0000
0000
0000
,
0000
0000
0000
0000
,
0000
0000
0000
0000
,
0000
0000
0000
0000
,
0000
0000
0000
0000
,
0000
0000
0000
0000
,
1000
0001
0100
0001
,
0010
0100
1000
0010
,
0100
0010
1000
0001
,
0100
0010
1001
1001
,
0010
1000
0001
0100
,
0010
1000
0100
0010
,
1000
0010
1000
0001
,
0100
0010
0200
0000
,
0310
0010
0100
0001
,
0001
1000
0010
0010
,
1000
0000
0001
2000
0000
3002
0000
0203
,
0000
0300
0010
0010
0000
1001
0000
0000
,
0001
0001
0010
0100
,
0100
1000
0010
0100
,
0010
0000
1000
0002
0000
2003
0000
3002
,
0100
0100
0100
0103
,
0010
0000
1000
0000
0100
0010
0010
0000
,
0001
0000
0001
0000
0100
0010
0010
0000
,
1000
0000
0001
0000
1000
0100
0100
0000
,
0020
0031
0002
0103
,
0010
0000
1000
0000
0010
0100
0100
0000
,
0001
0000
0010
0000
0100
1000
1000
0000
,
0002
1003
2000
3010
,
0200
0000
0301
1000
,
0002
0000
2003
0000
,
3200
0000
0000
0300
0020
0000
2030
0000
,
3002
0000
2003
0000
,
0002
0000
3003
0000
,
2002
3003
0000
0000
0000
0000
0000
0000
,
0220
0330
0000
0000
0000
0000
0000
0000
,
2002
3003
0000
0000
0220
0330
0000
0000
,
0100
0000
0000
0010
0000
0000
0100
0000
0100
0000
0000
0000
0110
0000
0000
0000
,
0000
0000
0001
1000
,
0010
0000
0100
0000
0010
0010
0000
0000
,
0010
0000
0001
0001
0000
1000
1000
0000
,
0100
0100
0000
0001
0000
1000
0001
0000
,
0100
0000
0001
0100
,
0010
0000
0100
0000
0000
1000
1000
0000
,
0001
0000
0100
0100
0000
0001
0001
0000
,
1000
1000
0000
0010
0000
0100
0000
0010
,
0020
0000
0130
0100
,
0010
0010
2000
3002
,
0203
0300
0001
1000
,
0001
1000
0010
0100
,
0002
1003
0001
0100
,
0010
1000
0200
0320
,
0032
0003
1000
0010
,
0100
0001
1000
0001
,
1001
0110
1000
0001
,
0100
0000
0010
0000
0100
0100
0000
0000
,
0100
0000
1000
1000
0000
0001
0001
0000
,
0010
0010
0000
1000
0000
0001
1000
0000
,
0010
0100
0001
1000
,
0010
0000
0100
0000
0010
0010
0000
0000
,
0010
0000
0001
0001
0000
1000
1000
0000
,
0100
0100
0000
0001
0000
1000
0001
1000
,
0002
0000
0103
0100
,
0010
0010
1000
1000
,
0001
0000
0200
0000
0000
0000
0000
0300
;

//---------------dance-single - ----------------
#NOTEDATA:;
#CHARTNAME:;
#STEPSTYPE:dance-single;
#DESCRIPTION:;
#CHARTSTYLE:;
#DIFFICULTY:Beginner;
#METER:2;
#RADARVALUES:0.226525,0.395657,0.065679,0.300247,0.000000,130.000000,7.000000,32.000000,0.000000,0.000000,0.000000,0.000000,0.000000,0.226525,0.395657,0.065679,0.300247,0.000000,130.000000,7.000000,32.000000,0.000000,0.000000,0.000000,0.000000,0.000000;
#CREDIT:;
#NOTES:
0000
0000
0000
0000
,
0000
0000
0000
0000
,
0000
0000
0000
0000
,
0000
0000
0000
0000
,
0000
0000
0000
0000
,
0000
0000
0000
0000
,
0001
0000
0010
0000
,
0100
0000
0001
0000
,
0010
0000
0001
0000
,
0010
0000
0100
1001
,
0100
0000
1000
0000
,
0100
0000
0010
0000
,
0001
0000
0001
0000
,
0010
0000
0020
0000
,
0130
0000
0010
0000
,
1000
0000
0100
0000
,
0001
0000
1000
0002
0000
2003
0000
3020
,
0000
0030
0000
0100
0000
0100
0000
0000
,
1000
0000
0100
0000
,
0010
0000
0100
0000
,
0100
0000
0000
2000
0000
3002
0000
2003
,
0000
0000
0000
3000
,
0100
0000
0010
0000
,
1000
0000
0010
0000
,
0001
0000
0001
0000
,
0200
0300
2000
3000
,
0100
0000
0100
0000
,
1000
0000
0010
0000
,
2000
3000
0002
0003
,
0020
0000
1030
0001
,
2000
0000
3002
0000
,
0023
0000
0000
0030
0200
0000
0300
0000
,
2000
0000
3002
0000
,
2000
0000
3003
0000
,
2002
3003
0000
0000
0000
0000
0000
0000
,
2002
3003
0000
0000
0000
0000
0000
0000
,
2002
3003
0000
0000
2002
3003
0000
0000
,
0100
0000
0000
0010
0010
0000
1010
0000
,
0000
0000
1000
0000
,
0100
0000
0100
0000
,
0100
0000
0000
0001
,
0000
0010
0000
1000
0000
0001
0000
0000
,
0010
0000
1000
0000
,
0100
0000
0000
0001
,
0000
0000
0000
0010
0000
0000
1000
0000
,
0000
0001
0000
0100
0000
0010
0000
0000
,
0200
0000
0310
0000
,
0100
0000
0001
1000
,
0020
0030
1000
0000
,
0001
0000
0100
0000
,
1000
0000
0010
0000
,
0100
0000
0010
0100
,
2000
3000
0001
0000
,
0010
0000
0001
0000
,
0010
0110
0001
0000
,
0010
0000
0000
0000
0000
0010
0000
0000
,
0010
0000
0000
0001
0000
0000
1000
0000
,
0000
0100
0000
0001
0000
1000
0000
0000
,
0100
0000
1000
0000
,
0100
0000
0000
0000
0000
0100
0000
0000
,
0100
0000
0000
1000
0000
0000
0001
0000
,
0000
0010
0000
1000
0000
0001
0000
0000
,
2000
0000
3010
0000
,
0100
0000
0001
0000
,
1000
0000
0020
0000
0000
0000
0000
0030
;
