#VERSION:0.81;
#TITLE:HYMN;
#SUBTITLE:;
#ARTIST:Zutt;
#TITLETRANSLIT:;
#SUBTITLETRANSLIT:;
#ARTISTTRANSLIT:;
#GENRE:;
#ORIGIN:;
#CREDIT:;
#BANNER:;
#BACKGROUND:;
#PREVIEWVID:;
#JACKET:HYMN-jacket.png;
#CDIMAGE:;
#DISCIMAGE:;
#LYRICSPATH:;
#CDTITLE:;
#MUSIC:HYMN.mp3;
#OFFSET:-0.240000;
#SAMPLESTART:115.099953;
#SAMPLELENGTH:12.000000;
#SELECTABLE:YES;
#BPMS:0.000=158.000,
60.000=200.000,
248.000=158.000,
303.750=200.000,
428.000=192.000,
434.000=185.000,
435.500=190.000;
#STOPS:;
#DELAYS:;
#WARPS:;
#TIMESIGNATURES:0.000=4=4;
#TICKCOUNTS:0.000=4;
#COMBOS:0.000=1;
#SPEEDS:0.000=1.000=0.000=0;
#SCROLLS:0.000=1.000;
#FAKES:;
#LABELS:0.000=Song Start;
#BGCHANGES:;
#KEYSOUNDS:;
#ATTACKS:
;

//---------------dance-single - ----------------
#NOTEDATA:;
#CHARTNAME:;
#STEPSTYPE:dance-single;
#DESCRIPTION:;
#CHARTSTYLE:;
#DIFFICULTY:Medium;
#METER:13;
#RADARVALUES:0.617623,0.615751,0.189966,0.072056,0.258747,620.000000,29.000000,11.000000,0.000000,0.000000,0.000000,0.000000,0.000000,0.617623,0.615751,0.189966,0.072056,0.258747,620.000000,29.000000,11.000000,0.000000,0.000000,0.000000,0.000000,0.000000;
#CREDIT:;
#NOTES:
1000
0000
1000
0000
,
0001
0000
0100
0010
,
0010
0000
1000
0000
0100
0000
0010
0000
0001
0000
1000
0000
,
0010
0000
0100
0000
0001
0000
0100
0000
0010
0000
1000
0000
,
0001
0000
0010
0000
,
0100
0000
1000
0001
,
1000
0000
0100
0000
0010
0000
0001
0000
1000
0000
0010
0000
,
0100
0000
1000
0000
0100
0000
0001
0000
0010
0000
0100
0000
,
1000
0001
0100
0000
,
0010
1000
0001
0100
,
0010
0000
0000
1000
0000
0000
0010
0000
0100
0000
0001
0000
,
1000
0000
0100
0000
0010
0000
0001
0000
0010
0000
0100
0000
,
1000
0100
0010
0000
,
0001
1000
0010
0100
,
0001
1000
0002
0000
,
0003
0000
0000
0000
,
1001
1001
1001
0010
,
1000
0001
0010
0100
,
1100
1100
1100
1000
,
0001
0100
0010
0100
,
0001
0000
0010
0000
0100
0000
0010
0000
0001
0000
1000
0000
,
0010
0000
0100
0000
0010
0000
1000
0000
0001
0000
1000
0000
,
0100
0000
0010
0000
0100
0000
1000
0000
0001
0000
0010
0000
,
0100
0000
1000
0000
0010
0000
0100
0000
0010
0000
0100
0000
,
1000
0001
0100
0001
0010
0100
1000
0000
,
0001
1000
0001
0100
0010
0100
0010
0000
,
1000
0001
1000
0100
,
0010
0001
1000
0001
0000
1001
0000
1000
,
0010
1000
0001
0100
0001
0000
0100
0010
,
1000
0010
0100
0001
0010
0000
0100
1000
,
0100
0010
0001
1000
,
0010
0100
0001
1000
0000
1010
0000
0000
,
0001
1000
0020
0000
,
0130
0000
0000
0001
0000
0000
0010
0000
0100
0000
1000
0000
,
0100
0010
0001
0000
,
1000
0001
1000
0001
0000
0101
0000
0000
,
0100
0010
0100
0001
1000
0000
0100
0000
,
0010
0000
0000
0001
0000
0000
1000
0000
0010
0000
0100
0000
,
0010
0000
1000
0001
0010
0000
0100
0000
,
1000
0010
0100
0001
,
1000
0001
1000
0100
0010
0001
0010
0000
,
0001
0010
0100
1000
0010
0100
0010
0000
,
1000
0001
1000
0100
1000
0010
0100
0000
,
0001
0010
0001
0010
0100
1000
0100
0000
,
0010
0001
1000
0001
1000
0010
0100
0000
,
0001
0100
0001
0010
0100
1000
0010
0000
,
0100
0010
0100
0001
0010
0001
1000
0000
,
0001
1000
0100
0010
0100
1000
0010
0000
,
0100
0001
0100
0010
1000
0010
0100
0000
,
0001
0010
0100
1000
0001
0000
0000
0000
,
1000
0000
0000
0010
0000
0000
0100
0001
,
0100
0010
1000
0100
1000
0000
0000
0001
,
0000
0000
0010
0100
1000
0100
0010
0001
,
0010
0000
0000
0100
0000
0000
1000
0010
,
1000
0001
0100
0010
1000
0000
0000
0001
,
0000
0000
0010
0001
0100
0010
1000
0100
,
0010
0000
0000
0001
0000
0000
0001
1000
,
0010
0100
0001
0010
0001
0000
0000
1000
,
0000
0000
0100
0010
0001
0010
0100
1000
,
0100
0000
0000
0010
0000
0000
0001
0100
,
0001
1000
0010
0100
0001
0000
0000
1000
,
0000
0000
0100
1000
0010
0100
0001
0010
,
0000
0000
0000
0000
0000
0000
0000
0000
0100
1000
0000
0000
0010
0100
0000
0000
,
0001
0010
0000
0000
0010
0100
0000
0000
1000
0100
0000
0000
0100
0010
0000
0000
,
0010
0001
0000
0000
0001
1000
0000
0000
1000
0010
0000
0000
0010
0100
0000
0000
,
0100
0001
0000
0000
0001
1000
0000
0000
1000
0010
0000
0000
0100
0010
0000
0000
,
1000
0001
0000
1000
0010
0000
0000
0000
0100
0000
0001
1000
0000
0000
0010
0000
,
1000
0000
0001
0000
0100
0000
0010
0100
0000
0000
0001
0000
1000
0001
0000
0000
,
0100
0000
0010
0000
1000
0000
0001
0000
0100
0001
0000
0000
0000
0000
1000
0000
,
0000
0000
0010
0000
0000
0000
0000
0000
0000
0000
0000
0000
1000
0000
0000
0000
0000
0000
0010
0000
0000
0000
0000
0000
0100
0000
0000
0000
0000
0000
0001
0000
0000
0000
0000
0000
1000
0000
0000
0001
0000
0000
1000
0000
0000
0000
0000
0000
,
0010
0000
1000
0001
0000
0000
0100
0000
0001
0000
1000
0000
0010
0000
0100
0010
,
0000
0000
1000
0000
0001
1000
0000
0000
0010
0000
0100
0000
0001
0000
1000
0000
,
0010
0100
0000
0000
0000
0000
0001
0000
0010
0100
0000
0000
1000
0000
0010
0100
,
0000
0001
0100
0000
0010
1000
0000
0000
0001
0000
0000
2000
0000
0000
0000
0000
,
0000
0000
0000
0000
0000
0000
0000
0000
3001
0000
0000
0001
0000
0000
1000
0000
,
0000
1000
0000
0000
1001
0000
0000
0000
0000
0000
0000
0000
0000
0000
0000
0000
,
0220
0000
0000
0000
0000
0000
0000
0330
,
1000
0100
0000
0100
0000
0010
0000
0010
,
0001
1000
0000
0000
0000
0000
0000
0000
,
0010
1000
0000
0001
1000
0100
0010
0001
,
1000
0100
0000
0010
0000
0001
0000
0010
,
0100
1000
0000
0010
0000
0100
0000
0001
,
1000
0010
0000
1000
0000
0100
0000
0010
,
0001
1000
0000
1010
0000
0110
0000
0010
,
1000
0001
0000
0010
0000
0100
0000
1000
,
0100
0010
0000
0001
0000
0010
0000
0100
,
1000
0001
0000
1001
0000
1000
0000
0001
,
0100
0100
0010
0010
1000
1000
0001
0001
,
0100
0010
0000
1010
0000
0101
0000
0001
,
1000
0100
0000
0110
0000
0011
0000
0001
,
0010
0100
0000
1100
0000
1001
0000
0001
,
1000
0010
0000
0110
0000
0101
0000
0100
,
0010
1000
0000
1001
0000
0101
0000
0100
,
0001
0010
0000
1100
0000
1001
0000
1000
,
0001
0010
0000
0011
0000
0101
0000
0001
,
2000
3002
0023
0230
,
1300
0100
0010
0100
1000
0001
0100
0001
,
1000
0010
1000
0001
0010
0100
0010
0001
,
1000
0010
0100
1000
0100
0010
1000
0001
,
0010
0001
1000
0010
1000
0001
1000
0100
,
0010
0001
1000
0100
0010
0001
0010
0100
,
0010
0001
1000
0001
1000
0010
0100
0001
,
0010
0001
1000
0100
1000
0010
0100
0001
,
0010
0001
1000
0100
1000
0010
0100
0010
,
1001
0000
0000
0000
,
0100
0010
0100
0000
0001
1000
0001
0000
,
0010
0001
0010
0000
0100
1000
0100
0000
,
1000
0001
1000
0000
0010
0100
0010
0000
,
0100
0001
0100
0000
0010
1000
0001
1000
,
0001
1000
0100
0000
,
0010
0000
0000
0001
0000
0000
1000
0000
0100
0000
0010
0000
,
0001
0010
0200
0000
,
0000
0000
0000
0000
,
1300
0001
0010
0000
,
0100
0000
0000
1000
0000
0000
0010
0000
0100
0000
0001
0000
,
1000
0010
0200
0000
,
0000
0000
0000
0000
,
0000
0000
0300
0000
;

//---------------dance-single - ----------------
#NOTEDATA:;
#CHARTNAME:;
#STEPSTYPE:dance-single;
#DESCRIPTION:;
#CHARTSTYLE:;
#DIFFICULTY:Challenge;
#METER:18;
#RADARVALUES:0.971353,1.000000,0.360280,0.288224,1.000000,939.000000,55.000000,44.000000,0.000000,0.000000,0.000000,0.000000,0.000000,0.971353,1.000000,0.360280,0.288224,1.000000,939.000000,55.000000,44.000000,0.000000,0.000000,0.000000,0.000000,0.000000;
#CREDIT:;
#NOTES:
2001
0000
3002
0000
,
0203
0000
0320
2030
,
3002
0000
1003
0000
0100
0000
0010
0000
0001
0000
1000
0000
,
0010
0000
0100
0000
0001
0000
0100
0000
0010
0000
1000
0000
,
0120
0000
2030
0000
,
3002
0000
0023
0230
,
1300
0000
0100
0000
0010
0000
0001
0000
1000
0000
0010
0000
,
0100
0000
1000
0000
0100
0000
0001
0000
0010
0000
0100
0000
,
1002
0103
0120
0000
,
2030
3001
1002
0103
,
0120
0000
0000
1000
0000
0000
0130
0000
0001
0000
0100
0000
,
1000
0000
0100
0000
0010
0000
1000
0000
0100
0000
0001
0000
,
2100
0000
3000
1020
0000
0030
0210
0000
0000
0000
0000
0000
,
0302
0000
0000
2003
0000
0000
3200
0000
0000
0320
0000
0030
,
0012
2003
0020
0000
,
3030
0000
0000
0000
,
1001
1010
0101
0010
,
0100
0100
0010
0100
,
1010
0101
0110
0010
,
1000
0001
0100
0010
,
1000
0000
0010
0000
0110
0000
0100
0000
0001
0000
0101
0000
,
0100
0000
0010
0000
1010
0000
1000
0000
0001
0000
1001
0000
,
1000
0000
0010
0000
0110
0000
0100
0000
0010
0000
0011
0000
,
0001
0000
1000
0000
1100
0000
0100
0000
0001
0000
1001
0000
,
1000
0001
1000
0100
1000
0010
0100
0010
,
0100
0001
0010
0001
1000
0100
1000
0010
,
0100
0001
0100
1000
0100
0001
0100
1000
,
0100
0010
0100
0001
0000
0101
0000
0001
,
0010
0001
1000
0100
1000
0010
0100
0010
,
0100
0001
0010
0001
1000
0100
1000
0010
,
0100
1000
0100
0001
0010
0100
0010
0001
,
0100
1000
0100
0010
0000
1010
0000
0100
,
0001
1000
0100
0010
0001
1000
0100
1000
,
0001
0100
0001
0010
1000
0001
0100
1000
,
0010
1000
0010
0001
0010
0100
0001
0010
,
1000
0010
0001
0100
0000
0110
0010
1000
,
0001
1000
0100
0010
1000
0010
0001
1000
,
0100
1000
0001
0100
1000
0001
0010
0001
,
0010
1000
0001
1000
0100
0001
1000
0010
,
0001
1000
0010
0100
1000
0100
0001
1000
,
0010
1000
0001
0100
0010
0000
1000
0000
0100
0000
0001
0000
1000
0000
0010
0000
,
0001
1000
0010
1000
0100
0000
0010
0000
1000
0000
0001
0000
0100
0000
1000
0000
,
0001
0100
0001
1000
0100
0000
0010
0000
1000
0000
0001
0000
0100
0000
1000
0000
,
0001
0010
0100
1000
0001
0000
0100
0000
1000
0000
0001
0000
0010
0000
1000
0000
,
0001
0100
0001
1000
0100
0000
0010
0000
0100
0000
1000
0000
0010
0000
0100
0000
,
1000
0100
1000
0001
0010
0000
1000
0000
0001
0000
0010
0000
0100
0000
0010
0000
,
0001
0010
0100
0010
0100
0000
1000
0000
0001
0000
0100
0000
1000
0000
0100
0000
,
0010
1000
0010
0100
0001
0000
0010
0000
0100
0000
0001
0000
0100
0000
1000
0000
,
0010
0100
0001
1000
0100
0000
1000
0000
0100
0000
0010
0000
1000
0000
0010
0000
,
0001
1000
0001
1000
0010
0100
0001
1000
0010
0000
0000
0000
0000
0000
0000
0000
,
1000
0001
1000
0001
1000
0000
0010
0100
0010
0100
0010
0000
1000
0001
1000
0001
,
0100
0001
0100
0010
1000
0010
1000
0000
0001
0010
0001
0010
0001
0000
1000
0100
,
1000
0100
1000
0000
0100
0010
0001
0010
0100
1000
0001
0100
0010
1000
0010
0000
,
1000
0001
0100
0001
1000
0000
0010
0100
0001
1000
0100
0000
0010
0001
1000
0100
,
1000
0010
0100
0001
0010
0100
1000
0000
0001
0010
0100
0010
0001
0000
1000
0010
,
0100
0010
1000
0000
0001
0010
1000
0010
0001
0100
1000
0100
0010
0100
0001
0000
,
0100
0001
0100
0001
1000
0000
0010
0100
0010
0100
0001
0000
1000
0010
1000
0001
,
0010
0001
0100
0010
1000
0100
1000
0000
0001
0010
0001
0010
0100
0000
1000
0010
,
1000
0010
0100
0000
0001
1000
0001
0100
0010
0100
1000
0100
0001
0010
0100
0000
,
1000
0001
0100
0010
1000
0000
0010
1000
0001
1000
0100
0000
0010
0001
1000
0100
,
1000
0001
0100
0001
0010
0100
1000
0000
0001
0010
0100
1000
0001
0000
1000
0010
,
0100
0001
1000
0000
0001
0100
1000
0001
0010
1000
0001
0010
1000
0010
0001
0000
,
0000
0000
0000
0000
0000
0000
0000
0000
1000
0001
1000
0000
0010
0100
0010
0000
,
1000
0010
0100
0001
0010
0100
1000
0000
0001
1000
0001
0000
0100
0010
0100
0000
,
0001
0010
0100
1000
0001
0010
0100
0000
1000
0100
0010
0000
0001
0010
0100
0000
,
1000
0010
0100
0001
0010
0100
1000
0000
0001
1000
0001
1000
0010
0100
0010
0100
,
0001
1000
0001
1000
0010
0000
0000
0000
1000
0010
1000
0010
0000
0000
0100
0001
,
0100
0000
0000
0001
0000
0000
1000
0000
0000
0000
0001
0000
0000
0000
0010
0000
0100
0000
1000
0000
0001
0000
0010
0000
0100
0000
0000
0000
0000
0000
1000
0000
0000
0001
0000
0000
1000
0000
0000
0001
0000
0000
0000
0000
0000
0000
0000
0000
,
0100
0000
0000
0010
0000
0000
0100
0000
0000
0001
0000
0000
1000
0000
0000
0000
0010
0000
0000
0000
0100
0000
0001
0000
1000
0000
0010
0000
0100
0000
0010
0000
0000
0000
0000
0000
0000
0000
0000
0000
1000
0000
0010
0000
0000
0000
0000
0000
,
0100
0001
0000
0000
0000
0000
1000
0001
1000
0001
0100
0010
0100
0010
1000
0100
1000
0100
0001
0010
0100
1000
0100
0010
,
0001
0000
0000
1000
0000
0000
0001
0000
0000
1000
0000
0000
0000
0000
0000
0000
0000
0000
0010
0000
0000
0100
0000
0000
0010
0000
0000
0100
0000
0000
0001
0000
0000
0000
1000
0000
0000
0000
0100
0000
0010
0000
0001
0000
1000
0000
0100
0000
,
0010
0000
0000
0000
0000
0000
0001
0000
0000
1000
0000
0000
0001
0000
0000
1000
0000
0000
0000
0000
0000
0000
0000
0000
0010
0000
0000
0100
0000
0000
0010
0000
0000
1000
0000
0000
0001
0000
0000
0000
0100
0000
0000
0000
0010
0000
1000
0000
,
0001
0000
0100
0000
0010
0000
0100
0000
0000
0000
0000
0000
0000
0000
0000
0000
0000
0000
0010
0000
0000
1000
0000
0000
0010
0000
0000
1000
0000
0000
0000
0000
0000
0000
0000
0000
0001
0000
0000
0100
0000
0000
0001
0000
0000
0100
0000
0000
,
0010
0000
1000
0000
0010
0100
0001
0010
0100
1000
0001
1000
0001
0000
0000
0100
0000
0000
0010
0000
1000
0000
0001
0000
,
0100
0000
0000
0000
0001
0000
0000
0000
1000
0000
0000
0000
0010
0000
0000
0000
1000
0000
0000
0000
0001
0000
0000
0000
2002
0000
0000
0000
0000
0000
3003
0000
0000
2020
0000
0000
0000
0000
0000
3030
0000
0000
0202
0000
0000
0000
0000
0000
,
0303
0220
0000
0330
1001
0000
0000
0000
0000
0000
0000
0000
0000
0000
0000
0000
,
2002
0000
0000
0000
0000
0000
0000
3003
,
1000
0001
0000
0001
0000
0001
0000
0001
,
1000
0010
0000
0000
0000
0000
0000
0000
,
0100
0000
0010
0000
0000
0000
0010
0000
1000
0001
1000
0100
0010
0100
0010
0001
,
1000
0010
0000
1010
0000
0101
0000
0010
,
1000
0001
0000
1001
0000
1100
0000
0100
,
1000
0001
0000
1010
0000
0101
0000
0001
,
1000
0100
0000
1001
0000
0110
0000
0010
,
1000
0000
0010
0000
0000
0000
0101
0000
0000
0000
1010
0000
0000
0000
0010
1000
,
0010
1000
0001
0000
0000
0000
0011
0000
0000
0000
1100
0000
0000
0000
0001
0010
,
0100
1000
0001
0000
0000
0000
1001
0000
0000
0000
0010
0000
0000
0000
1000
0000
,
0101
0100
1010
1000
0101
0001
0110
0100
,
1001
0000
0000
0010
0000
0000
0000
0000
0000
0010
1000
0000
0000
0000
0001
0100
0000
0000
0000
0000
0000
0010
0000
0000
,
1000
0000
0000
0100
0000
0000
0000
0000
0000
0010
0001
0000
0000
0000
1000
0100
0000
0000
0000
0000
0000
0010
0000
0000
,
0001
0000
0000
1000
0000
0000
0000
0000
0000
0010
1000
0000
0000
0000
0100
1000
0000
0000
0000
0000
0000
0001
0000
0000
,
1000
0000
0000
0100
0000
0000
0000
0000
0000
0010
0001
0000
0000
0000
1000
0001
0000
0000
0000
0000
0000
0100
0000
0000
,
0010
0000
0000
1000
0000
0000
0000
0000
0000
0001
1000
0000
0000
0000
0010
0100
0000
0000
0000
0000
0000
0001
0000
0000
,
0010
0000
0000
0100
0000
0000
0000
0000
0000
1000
0010
0000
0000
0000
0100
0001
0000
0000
0000
0000
0000
1000
0000
0000
,
0001
0000
0000
0010
0000
0000
0000
0000
0000
0001
1000
0000
0000
0000
0010
0100
0000
0000
0000
0000
0000
0001
0000
0000
,
1000
0000
2020
3030
0202
0303
0022
0033
,
1000
0000
0000
0000
0001
0000
0000
0000
0010
0000
0000
0000
0100
0000
0000
0000
1000
0000
0000
0000
0100
0000
0000
0000
0010
0000
0000
0001
0000
0000
0010
0000
0000
0100
0000
0000
0010
0000
0000
0000
0001
0000
0000
0000
1000
0000
0000
0000
,
0010
0000
0000
0000
1000
0000
0000
0000
0001
0000
0000
0000
0100
0000
0000
0000
0001
0000
0000
0000
1000
0000
0000
0000
0001
0000
0000
0100
0000
0000
0010
0000
0000
0100
0000
0000
0001
0000
0000
0000
0100
0000
0000
0000
1000
0000
0000
0000
,
0100
0000
0000
0000
0010
0000
0000
0000
1000
0000
0000
0000
0001
0000
0000
0000
0010
0000
0000
0000
0100
0000
0000
0000
1000
0000
0000
0100
0000
0000
0010
0000
0000
0001
0000
0000
0100
0000
0000
0000
0010
0000
0000
0000
1000
0000
0000
0000
,
0010
0000
0000
0000
0100
0000
0000
0000
0001
0000
0000
0000
0010
0000
0000
0000
0100
0000
0000
0000
1000
0000
0000
0000
0001
0000
0000
0010
0000
0000
0001
0000
0000
1000
0000
0000
0010
0000
0000
0000
0100
0000
0000
0000
0001
0000
0000
0000
,
0100
0000
0000
0010
0000
0000
1000
0000
0000
0010
0000
0000
0100
0000
0000
0000
0010
0000
0000
0000
0100
0000
0000
0000
0001
0000
0000
1000
0000
0000
0001
0000
0000
1000
0000
0000
0100
0000
0000
0000
0010
0000
0000
0000
0001
0000
0000
0000
,
0100
0000
0000
0001
0000
0000
0010
0000
0000
0001
0000
0000
1000
0000
0000
0000
0010
0000
0000
0000
0100
0000
0000
0000
0001
0000
0000
1000
0000
0000
0010
0000
0000
0100
0000
0000
0010
0000
0000
0000
0100
0000
0000
0000
0001
0000
0000
0000
,
0010
0000
0000
0100
0000
0000
1000
0000
0000
0100
0000
0000
1000
0000
0000
0000
0010
0000
0000
0000
0100
0000
0000
0000
0001
0000
0000
0010
0000
0000
0001
0000
0000
0100
0000
0000
0010
0000
0000
0000
1000
0000
0000
0000
0001
0000
0000
0000
,
0100
0000
0000
0010
0000
0000
1000
0000
0000
0001
0000
0000
0100
0000
0000
0000
0001
0000
0000
0000
0010
0000
0000
0000
0100
0000
0000
1000
0000
0000
0100
0000
0000
0010
0000
0000
0001
0000
0000
0000
1000
0000
0000
0000
0010
0000
0000
0000
,
1001
0000
0000
0000
,
1000
0010
0100
0000
0001
1000
0100
0000
,
0010
0001
1000
0000
0010
0100
0001
0000
,
1000
0010
0100
0000
0010
1000
0001
0000
,
0100
0010
1000
0000
0001
0010
0100
1000
,
0010
0100
0010
0000
,
1000
0000
0000
0001
0000
0000
0100
0000
0010
0000
1000
0000
,
0001
0100
0002
0000
,
0000
0000
0000
0000
,
0013
0100
1000
0000
,
0010
0000
0000
0100
0000
0000
0001
0000
1000
0000
0010
0000
,
1000
0001
0020
0000
,
0000
0000
0000
0000
,
0000
0000
0030
0000
;

//---------------dance-single - ----------------
#NOTEDATA:;
#CHARTNAME:;
#STEPSTYPE:dance-single;
#DESCRIPTION:;
#CHARTSTYLE:;
#DIFFICULTY:Hard;
#METER:15;
#RADARVALUES:0.837534,1.000000,0.353730,0.209618,0.717285,809.000000,54.000000,32.000000,0.000000,0.000000,0.000000,0.000000,0.000000,0.837534,1.000000,0.353730,0.209618,0.717285,809.000000,54.000000,32.000000,0.000000,0.000000,0.000000,0.000000,0.000000;
#CREDIT:;
#NOTES:
1002
0000
0203
0000
,
0320
0000
2030
3200
,
0310
0000
0001
0000
0100
0000
0001
0000
1000
0000
0001
0000
,
0100
0000
0010
0000
1000
0000
0010
0000
0100
0000
0001
0000
,
0200
0000
0320
0000
,
2030
0000
3200
0320
,
0031
0000
0010
0000
0001
0000
1000
0000
0010
0000
1000
0000
,
0010
0000
0001
0000
0010
0000
1000
0000
0100
0000
0010
0000
,
0011
0001
0201
0000
,
0302
1003
2001
3010
,
0110
0000
0000
0100
0000
0000
0001
0000
1000
0000
0010
0000
,
0001
0000
0010
0000
1000
0000
0100
0000
0010
0000
0001
0000
,
0011
0110
1200
0000
,
2300
0000
0000
3002
0000
0000
0023
0000
0000
0230
0000
0300
,
2100
3002
2000
0000
,
3003
0000
0000
0000
,
1001
1001
0110
0100
,
0010
1000
0001
1000
,
1010
1010
0110
0100
,
0001
0010
0001
0010
,
1001
0000
1000
0000
0010
0000
0100
0000
0001
0000
0010
0000
,
0001
0000
1000
0000
1010
0000
0100
0000
0001
0000
1000
0000
,
0010
0000
0100
0000
0001
0000
1000
0000
1010
0000
0010
0000
,
0100
0000
0001
0000
0010
0000
0100
0000
1000
0000
0001
0000
,
0100
0010
1000
0010
0100
0001
0010
0001
,
0010
0100
1000
0010
0100
0001
1000
0010
,
1000
0001
0010
0100
,
1000
0001
0100
0001
0000
1001
0000
1000
,
0100
1000
0001
0010
0001
0100
0001
1000
,
0010
0100
0001
1000
0001
0010
0100
1000
,
0010
0100
0001
1000
,
0010
1000
0010
0100
0000
0101
0000
0001
,
1000
0100
2000
0000
,
3001
0000
0000
0010
0000
0000
0100
0000
1000
0000
0010
0000
,
0100
0001
0010
0001
1000
0000
0000
0000
,
0001
0100
1000
0100
0000
0110
0000
0000
,
0010
1000
0001
0010
0100
1000
0010
0100
,
0001
0000
0000
1000
0000
0000
0100
0000
0000
0010
0000
0000
0001
0000
0000
0000
1000
0000
0000
0000
0010
0000
0000
0000
,
0100
0001
1000
0001
0010
0000
0001
0000
,
1000
0001
0100
0010
0000
1000
0001
1000
,
0100
1000
0100
0010
0001
1000
0001
0100
,
1000
0100
0010
0100
0001
0010
0100
1000
,
0010
0100
1000
0100
0001
0100
1000
0001
,
0010
1000
0010
0001
0010
1000
0100
0001
,
0100
1000
0001
0010
0100
0010
0001
1000
,
0100
0001
1000
0010
0001
1000
0010
0001
,
0010
1000
0001
0010
0100
1000
0010
0100
,
0010
0001
1000
0100
0010
1000
0100
0010
,
0001
0010
0100
1000
0010
0001
1000
0100
,
0001
0010
0100
1000
1001
0000
0000
0000
,
0001
1000
0001
0000
1000
0000
0100
0010
0100
0000
0010
0000
0001
1000
0001
0000
,
1000
0010
1000
0000
0001
0100
0001
0000
1000
0100
1000
0000
0100
0000
0010
0001
,
0010
0000
0001
0000
1000
0100
1000
0000
0001
0100
0001
0000
1000
0001
1000
0000
,
0010
1000
0010
0000
0100
0000
0001
1000
0001
0000
0010
0000
0100
1000
0100
0000
,
0010
0001
0010
0000
0100
0010
0100
0000
1000
0100
1000
0000
0001
0000
0100
0010
,
0100
0000
0010
0000
1000
0001
1000
0000
0001
0100
0001
0000
1000
0010
1000
0000
,
0001
0100
0001
0000
1000
0000
0100
0010
0100
0000
0010
0000
0001
0010
0001
0000
,
1000
0100
1000
0000
0001
0010
0001
0000
1000
0001
1000
0000
0010
0000
0100
0010
,
0100
0000
0001
0000
1000
0010
1000
0000
0010
0100
0010
0000
0100
0001
0100
0000
,
0001
1000
0001
0000
0010
0000
0100
1000
0100
0000
0010
0000
0001
1000
0001
0000
,
1000
0100
1000
0000
0100
0010
0100
0000
0010
0001
0010
0000
0100
0000
1000
0001
,
1000
0000
0010
0000
0100
0010
0100
0000
0001
0010
0100
0000
1000
0010
0100
0000
,
0000
0000
0000
0000
0000
0000
0000
0000
1000
0001
1000
0000
0001
0100
0001
0000
,
1000
0100
1000
0100
0010
0100
0010
0000
0001
0010
0001
0000
1000
0100
1000
0000
,
0001
0010
0001
0010
0100
0010
0100
0000
1000
0001
1000
0000
0010
0100
0010
0000
,
1000
0010
1000
0010
0100
0001
0100
0000
0001
0010
0100
0000
0010
0100
1000
0000
,
0001
1000
0001
1000
0010
0000
0000
0000
0100
0010
0100
0010
0000
0000
0100
0001
,
0100
0001
0010
0000
0100
1000
0010
0100
0010
0000
1000
0001
1000
0001
0000
0000
,
0100
0010
0100
0001
1000
0000
0001
0010
0100
1000
0001
0000
0000
0000
0010
0000
,
0000
0000
0100
0000
0000
0000
0000
0000
0000
0000
0000
0000
1000
0000
0000
0010
0000
0000
1000
0000
0000
0000
0000
0000
0001
0000
0000
0100
0000
0000
0001
0000
0000
0000
0000
0000
0010
0000
0000
0100
0000
0000
1000
0000
0000
0000
0000
0000
,
0010
0100
0010
0100
0000
0000
0010
1000
0010
1000
0100
0000
0010
0001
0100
0010
,
0100
0000
0001
1000
0001
1000
0000
0000
0010
0100
0010
1000
0001
0000
1000
0100
,
0010
0001
1000
0000
0000
0000
0001
0100
0001
0100
0000
0000
1000
0010
1000
0010
,
0100
0000
0000
0001
0000
0000
0100
0000
0000
0001
0000
0000
0010
0000
0000
0100
0000
0000
0010
0000
0000
0100
0000
0000
1000
0000
0000
0000
0000
0000
0100
0000
0000
0000
0000
0000
0010
0000
0000
0000
0001
0000
0000
0000
1000
0000
0000
0000
,
0100
0000
0000
0000
0010
0000
0000
0000
0001
0000
0000
0000
0010
0000
0000
0000
0100
0000
0000
0000
1000
0000
0000
0000
0200
0000
0000
0000
0000
0000
0000
0000
0000
0320
0000
0000
0000
0000
0000
0000
0000
0000
0032
0000
0000
0000
0000
0000
,
0000
2003
0000
0000
3001
0000
0000
0000
0000
0000
0000
0000
0000
0000
0000
0000
,
2002
0000
0000
0000
0000
0000
0000
3003
,
0100
0010
0000
0010
0000
0010
0000
0010
,
1000
0001
0000
0000
0000
0000
0000
0000
,
1000
0000
0001
0000
0000
0000
0001
0000
1000
0001
1000
0000
0001
0100
0001
0000
,
0100
0010
0000
1010
0000
1001
0000
0010
,
0100
0001
0000
0101
0000
0110
0000
0010
,
1000
0100
0000
1100
0000
0110
0000
0010
,
0001
1000
0000
1001
0000
0101
0000
0001
,
1000
0000
0010
0000
0000
0000
1010
0000
0000
0000
0101
0000
0000
0000
0001
1000
,
0001
1000
0001
0000
0000
0000
1100
0000
0000
0000
0011
0000
0000
0000
0010
0100
,
0010
0100
0010
0000
0000
0000
0110
0000
0000
0000
1001
0000
0000
0000
1000
0000
,
0001
0001
0100
0100
0010
0010
1000
1000
,
1001
0010
0000
1010
0000
0101
0000
0001
,
1000
0100
0000
0011
0000
1100
0000
1000
,
0001
0100
0000
0110
0000
1001
0000
0001
,
1000
0100
0000
1100
0000
0110
0000
0010
,
0001
1000
0000
1001
0000
0101
0000
0001
,
1000
0010
0000
1010
0000
1001
0000
0100
,
0010
1000
0000
0101
0000
1010
0000
0001
,
1000
1020
0230
0301
,
1000
0010
1000
0001
0100
0001
0010
0001
0100
0010
0100
0001
,
1000
0001
1000
0010
0100
0001
0010
0100
0010
0001
1000
0100
,
0010
0100
1000
0010
0100
0001
0100
0010
1000
0001
0010
0001
,
1000
0100
1000
0010
0100
0010
0100
0001
0010
0001
1000
0010
,
0100
0001
0010
0100
1000
0010
0100
0001
1000
0100
1000
0010
,
0100
0010
1000
0001
0010
0001
1000
0100
0010
0001
1000
0100
,
1000
0010
0100
0001
0010
0001
0100
0010
1000
0100
0010
0100
,
0010
0001
0010
0001
0100
0010
0100
1000
0100
0010
1000
0001
,
1001
0000
0000
0000
,
1000
0001
0010
0000
0100
1000
0010
0000
,
1000
0001
0100
0000
0001
0010
0100
0000
,
1000
0010
0100
0000
0001
1000
0010
0000
,
0100
0001
1000
0000
0001
0010
0100
1000
,
0010
0100
0010
0000
,
1000
0000
0000
0001
0000
0000
1000
0000
0010
0000
0100
0000
,
0001
0010
0200
0000
,
0000
0000
0000
0000
,
1300
0001
0100
0000
,
0010
0000
0000
1000
0000
0000
0001
0000
0100
0000
0010
0000
,
1000
0001
0002
0000
,
0000
0000
0000
0000
,
0000
0000
0003
0000
;

//---------------dance-single - ----------------
#NOTEDATA:;
#CHARTNAME:;
#STEPSTYPE:dance-single;
#DESCRIPTION:;
#CHARTSTYLE:;
#DIFFICULTY:Easy;
#METER:5;
#RADARVALUES:0.379932,0.615751,0.006551,0.189966,0.009826,376.000000,1.000000,29.000000,0.000000,0.000000,0.000000,0.000000,0.000000,0.379932,0.615751,0.006551,0.189966,0.009826,376.000000,1.000000,29.000000,0.000000,0.000000,0.000000,0.000000,0.000000;
#CREDIT:;
#NOTES:
0001
0000
0100
0000
,
0010
0000
1000
0001
,
0010
0000
0000
0000
,
0000
0000
0000
0000
,
0100
0000
1000
0000
,
0010
0000
0001
0010
,
0100
0000
0000
0000
,
0000
0000
0000
0000
,
1000
0001
0100
0000
,
0001
0100
0010
1000
,
0100
0010
0001
0000
,
0000
0000
0000
0000
,
1000
0001
0100
0000
,
0010
0100
0010
1000
,
0001
0100
0002
0000
,
0003
0000
0000
0000
,
1000
0001
1000
0000
,
0000
0000
0000
0000
,
0010
0100
0010
1000
,
1000
0001
0001
0010
,
0010
0000
0100
0000
,
1000
0000
0010
0000
,
0100
0000
0001
0000
,
0010
0000
0001
0000
,
1000
0010
1000
0010
,
0100
0001
0100
0010
,
0100
0001
0010
0100
,
0010
0000
0001
0000
0000
1000
0000
0000
,
0010
0100
0010
0100
,
0001
0010
0001
1000
,
0100
1000
0010
0100
,
0010
0000
1000
0000
0000
0010
0000
0000
,
0100
0001
2000
0000
,
3010
0100
0001
0000
,
1000
0010
0100
0000
,
0001
0000
0010
0000
0000
0100
0000
0000
,
1000
0010
1000
0001
,
0100
0010
1000
0000
,
0010
1000
0010
0000
,
1000
0010
0100
0001
,
1000
0010
1000
0001
,
0010
0001
0100
0010
,
0100
0001
1000
0001
,
1000
0100
0010
0001
,
0010
0100
1000
0010
,
0100
0010
1000
0001
,
0100
0001
1000
0100
,
1000
0001
0100
0001
,
1000
0010
1000
0001
,
0100
0001
0100
0000
,
0010
0000
0000
1000
0000
0000
0001
0000
,
0100
0000
0001
0000
0010
0000
0000
0100
,
0000
1000
0100
0010
,
0001
0000
0000
0100
0000
0000
0010
0000
,
1000
0000
0001
0000
1000
0000
0000
0100
,
0000
0010
0001
1000
,
0100
0000
0000
1000
0000
0000
0010
0000
,
0100
0000
0001
0000
0010
0000
0000
0001
,
0000
1000
0010
1000
,
0001
0000
0000
0100
0000
0000
0010
0000
,
1000
0000
0100
0000
1000
0000
0000
0001
,
0000
0100
0010
0100
,
0000
0000
0002
0023
,
0230
2300
3002
0203
,
0320
2030
3200
0320
,
0230
2300
3002
0203
,
0320
0000
0130
0000
0010
0000
0000
1000
,
0000
1000
0010
0000
0000
0100
0000
0000
,
0001
0000
0001
1000
0000
0000
0000
0100
,
0000
0000
0000
0010
0000
0001
0000
0010
,
0100
0000
0000
1000
0000
1000
0010
0000
,
0000
0100
0000
0000
0010
0000
0010
1000
,
0000
0000
0000
0001
0000
0000
1000
0000
,
0000
0001
0000
0000
0000
0100
0000
0000
0001
0000
0000
2000
0000
0000
0000
0000
,
0000
0000
0000
0000
3001
0000
0000
0010
,
0000
0100
0000
0000
,
2000
0000
0000
0000
,
3010
0100
0000
0000
0000
0000
0000
0001
,
1000
0000
0000
0000
,
0001
0100
0000
0000
0000
0000
0000
0000
,
0010
1000
0000
0100
0000
0010
0000
0000
,
0001
1000
0000
0010
0000
0100
0000
0000
,
0001
0010
0000
0100
0000
1000
0000
0000
,
0010
1000
0000
0001
0000
0100
0000
0000
,
0001
0010
0000
0100
0000
1000
0000
0000
,
0010
0100
0000
0001
0000
1000
0000
0000
,
0010
0100
0000
0001
0000
1000
0000
0000
,
0002
2003
3020
0230
,
0301
1000
0000
0010
0000
1000
0000
0001
,
1000
0001
0000
1000
0000
0010
0000
0100
,
0010
0100
0000
0001
0000
0010
0000
0100
,
1000
0100
0000
0010
0000
0001
0000
1000
,
0010
1000
0000
0001
0000
0100
0000
0001
,
0100
0001
0000
1000
0000
0010
0000
0100
,
0010
0100
0000
0001
0000
1000
0000
0010
,
0200
0320
2030
3002
,
1003
0010
1000
0001
,
0100
0001
0010
0100
,
1000
0010
0100
0010
,
0100
0001
1000
0001
,
0010
0001
0010
0100
,
1000
0010
0100
0010
,
0100
0001
1000
0001
,
1000
0010
0100
0010
,
1001
0000
0000
0000
,
0100
0100
0010
0010
,
1000
1000
0001
0001
,
1000
1000
0010
0010
,
0100
0100
0001
0001
,
1000
0010
0100
0000
,
0010
1000
0100
0000
,
0010
0001
2000
0000
,
0000
0000
0000
0000
,
3001
0100
0001
0000
,
1000
0010
0100
0000
,
0001
1000
0020
0000
,
0000
0000
0000
0000
,
0000
0000
0030
0000
;

//---------------dance-single - ----------------
#NOTEDATA:;
#CHARTNAME:;
#STEPSTYPE:dance-single;
#DESCRIPTION:;
#CHARTSTYLE:;
#DIFFICULTY:Beginner;
#METER:3;
#RADARVALUES:0.205874,0.307876,0.006551,0.117910,0.003275,201.000000,1.000000,18.000000,0.000000,0.000000,0.000000,0.000000,0.000000,0.205874,0.307876,0.006551,0.117910,0.003275,201.000000,1.000000,18.000000,0.000000,0.000000,0.000000,0.000000,0.000000;
#CREDIT:;
#NOTES:
// measure 0
0000
0000
0000
0000
,  // measure 1
0000
0000
0000
0000
,  // measure 2
0000
0000
0000
0000
,  // measure 3
0000
0000
0000
0000
,  // measure 4
0000
0000
0000
0000
,  // measure 5
0000
0000
0000
0000
,  // measure 6
0000
0000
0000
0000
,  // measure 7
0000
0000
0000
0000
,  // measure 8
0000
0000
0000
0000
,  // measure 9
0000
0000
0000
0000
,  // measure 10
0000
0000
0000
0000
,  // measure 11
0000
0000
0000
0000
,  // measure 12
0000
0000
0000
0000
,  // measure 13
0000
0000
0000
0000
,  // measure 14
1000
0001
2000
0000
,  // measure 15
3000
0000
0000
0000
,  // measure 16
0001
1000
0001
0000
,  // measure 17
0000
0000
0000
0000
,  // measure 18
0100
0000
0100
0000
,  // measure 19
0001
0000
1000
0000
,  // measure 20
0100
0000
0000
0000
,  // measure 21
0001
0000
0000
0000
,  // measure 22
0010
0000
0000
0000
,  // measure 23
0100
0000
0000
0000
,  // measure 24
0001
0000
0001
0000
,  // measure 25
0010
0000
0010
0000
,  // measure 26
0010
0000
0100
0000
,  // measure 27
0100
0000
0000
0000
0000
0001
0000
0000
,  // measure 28
0100
0000
0100
0000
,  // measure 29
1000
0000
1000
0000
,  // measure 30
0010
0000
0100
0000
,  // measure 31
0100
0000
0000
0000
0000
0100
0000
0000
,  // measure 32
0010
0000
0002
0000
,  // measure 33
0103
0000
1000
0000
,  // measure 34
0001
0000
0010
0000
,  // measure 35
1000
0000
0000
0000
0000
0010
0000
0000
,  // measure 36
0001
0000
0001
1000
,  // measure 37
0000
0100
0000
0000
,  // measure 38
0100
0000
0100
0000
,  // measure 39
0001
0000
0010
0000
,  // measure 40
0001
0000
0001
0000
,  // measure 41
0100
0000
0010
0000
,  // measure 42
0010
0000
0001
0000
,  // measure 43
0001
0000
0100
0000
,  // measure 44
0100
0000
0001
0000
,  // measure 45
0010
0000
0001
0000
,  // measure 46
0010
0000
0001
0000
,  // measure 47
0001
0000
0010
0000
,  // measure 48
0001
0000
0001
0000
,  // measure 49
0010
0000
0010
0000
,  // measure 50
0100
0000
0000
0001
0000
0000
1000
0000
,  // measure 51
0000
0000
1000
0000
0000
0000
0000
0010
,  // measure 52
0000
0001
0000
0100
,  // measure 53
0000
0000
0000
0010
0000
0000
0100
0000
,  // measure 54
0000
0000
1000
0000
0000
0000
0000
0010
,  // measure 55
0000
0000
1000
0000
,  // measure 56
0010
0000
0000
0001
0000
0000
0100
0000
,  // measure 57
0000
0000
1000
0000
0000
0000
0000
1000
,  // measure 58
0000
0001
0000
0001
,  // measure 59
0000
0000
0000
0010
0000
0000
0100
0000
,  // measure 60
0000
0000
0010
0000
0000
0000
0000
1000
,  // measure 61
0000
0010
0000
0010
,  // measure 62
0000
0000
2000
3000
,  // measure 63
0020
0030
0200
0300
,  // measure 64
0002
0003
0020
0030
,  // measure 65
0200
0300
2000
3000
,  // measure 66
0020
0000
0030
0000
0100
0000
0000
0001
,  // measure 67
0000
0000
0100
0000
0000
0010
0000
0000
,  // measure 68
1000
0000
0000
0001
0000
0000
0000
0010
,  // measure 69
0000
0000
0000
0100
0000
0000
0000
0100
,  // measure 70
0010
0000
0000
0001
0000
0000
0100
0000
,  // measure 71
0000
0010
0000
0000
0100
0000
0000
0001
,  // measure 72
0000
0000
0000
1000
0000
0000
0001
0000
,  // measure 73
0000
0000
0000
0000
0000
0000
0000
0000
1000
0000
0000
0002
0000
0000
0000
0000
,  // measure 74
0000
0000
1003
0000
,  // measure 75
0000
0010
0000
0000
,  // measure 76
0002
0000
0000
0000
,  // measure 77
0103
0000
0000
0000
,  // measure 78
0001
0000
0000
0000
,  // measure 79
1000
0000
0000
0000
,  // measure 80
0100
0001
0000
0000
0000
0000
0000
0000
,  // measure 81
1000
0001
0000
0000
0000
0000
0000
0000
,  // measure 82
1000
0100
0000
0000
0000
0000
0000
0000
,  // measure 83
0100
0001
0000
0000
0000
0000
0000
0000
,  // measure 84
1000
0100
0000
0000
0000
0000
0000
0000
,  // measure 85
0100
0010
0000
0000
0000
0000
0000
0000
,  // measure 86
0100
0010
0000
0000
0000
0000
0000
0000
,  // measure 87
2000
3000
0002
0003
,  // measure 88
1000
0001
0000
0000
0000
0001
0000
0000
,  // measure 89
0001
1000
0000
0000
0000
0100
0000
0000
,  // measure 90
0100
0010
0000
0000
0000
0100
0000
0000
,  // measure 91
0001
0010
0000
0000
0000
1000
0000
0000
,  // measure 92
0100
0001
0000
0000
0000
0010
0000
0000
,  // measure 93
0010
1000
0000
0000
0000
0100
0000
0000
,  // measure 94
0100
0010
0000
0000
0000
0001
0000
0100
,  // measure 95
0020
0030
0002
0003
,  // measure 96
0001
0000
0001
0000
,  // measure 97
0010
0000
0100
0000
,  // measure 98
0001
0000
0010
0000
,  // measure 99
0010
0000
0001
0000
,  // measure 100
0100
0000
0100
0000
,  // measure 101
0001
0000
0010
0000
,  // measure 102
0010
0000
0001
0000
,  // measure 103
0001
0000
0010
0000
,  // measure 104
1001
0000
0000
0000
,  // measure 105
0010
0000
0100
0000
,  // measure 106
0001
0000
1000
0000
,  // measure 107
0001
0000
0100
0000
,  // measure 108
0010
0000
1000
0000
,  // measure 109
0001
0000
0010
0000
,  // measure 110
0100
0000
0010
0000
,  // measure 111
0100
0000
0002
0000
,  // measure 112
0000
0000
0000
0000
,  // measure 113
1003
0000
1000
0000
,  // measure 114
0001
0000
0010
0000
,  // measure 115
1000
0000
0200
0000
,  // measure 116
0000
0000
0000
0000
,  // measure 117
0000
0000
0300
0000
;
