#TITLE:HP 1;
#SUBTITLE:;
#ARTIST:Verdammt;
#TITLETRANSLIT:;
#SUBTITLETRANSLIT:;
#ARTISTTRANSLIT:;
#GENRE:;
#CREDIT:;
#BANNER:;
#BACKGROUND:;
#LYRICSPATH:;
#CDTITLE:;
#MUSIC:HP 1.mp3;
#OFFSET:0.460000;
#SAMPLESTART:47.178547;
#SAMPLELENGTH:12.000000;
#SELECTABLE:YES;
#BPMS:0.000000=111.000000
,39.500000=193.000000
,315.000000=11.000000
,315.500000=100.000000
;
#STOPS:
;
#BGCHANGES:;
#KEYSOUNDS:;
#ATTACKS:;

//---------------dance-single - ----------------
#NOTES:
     dance-single:
     :
     Hard:
     15:
     0.753819,1.196561,0.319293,0.302488,0.617580,628.000000,590.000000,38.000000,36.000000,0.000000,0.000000,0.753819,1.196561,0.319293,0.302488,0.617580,628.000000,590.000000,38.000000,36.000000,0.000000,0.000000:
0000
0000
0000
0000
,
1000
0010
1000
0001
0010
0100
1000
0000
0010
0100
0000
0010
,
1000
0000
0001
0010
0000
0100
1000
0000
0000
0000
0001
1000
,
0100
0000
0000
0010
0000
0000
0001
0010
0001
1000
0000
0010
,
0200
0302
0023
0230
,
1300
0001
1000
0010
0100
0010
1000
0001
0100
1000
0000
0100
,
0001
0000
0010
0100
0000
1000
0001
0000
0000
0000
1000
0010
,
0100
0000
0000
0001
0000
0000
1000
0010
0100
0010
0000
1000
,
0001
0000
0000
0010
0000
0000
0100
0000
1000
0010
0100
0010
,
1000
0000
0001
0000
1000
0000
0010
0000
0100
0000
0001
0000
1000
0000
0100
0000
0010
0000
0001
0000
0000
2002
0000
0000
,
0000
0000
0000
0000
0000
3003
1000
0010
,
0100
0001
0010
0100
1000
0010
0100
0010
,
0100
0001
0010
0100
1000
0010
0100
0010
,
1000
0100
0010
0001
1000
0010
1000
0001
,
0010
0100
1000
0010
0010
0000
1001
0000
,
1000
0010
0000
0100
0001
0000
1001
0000
,
1000
0100
0000
0010
0001
0000
0101
0000
,
0010
0000
1000
0001
1000
0000
0010
0000
0100
0000
0010
1000
0001
0000
1000
0100
,
1000
0000
0010
0100
0010
1000
0001
1000
0100
0000
0010
0000
0001
0000
0000
0000
,
1000
0100
0000
0100
0010
0000
1001
0000
,
0100
0010
0000
1000
0001
1000
1001
0000
,
1000
0000
0001
0010
0200
0000
0000
0000
0000
0000
1300
0010
0200
0000
0000
0000
,
0310
1000
0001
0000
0100
0000
0020
0000
0200
0000
0330
0000
0001
1000
0001
1000
,
0001
0000
1000
0010
1000
0010
1000
0000
0001
0000
0100
0000
0010
1000
0001
1000
,
0100
0000
0000
0010
0000
0000
0001
0000
0000
0000
0000
0000
1000
0000
0000
0000
0000
0000
0001
0000
0010
0000
0100
0000
1000
0000
0000
0000
0000
0000
0010
0000
0000
0000
0000
0000
0100
0000
0000
0001
0000
0000
0100
0000
0000
0001
0000
0000
,
1000
0000
0010
1000
0010
1000
0001
0000
1000
0000
0100
0000
0010
0001
0010
0001
,
1000
0010
1000
0010
0100
0000
0001
0000
1000
0000
0100
0000
0220
0000
0000
0000
,
0330
0022
0000
0033
0220
0000
0330
2200
,
0000
3300
1001
0000
1010
0000
0101
0100
,
0010
1010
1000
0001
0011
0010
0100
1100
,
1000
0001
1001
1000
0010
0100
0002
0000
,
1003
0010
0000
0100
0001
0000
1010
0000
,
0001
0010
0000
0100
1000
0000
1020
0000
,
0230
0302
0023
0230
,
2300
0000
3001
0010
0100
1000
0010
0000
,
1000
0100
0000
0010
0001
0000
1001
0000
,
1000
0001
0000
0001
1000
0010
0100
0000
,
0001
0000
1000
0100
0020
0000
0000
0000
0000
0000
0031
0100
0020
0000
0000
0000
,
0230
0000
0000
0000
0310
0000
0100
0000
0001
0000
1001
0000
1000
0001
1000
0001
,
1000
0000
0001
0100
0001
0100
0001
0000
1000
0000
0010
0000
0100
0001
1000
0001
,
0010
0100
1000
0000
0001
0000
0010
0000
0001
0000
0100
0000
0010
1000
0010
1000
,
0001
0000
0100
0001
0100
0001
1000
0000
0001
0000
0010
0000
0100
1000
0100
1000
,
0001
0100
0001
0100
0010
0000
1000
0000
0001
0000
0100
0000
0110
0000
0000
0000
,
0010
0000
1000
0001
0000
0000
0100
0000
0001
0010
0000
0000
,
0100
0000
1000
0010
0000
0000
0100
0000
0001
0010
0000
0000
,
0100
0000
0000
0000
1000
0000
0001
0000
0000
0000
0000
0000
1000
0000
0000
0001
0000
0000
0010
0000
0000
0000
0000
0000
,
1100
0101
0110
1010
,
0010
0000
0100
0001
0000
0000
0010
0000
0100
1000
0000
0000
,
0001
0000
1000
0100
0000
0000
0010
0000
0001
1000
0000
0000
,
0001
0010
0100
1000
0000
0000
0010
0000
1000
0100
0000
0000
,
1000
0010
0100
0001
0000
0000
1000
0000
0000
1001
0000
0100
,
0000
0010
0000
1000
0000
0001
0000
0010
0000
0100
0000
0000
,
1000
0000
1000
0001
0000
0000
0100
0000
0100
0010
0000
0000
,
1000
0000
1000
0100
0000
0000
0010
0000
0010
0001
0000
0000
,
1000
0000
1000
0100
0000
0000
0010
0000
0010
0100
0000
0000
,
1000
0000
1000
0010
0000
0000
0001
0000
0001
0010
0000
0000
,
0100
0000
0001
0100
0010
1000
0001
0100
0001
0100
0000
0010
,
0100
0000
0100
0001
0000
0001
1000
0000
1000
0100
0000
0100
,
0010
0000
0010
0001
0000
0001
1000
0000
1000
0020
0000
0000
,
0000
0230
0000
0320
,
2030
0000
3002
0000
0200
0303
0101
0000
,
0010
0000
0100
0000
0001
1000
0010
0000
,
0110
0000
1000
0000
0001
0010
0100
0000
,
1100
0000
0010
0000
0001
1000
0100
0000
,
0011
0000
1000
0000
0010
0100
0001
0000
,
1010
0000
0100
0000
0001
0010
0100
0000
,
1001
0000
0100
0000
0001
0100
0110
0000
,
0010
1000
0101
0000
1000
0100
1100
0000
,
0010
0001
0011
0000
1000
0000
0001
0010
,
0100
0010
0001
1000
0010
1000
0001
0010
,
0100
1000
0010
0100
1000
0100
0001
0010
,
0100
0010
0001
1000
0010
0100
1000
0100
,
0010
1000
0001
0010
0100
1000
0001
1000
,
0010
0001
1000
0001
0010
1000
0010
1000
,
0001
0100
1000
0001
0010
1000
0100
0010
,
0001
0010
1000
0001
0100
1000
0010
0001
,
1000
0000
0100
0000
0001
0000
1000
0000
0100
0000
1000
0000
0010
0100
0010
0000
,
0100
0010
0100
0000
0010
0100
0010
0000
0100
0010
0100
0001
1000
0001
1000
0001
,
1000
0000
0000
0000
0001
0000
0000
0000
1000
0000
0000
0000
0001
0000
0000
0000
1000
0000
0000
0000
0001
0000
0000
0000
1000
0000
0000
0000
0001
0000
0000
0000
1000
0000
0000
0000
0001
0000
0000
0000
1000
0000
0000
0000
0001
0000
0000
0000
1000
0001
1000
0001
1000
0010
0100
0000
0010
0000
0000
0000
0000
0000
0000
0000
,
0100
0000
0000
0001
0000
0000
1000
0000
0000
0010
0200
0000
0000
0000
0000
0000
0000
0000
0300
0000
0001
0010
0100
1000
,
0001
0000
0000
1000
0010
0100
0010
0100
0001
2000
0000
0000
0000
0000
0000
0000
0000
0000
0000
0000
0000
0000
0000
0000
,
0000
0000
0000
0000
0000
0000
3000
0010
0100
1001
0000
0000
0000
0000
0000
0000
0000
0000
0000
0000
0000
0000
0000
0000
;

//---------------dance-single - ----------------
#NOTES:
     dance-single:
     :
     Medium:
     12:
     0.463335,0.581187,0.075622,0.310890,0.100829,386.000000,377.000000,9.000000,37.000000,0.000000,0.000000,0.463335,0.581187,0.075622,0.310890,0.100829,386.000000,377.000000,9.000000,37.000000,0.000000,0.000000:
0000
0000
0000
0000
,
0010
0000
1000
0001
1000
0001
1000
0000
0010
0100
0000
0001
,
1000
0000
0000
0001
0000
0000
0010
0000
0000
0000
0100
1000
,
0100
0000
0000
0010
0000
0000
0001
0010
0001
0100
0000
0010
,
1000
0001
0100
0010
,
1000
0000
0010
0100
0010
0100
0010
0000
0001
1000
0000
0100
,
0010
0000
0000
0001
0000
0000
1000
0000
0000
0000
0010
0100
,
0010
0000
0000
1000
0000
0000
0001
1000
0001
0100
0000
0001
,
2000
0000
3001
0000
,
0100
0000
0000
0000
0001
0000
0010
0000
0100
0000
1000
0000
0001
0000
0000
0000
0100
0000
0010
0000
0000
2002
0000
0000
,
0000
0000
0000
0000
0000
3003
1000
0000
,
0010
0100
0001
0010
,
0100
0010
0001
1000
,
0010
1000
0001
0100
,
0010
0000
1000
0001
0100
0000
1001
0000
,
0000
0100
0000
0000
0001
0000
0010
0000
,
0000
0100
0000
0000
1000
0000
0100
0000
,
0020
0032
0203
0320
,
2030
0000
3001
0100
0001
0100
0010
0000
,
0000
1000
0000
0000
0100
0000
0010
0000
,
0000
0001
0000
0000
0010
0000
0100
0000
,
1000
0001
1000
0000
0010
1000
0010
0000
,
2000
0000
0002
0000
3003
0000
0100
0010
,
0010
1000
1000
0100
0010
0000
0001
0010
,
0100
1000
0001
0010
0100
0000
1000
0001
,
0001
0100
0100
0010
1000
0000
0010
0100
,
0010
0100
0010
1000
0001
1000
0020
0000
,
0000
2030
0000
0000
3002
0000
0000
0203
,
0000
0000
0301
0000
0010
0000
0100
1000
,
0100
1000
0010
0100
0010
0100
0001
1000
,
0001
1000
0010
1000
0010
1000
0002
0000
,
0003
0010
0000
0000
0100
0000
0010
0000
,
0000
0001
0000
0000
1000
0000
0010
0000
,
2000
3200
0320
0032
,
2003
0000
3010
0100
0001
0100
0010
0000
,
0000
1000
0000
0000
0001
0000
0100
0000
,
0000
0010
0000
0000
1000
0100
0010
0000
,
0001
1000
0010
0000
0100
0001
0100
0000
,
0010
0000
1000
0001
0100
0100
0010
0100
,
0100
0001
0001
0010
0100
0000
1000
0100
,
0010
0001
1000
0100
0010
0000
0001
1000
,
1000
0010
0010
0100
0001
0000
0100
0010
,
0100
0010
0100
0001
0001
0100
0010
0000
,
1000
0001
1000
0010
,
0100
0001
0010
0001
,
1000
0000
0100
0000
1000
0010
0100
0000
,
0001
1000
1000
1001
,
0000
0010
0100
0000
0001
0000
0010
0000
,
0100
1000
0010
1000
,
0001
0000
0100
0000
0010
1000
0010
0000
,
0100
0001
1000
0010
,
0000
0100
0000
0001
,
0000
0010
0100
0000
0000
1000
0100
0000
,
0000
0010
0000
0001
,
0000
0000
0100
0000
0010
1000
0001
0000
,
0000
0010
0000
0100
,
1000
0100
1000
0010
,
0100
0010
1000
0001
,
0010
0001
1000
0020
,
0000
2030
0000
3200
,
0320
0032
1003
1001
,
0010
0000
0100
0000
0001
1000
0001
0000
,
0100
0010
1000
0001
,
0100
0010
1000
0100
,
0010
0001
2000
3100
,
0010
0000
0001
0000
0010
0100
0010
0000
,
0100
1000
0010
0220
,
0000
0330
2020
0000
0000
3030
0202
0000
,
0000
0303
2002
0000
0000
3003
0001
0000
,
0100
0010
1000
0100
,
0010
0001
0010
0100
,
1000
0010
0100
0001
,
1000
0100
1000
0001
,
0010
0001
1000
0100
,
1000
0010
0100
0020
,
1000
0100
0001
0130
,
0001
0000
1000
0000
0010
0100
0001
0100
,
0010
1000
0100
1000
0001
0010
0001
0010
,
0100
1000
0010
0100
0010
1000
0002
0103
,
0010
1000
0001
1000
0000
0000
0000
0010
,
1000
0001
1000
0020
0000
0000
0000
0000
,
0000
0000
0030
1001
0000
0000
0000
0000
;

//---------------dance-single - ----------------
#NOTES:
     dance-single:
     :
     Easy:
     4:
     0.302488,0.307687,0.042012,0.260476,0.000000,252.000000,247.000000,5.000000,31.000000,0.000000,0.000000,0.302488,0.307687,0.042012,0.260476,0.000000,252.000000,247.000000,5.000000,31.000000,0.000000,0.000000:
0000
0000
0000
0000
,
0001
0100
0010
1000
,
0100
0010
0001
0000
,
0010
0100
1000
0010
,
0100
0001
1000
0010
,
0100
0001
1000
0001
,
0100
0010
1000
0000
,
0100
0010
0001
0100
,
0010
0000
1000
0001
,
0010
0000
0100
0000
1000
0000
0000
2002
,
0000
0000
0000
0000
0000
3003
0001
0000
,
0000
0100
0000
0010
,
0000
1000
0000
0100
,
0000
0010
0000
0001
,
0000
1000
0000
1001
,
0000
0010
0000
0000
1000
0000
0100
0000
,
0000
0010
0000
0000
0001
0000
0010
0000
,
0200
0302
2003
3020
,
0030
0010
0000
0100
,
0000
0001
0000
0000
0010
0000
0100
0000
,
0000
1000
0000
0000
0100
0000
0010
0000
,
0000
0001
0000
0100
,
0020
0100
0030
0001
,
0000
0001
0000
0000
0001
0000
1000
0000
,
0010
1000
0000
0100
,
0000
0100
0000
0000
0100
0000
0010
0000
,
0001
0010
0000
0200
,
0000
2300
0000
0000
3002
0000
0000
0023
,
0000
0130
1000
0001
,
0000
1000
0000
0000
0100
0000
0000
0010
,
0000
0100
1000
0001
,
0000
0100
0000
0000
0010
0000
0100
0000
,
0000
1000
0000
0000
0001
0000
0100
0000
,
0002
0023
0230
2300
,
3000
0001
0000
0100
,
0000
0001
0000
0000
1000
0000
0010
0000
,
0000
0100
0000
0000
0001
0000
0100
0000
,
0000
0100
0000
0010
,
0000
0001
1000
0100
,
0000
1000
0000
0000
0010
0000
0001
0000
,
0100
0001
0000
1000
,
0000
0100
0000
0000
1000
0000
0010
0000
,
0100
0001
1000
0010
,
0000
1000
0000
0100
,
0000
0010
0000
1000
,
0000
0001
0000
0010
,
0000
0001
1000
1001
,
0000
0100
0010
0000
0000
0000
0100
0000
,
0000
0001
1000
0001
,
0000
0010
0100
0001
,
1000
0010
0100
0001
,
0000
0010
0000
1000
,
0000
0100
0010
0000
0000
0001
0010
0000
,
0000
0100
0000
1000
,
0000
0100
0001
1000
,
0000
0100
0000
0010
,
0001
0010
0001
0100
,
0010
0100
0001
1000
,
0100
1000
0001
0200
,
0000
0302
0000
2003
,
3020
0000
2030
3000
0002
0000
0203
0000
,
0300
0000
0010
1000
,
0010
0100
0001
1000
,
0010
0100
0001
0010
,
0100
1000
0002
0013
,
0100
1000
0100
0010
,
0001
1000
0010
0200
,
0000
0300
0002
0000
0000
0003
2000
0000
,
0000
3000
2002
0000
0000
3003
1000
0000
,
0010
0100
0001
0010
,
0100
1000
0100
0010
,
0001
0100
0010
1000
,
0001
0010
0001
1000
,
0100
1000
0001
0010
,
0001
0100
0010
0200
,
0000
0000
0000
0310
,
1000
0001
0100
1000
,
0100
0010
1000
0001
,
1000
0000
0100
0000
0001
0000
2000
3000
,
0000
0000
0000
0010
0000
0000
0000
0100
,
0001
0000
1000
0002
0000
0000
0000
0000
,
0000
0000
0003
1001
0000
0000
0000
0000
;

//---------------dance-single - ----------------
#NOTES:
     dance-single:
     :
     Beginner:
     2:
     0.199258,0.205125,0.016805,0.176451,0.000000,166.000000,164.000000,2.000000,21.000000,0.000000,0.000000,0.199258,0.205125,0.016805,0.176451,0.000000,166.000000,164.000000,2.000000,21.000000,0.000000,0.000000:
// measure 0
0000
0000
0000
0000
,  // measure 1
0001
0000
0010
0000
,  // measure 2
0100
0000
0001
0000
,  // measure 3
0010
0000
1000
0000
,  // measure 4
0100
0000
1000
0000
,  // measure 5
0100
0000
1000
0000
,  // measure 6
0100
0000
1000
0000
,  // measure 7
0100
0000
0001
0000
,  // measure 8
0010
0000
1000
0000
,  // measure 9
0010
0000
0000
0000
1000
0000
0000
2002
,  // measure 10
0000
0000
0000
0000
0000
3003
0001
0000
,  // measure 11
0000
0100
0000
0010
,  // measure 12
0000
1000
0000
0100
,  // measure 13
0000
0010
0000
0001
,  // measure 14
0000
1000
0000
0010
,  // measure 15
0000
0010
0000
0000
1000
0000
0000
0000
,  // measure 16
0000
0010
0000
0000
0001
0000
0010
0000
,  // measure 17
0200
0300
2000
3000
,  // measure 18
0000
0010
0000
0100
,  // measure 19
0000
0001
0000
0000
0010
0000
0000
0000
,  // measure 20
0000
1000
0000
0000
0100
0000
0000
0000
,  // measure 21
0000
0001
0000
0100
,  // measure 22
0000
0100
0000
0001
,  // measure 23
0000
0001
0000
0000
0001
0000
1000
0000
,  // measure 24
0000
0001
0000
0100
,  // measure 25
0000
0100
0000
0000
0100
0000
0010
0000
,  // measure 26
0000
0010
0000
0200
,  // measure 27
0000
2300
0000
0000
3002
0000
0000
0023
,  // measure 28
0000
0130
0000
0001
,  // measure 29
0000
1000
0000
0000
0100
0000
0000
0010
,  // measure 30
0000
0100
0000
0001
,  // measure 31
0000
0100
0000
0000
0010
0000
0000
0000
,  // measure 32
0000
1000
0000
0000
0001
0000
0000
0000
,  // measure 33
0002
0003
0200
0300
,  // measure 34
0000
0001
0000
0100
,  // measure 35
0000
0001
0000
0000
1000
0000
0000
0000
,  // measure 36
0000
0100
0000
0000
0001
0000
0000
0000
,  // measure 37
0000
0100
0000
0000
,  // measure 38
0000
0001
0000
0100
,  // measure 39
0000
1000
0000
0000
0010
0000
0000
0000
,  // measure 40
0100
0000
0000
1000
,  // measure 41
0000
0100
0000
0000
1000
0000
0000
0000
,  // measure 42
0100
0000
1000
0000
,  // measure 43
0000
1000
0000
0100
,  // measure 44
0000
0010
0000
1000
,  // measure 45
0000
0001
0000
0010
,  // measure 46
0000
0001
0000
0100
,  // measure 47
0000
0010
0000
0100
,  // measure 48
0000
0001
0000
0001
,  // measure 49
0000
0010
0000
0001
,  // measure 50
0000
0010
0000
0001
,  // measure 51
0000
0010
0000
1000
,  // measure 52
0000
0010
0000
0010
,  // measure 53
0000
0100
0000
1000
,  // measure 54
0000
0100
0000
1000
,  // measure 55
0000
0100
0000
0010
,  // measure 56
0000
0010
0000
0100
,  // measure 57
0000
0100
0000
1000
,  // measure 58
0000
1000
0001
0200
,  // measure 59
0000
0302
0000
2003
,  // measure 60
3000
0020
0030
0200
,  // measure 61
0300
0000
0010
0000
,  // measure 62
0100
0000
0001
0000
,  // measure 63
0010
0000
0001
0000
,  // measure 64
0100
0000
0002
0003
,  // measure 65
0100
0000
0100
0000
,  // measure 66
0001
0000
0010
0200
,  // measure 67
0000
0301
0000
1000
,  // measure 68
0000
0000
0002
0000
0000
0003
1000
0000
,  // measure 69
0000
0100
0000
0010
,  // measure 70
0000
1000
0000
0010
,  // measure 71
0000
0100
0000
1000
,  // measure 72
0000
0010
0000
1000
,  // measure 73
0000
1000
0000
0010
,  // measure 74
0000
0100
0000
0200
,  // measure 75
0000
0000
0000
0310
,  // measure 76
0000
0001
0000
1000
,  // measure 77
0000
0010
0000
0001
,  // measure 78
0000
0000
0100
0000
0000
0000
2000
3000
,  // measure 79
0000
0000
0000
0010
0000
0000
0000
0000
,  // measure 80
0001
0000
0000
0002
0000
0000
0000
0000
,  // measure 81
0000
0000
0003
1001
0000
0000
0000
0000
;
