#TITLE:Guilty Destruction;
#SUBTITLE:;
#ARTIST:DUALLELE (Akhuta&DJ TOTTO);
#TITLETRANSLIT:;
#SUBTITLETRANSLIT:;
#ARTISTTRANSLIT:;
#GENRE:;
#CREDIT:;
#BANNER:Guilty Destruction-bn.png;
#BACKGROUND:Guilty Destruction-bg.png;
#LYRICSPATH:;
#CDTITLE:;
#MUSIC:Guilty Destruction.mp3;
#OFFSET:-0.030000;
#SAMPLESTART:32.389996;
#SAMPLELENGTH:12.000000;
#SELECTABLE:YES;
#BPMS:0.000000=140.000000
;
#STOPS:
;
#BGCHANGES:;
#KEYSOUNDS:;
#ATTACKS:;

//---------------dance-single - ----------------
#NOTES:
     dance-single:
     :
     Medium:
     11:
     0.525205,0.543212,0.124927,0.642484,0.156159,326.000000,14.000000,72.000000,0.000000,0.000000,0.000000,0.525205,0.543212,0.124927,0.642484,0.156159,326.000000,14.000000,72.000000,0.000000,0.000000,0.000000:
0000
0000
0000
0000
,
0000
2000
3002
0203
,
0302
0023
0230
2300
,
0000
3000
0002
0000
2003
0000
3200
0000
,
0320
0000
0130
0001
0010
0100
1000
0010
,
0200
0010
0310
1000
0001
1000
0100
0010
,
0002
1000
1003
0010
0100
0010
1000
0001
,
0200
0001
0301
1000
0010
0100
0001
0010
,
0200
0000
2300
0000
,
0000
0000
3000
0000
,
0001
0100
0001
1000
0010
0100
0001
0010
,
0100
0000
0000
1000
0000
0000
0001
0000
0000
0100
0000
0000
0010
0000
0010
0000
,
0100
0001
1000
0010
1000
0100
0010
0001
,
0010
0000
0000
0010
0000
0000
0100
0000
0000
0100
0000
0000
2000
0000
0000
0000
,
3001
0100
0010
1000
0001
0100
0001
0010
,
0100
0000
0000
0100
0000
0000
2002
0000
0000
0000
3003
0000
0010
0000
0000
0010
,
0000
0202
0000
0303
1000
0010
0100
0001
,
2000
0000
0000
3020
0000
0000
0230
0000
0000
0302
0000
0003
0020
0000
0000
0230
,
0000
0000
2300
0000
0000
3002
0000
0000
0203
0000
0000
0000
0000
0000
0000
0000
,
0301
1000
0010
0000
0010
1000
0001
0000
,
0100
0001
1000
0000
0100
0010
0001
0000
,
0001
0001
0010
0010
0100
0100
1000
1000
,
0001
0001
1000
1000
0001
0001
1000
1000
,
0010
0000
0010
0000
0010
0000
0010
0000
0010
0000
0010
0000
2002
0000
0000
3003
,
0100
0000
0100
0000
0100
0000
0100
0000
0100
0000
0100
0000
0202
0000
0000
0303
,
1000
0000
0000
0001
0000
0000
1000
0000
0000
0010
0000
0000
0200
0000
0000
0000
,
0301
1000
0001
0010
0100
1000
0010
1000
,
0001
0000
0001
0000
0001
0000
0001
0000
0001
0000
0001
0000
0220
0000
0000
0330
,
1000
0000
1000
0000
1000
0000
1000
0000
1000
0000
1000
0000
0202
0000
0000
0303
,
0010
0000
0000
1000
0000
0000
0001
0000
0000
0010
0000
0000
0200
0000
0000
0000
,
1300
0001
1000
0100
0010
0100
1000
0001
,
2000
0000
3002
0000
,
0103
0010
0100
0010
0100
0010
1000
0001
,
2002
0000
0000
0000
0000
0000
3003
0100
,
0020
0000
0000
0000
0000
0000
0000
0030
,
0100
0100
0010
0010
1000
1000
0001
0001
,
0010
0010
0100
0100
1000
1000
0010
0100
,
0020
0000
0000
0000
0000
0000
0000
0130
,
0200
0000
0302
0000
,
2003
3002
0203
0320
,
2030
3002
0203
0302
,
2003
0000
3002
0203
,
0320
0000
2030
0000
,
3200
0000
0320
0000
,
0031
0100
0001
0100
0001
1000
0010
1000
,
0010
1000
0001
0100
0010
0100
0010
0100
,
0001
0010
0100
1000
0001
0010
0100
1000
,
0010
0000
0100
0000
0010
0000
0100
0000
0001
0000
0000
0001
0000
0000
0001
0000
,
1000
0100
0100
0010
0010
0001
0001
0100
,
0100
0001
0001
0100
0100
0001
0001
1000
,
1000
0001
0001
1000
1000
0001
0001
0100
,
0100
0000
0001
0000
0100
0000
0010
1000
0020
0000
0000
0000
0000
0000
0000
0000
,
2030
0000
3002
0000
,
0023
0000
0230
0000
,
2300
0000
3020
0000
,
0230
0000
0000
0000
0302
0000
0000
0003
,
1001
0000
0000
0000
0000
0010
0000
0000
0000
0100
0000
0000
0000
0001
0000
0000
0000
1001
0000
0000
0000
0100
0000
0000
,
0000
0100
0000
0000
0000
0010
0000
0000
0000
0010
0000
0000
0000
0100
0000
0000
0000
0110
0000
0000
0000
0010
0000
0000
,
0000
0010
0000
0000
0000
1000
0000
0000
0000
0001
0000
0000
0000
0100
0000
0000
0000
0101
0000
0000
0000
0001
0000
0000
,
0000
0001
0000
0000
0000
1000
0000
0000
0000
0010
0000
0000
0000
1000
0000
0000
0000
1010
0000
0000
0000
0010
0000
0000
,
0000
0100
0000
0000
0000
0101
0000
0000
0000
0001
0000
0000
0000
1000
0000
0000
0000
0010
0000
0000
0000
0110
0000
0000
;

//---------------dance-single - ----------------
#NOTES:
     dance-single:
     :
     Challenge:
     17:
     0.902537,1.000000,0.562174,0.704948,1.000000,566.000000,63.000000,79.000000,0.000000,0.000000,0.000000,0.902537,1.000000,0.562174,0.704948,1.000000,566.000000,63.000000,79.000000,0.000000,0.000000,0.000000:
// measure 0
0000
0000
0000
0000
,  // measure 1
0000
1020
0230
0302
,  // measure 2
2003
3200
0320
0032
,  // measure 3
0000
0003
2001
0000
3020
0000
0230
0000
,  // measure 4
0302
0000
0000
0000
1003
0010
0100
0010
0100
0010
0100
0000
0010
0000
0100
0000
,  // measure 5
1001
0010
1000
0010
0100
0001
0010
0100
1000
0100
1000
0001
0100
0001
0100
0010
,  // measure 6
1001
0010
0100
0010
1000
0001
0100
1000
0100
0001
0010
0100
0010
0001
1000
0001
,  // measure 7
0110
0100
0001
1000
0010
0100
0001
0010
0001
1000
0001
0100
0010
1000
0010
0100
,  // measure 8
1002
0000
2000
0000
,  // measure 9
0003
0000
0000
3001
0000
1000
0000
0010
0000
0100
0000
0000
0100
0000
0000
0000
0000
1001
0000
0000
0000
0000
0000
0000
,  // measure 10
0100
0010
0100
0001
0010
0100
1000
0100
1000
0001
0100
0001
0100
0010
1000
0100
,  // measure 11
1000
0000
0010
1000
0000
1000
0100
0000
0100
0010
0000
0010
0001
0100
0010
0000
,  // measure 12
0100
0001
0010
0100
0010
0001
1000
0100
1000
0010
0001
0010
1000
0010
0100
0001
,  // measure 13
2000
0000
0000
3020
0000
0000
0230
0000
0000
0302
0000
0000
2003
0000
0000
0000
,  // measure 14
3100
0010
0001
0100
0010
0001
1000
0100
0010
1000
0100
0010
0001
1000
0010
0100
,  // measure 15
0101
0000
0010
0100
0000
0100
2002
0000
0000
0000
3003
0000
1010
0000
0100
0001
,  // measure 16
0000
0001
1010
0000
1000
0010
1000
0001
0100
0001
0010
0100
0010
0001
0100
0000
,  // measure 17
2020
0000
3030
0202
0000
0303
2200
0000
3300
0202
0000
0303
2002
0000
3003
0220
,  // measure 18
0000
0330
2020
0000
3030
0202
0000
0303
0010
1000
0001
0100
0010
0100
1001
0000
,  // measure 19
0001
0100
0010
1000
0100
0010
0001
0100
,  // measure 20
1000
0100
0001
0010
0100
1000
0010
0100
,  // measure 21
1000
1100
0100
0101
0001
1001
1000
1001
,  // measure 22
0001
0000
0000
0010
0000
0000
0001
0000
0000
1000
0000
0000
0100
0000
0000
1000
0000
0000
0010
0000
0000
0100
0000
0000
0001
0000
0000
1000
0000
0000
0100
0000
0000
0010
0000
0000
0100
0000
1000
0000
0100
0000
1000
0000
0010
0000
0100
0000
,  // measure 23
0001
1010
0110
1001
0101
0101
2002
3003
,  // measure 24
0110
0000
1010
0000
0011
0000
1100
0000
0101
0000
1001
0000
2001
0000
3100
0010
,  // measure 25
0001
0100
0010
1000
0001
0100
0010
1000
,  // measure 26
0100
0000
0000
1000
0000
0000
0100
0000
0000
1000
0000
0000
0100
0000
0000
1000
0000
0000
0010
0000
0000
1000
0000
0000
0001
0000
0000
0100
0000
0000
0001
0000
0000
0100
0000
0000
0001
0000
0100
0000
0001
0000
0100
0000
0001
0000
0000
0000
,  // measure 27
0101
1010
0101
1001
1100
0011
0220
0330
,  // measure 28
0011
0000
1100
0000
1001
0000
0110
0000
0101
0000
1010
0000
1002
0000
0103
0010
,  // measure 29
0100
0001
1000
0010
0100
1000
0100
0001
,  // measure 30
1000
0000
0000
0010
0000
0000
1000
0000
0000
0010
0000
0000
0100
0000
0000
0001
0000
0000
0100
0000
0000
0001
0000
0000
1000
0000
0100
0000
1000
0000
0001
0000
0000
0100
0000
0000
0001
0000
0010
0000
0001
0000
1000
0000
0000
0001
0000
0000
,  // measure 31
2000
0000
3002
0000
,  // measure 32
1003
0010
1000
0001
0100
0010
0100
0001
0010
0000
0010
0000
0001
0000
0001
0000
,  // measure 33
2002
0000
0000
0000
0000
0000
0000
0000
0000
0000
0000
0000
3003
0000
0100
0020
,  // measure 34
0200
0000
0000
0000
0000
0000
0000
0330
,  // measure 35
0100
0001
1000
0001
0100
0001
0100
0010
0100
0010
1000
0100
0010
0100
1000
0001
,  // measure 36
0100
1000
0100
0010
1000
0100
0001
1000
0010
0001
1000
0100
0001
0100
1000
0010
,  // measure 37
0200
0000
0000
0000
0000
0000
0300
0110
,  // measure 38
1002
0000
0023
0000
,  // measure 39
2030
3020
0032
0203
,  // measure 40
2300
3020
0032
0203
,  // measure 41
0302
0000
0000
0000
2003
0000
3200
0300
,  // measure 42
0012
0000
0203
0000
,  // measure 43
0020
0300
2000
0030
,  // measure 44
3001
0010
0100
1000
0100
0010
0001
0100
1000
0100
0001
0010
1000
0010
0001
1000
,  // measure 45
0010
1000
0001
0010
0100
1000
0010
0100
1000
0001
0010
0100
0010
1000
0001
0100
,  // measure 46
1000
0100
0001
0010
1000
0010
0001
1000
0100
0010
0100
1000
0010
0001
0010
0100
,  // measure 47
1000
0100
0001
0010
0100
1000
0001
0100
2020
0000
3030
0220
0000
0330
1001
0000
,  // measure 48
0010
0100
0001
0010
0100
1000
0010
0100
1000
0100
0001
0010
0001
1000
0100
1000
,  // measure 49
0010
0100
0010
0001
1000
0100
0001
1000
0100
0001
1000
0010
0001
1000
0010
0001
,  // measure 50
1000
0000
0000
0100
0000
0000
0010
0000
0000
1000
0000
0000
0001
0000
0000
0100
0000
0000
0001
0000
0010
0000
0001
0000
0100
0000
0000
1000
0000
0000
0100
0000
0000
0001
0000
0000
0010
0000
0000
0001
0000
0000
0100
0000
0010
0000
0100
0000
,  // measure 51
0001
1000
0001
0100
0001
1000
0010
0100
0020
0000
0000
0000
0000
0000
0000
0000
,  // measure 52
0200
0030
0002
0300
,  // measure 53
0020
0003
0200
0030
,  // measure 54
2000
0300
0020
3000
,  // measure 55
0200
0000
0030
0000
0002
0000
0300
0003
,  // measure 56
0011
0000
0000
0000
0000
0110
0000
1000
0000
0100
0000
0010
0000
0001
0000
1000
0000
1100
0000
0000
0000
1000
0000
0100
,  // measure 57
0000
1001
0000
0000
0000
0010
0000
0100
0000
0001
1000
0001
0000
0100
0000
0010
0000
0100
0001
0100
0000
0010
1000
0010
,  // measure 58
0000
0101
0000
0000
0000
0010
0000
0100
0000
0001
0000
1000
0010
0100
0000
0010
0000
0100
0000
0000
0000
0010
0100
0001
,  // measure 59
0000
1000
0000
0001
0000
1000
0000
0010
0000
0100
0010
1000
0000
0001
0000
0100
0000
0010
0000
1000
0000
0010
1000
0010
,  // measure 60
0000
0100
0001
1000
0000
0010
1000
0001
0000
0100
0001
0100
0000
0010
1000
0010
0000
0100
0010
0100
0010
0100
0010
0100
,  // measure 61
0010
0000
0000
0000
;

//---------------dance-single - ----------------
#NOTES:
     dance-single:
     :
     Hard:
     14:
     0.738092,0.898139,0.348012,0.704948,0.615714,461.000000,39.000000,79.000000,0.000000,0.000000,0.000000,0.738092,0.898139,0.348012,0.704948,0.615714,461.000000,39.000000,79.000000,0.000000,0.000000,0.000000:
0000
0000
0000
0000
,
0000
0002
0023
0230
,
2300
3200
0320
0032
,
0000
0003
2010
0000
3002
0000
0023
0000
,
0230
0000
1300
0010
0100
0001
1000
0010
,
1001
0000
0001
0000
0100
0000
0010
0000
1000
0001
1000
0000
0010
0100
0010
0000
,
1001
0000
0010
0000
1000
0000
0100
0000
0010
0001
0010
0000
0100
1000
0100
0000
,
0110
0000
0001
0000
0010
0000
1000
0000
0010
0001
0010
0000
0100
1000
0100
0000
,
1002
0000
2000
0000
,
0000
0000
0000
0000
0000
0000
3003
0000
0000
0100
0000
0000
0010
0000
0000
0000
0000
1001
0000
0000
0000
0000
0000
0000
,
1000
0010
1000
0000
0001
0100
0001
0000
1000
0010
0100
0000
0010
0100
0001
0000
,
0100
0000
0010
1000
0000
0001
0100
0000
0001
1000
0000
0010
1000
0010
1000
0000
,
0001
1000
0001
0000
0100
0010
0100
0000
0001
0010
0001
0000
0100
1000
0100
0000
,
0020
0000
0000
0032
0000
0000
2003
0000
0000
3020
0000
0000
0230
0000
0000
0000
,
0301
1000
0001
0000
0100
0010
0100
0000
0001
1000
0100
0000
1000
0010
0100
0000
,
0101
0000
0000
0110
0000
0000
2020
0000
0000
0000
3030
0000
1010
0000
0000
0101
,
0000
0000
0011
0000
1000
0100
0010
0000
1000
0001
0010
0000
0100
1000
0001
0000
,
2002
0000
3003
0220
0000
0330
2200
0000
3300
0202
0000
0303
2020
0000
3000
0200
,
0000
0300
0002
0000
0003
2000
0000
3030
0001
1000
0001
1000
0010
0100
0010
0000
,
1000
0001
0100
0001
0010
0100
1000
0010
,
0001
0010
1000
0100
0010
0001
0100
0010
,
0001
0001
0010
0010
0100
0100
0001
1000
,
0001
0010
0001
0000
1000
0100
1000
0000
0010
0100
0010
0000
1000
0001
0100
0000
,
0010
1000
0001
0100
0110
0110
2002
3003
,
0010
0000
1000
0000
0100
0000
0010
0000
0011
0000
0011
0000
0202
0000
0000
0303
,
0010
1000
0001
0100
0010
1000
0100
0010
,
0100
1000
0100
1000
0100
0000
0010
0000
0001
0100
0001
0100
0001
0000
0100
0000
,
0010
1000
0100
0010
1001
1001
0220
0330
,
0010
0000
0001
0000
0010
0000
0100
0000
1100
0000
1010
0000
0202
0000
0000
0303
,
0010
1000
0001
0010
1000
0010
0001
0100
,
0001
1000
0001
1000
0001
0000
0100
0000
0010
1000
0010
1000
0010
0000
1000
0001
,
0200
0000
0320
0000
,
0130
0001
0100
0001
0010
0100
1000
0100
1000
0000
0100
0000
0010
0000
0001
0000
,
0202
0000
0000
0000
0000
0000
0000
0000
0000
0000
0000
0000
0303
0000
1000
0020
,
2000
0000
0000
0000
0000
0000
0000
3030
,
0100
0001
0100
0000
0010
1000
0010
0000
1000
0001
0100
0000
0001
1000
0100
0000
,
0010
0001
0100
0000
0001
1000
0100
0000
0010
0001
1000
0000
0001
1000
0010
0100
,
0002
0000
0000
0000
0000
0000
0003
0010
,
0200
0000
2300
0000
,
3002
0203
0320
2030
,
3002
0203
0302
0023
,
0230
0000
0000
0000
2300
0000
3002
0003
,
2020
0000
0000
3030
0002
0000
0000
0000
,
0203
0000
0302
0000
,
1003
0010
0100
0000
0001
0100
0010
0000
1000
0001
0100
0000
0001
1000
0001
0000
,
1000
0010
0100
0000
0001
0010
1000
0000
0001
0100
1000
0000
0010
0100
1000
0000
,
0001
0010
0100
0000
0001
1000
0010
0000
0100
0001
1000
0000
0010
0100
0010
0000
,
1000
0001
0100
0001
1000
0010
0100
0000
2002
0000
3003
2020
0000
3030
0101
0000
,
0001
0010
0100
0000
0100
1000
0010
0000
0010
0100
0001
0000
0001
1000
0100
0000
,
0100
0010
0001
0000
0001
0010
0100
0000
0100
1000
0001
0000
0001
0100
1000
0000
,
1000
0100
0001
0000
0001
0010
1000
0000
1000
0010
0001
0000
0001
1000
0100
0000
,
0100
0010
0001
0010
0100
1000
0001
1000
0002
0000
0000
0000
0000
0000
0000
0000
,
0023
0000
0230
0000
,
2300
0000
3002
0000
,
0203
0000
0302
0000
,
2003
0000
0000
0000
3200
0000
0000
0300
,
1001
0000
0000
0000
0000
1010
0000
1000
0000
0001
0000
0100
0000
0001
0000
0100
0000
0110
0000
0000
0000
0010
0000
1000
,
0000
1001
0000
0000
0000
0010
0000
0100
0000
0001
0000
1000
0000
0001
0000
0100
0000
0010
0000
1000
0000
0010
0000
0100
,
0000
0110
0000
0000
0000
0010
0000
0100
0000
0001
0000
0100
0000
0010
0000
1000
0000
0100
0000
0000
0000
0010
0000
0001
,
0000
1000
0000
0001
0000
0100
0000
0010
0000
0100
0000
0001
0000
0010
0000
0100
0000
1000
0000
0001
0000
0010
0000
0100
,
0000
1000
0000
0100
0000
0010
0000
0001
0000
1000
0001
1000
0000
0001
1000
0001
0000
0100
0010
0100
0010
0100
0010
0100
,
0010
0000
0000
0000
;

//---------------dance-single - ----------------
#NOTES:
     dance-single:
     :
     Easy:
     6:
     0.387530,0.434569,0.017847,0.615714,0.116004,233.000000,2.000000,69.000000,0.000000,0.000000,0.000000,0.387530,0.434569,0.017847,0.615714,0.116004,233.000000,2.000000,69.000000,0.000000,0.000000,0.000000:
0000
0000
0000
0000
,
0000
0002
0000
0203
,
0000
0302
0000
2003
,
0000
3002
0203
0000
,
0302
0203
0320
2030
,
3002
1003
0010
0100
,
0200
0301
1000
0010
,
0200
0301
1000
0010
,
0200
0000
0302
0000
,
0000
0000
0000
0003
,
0001
0000
0001
0000
1000
0000
0010
0010
,
0020
0000
0000
2030
0000
0000
3002
0000
,
0103
0000
0100
0000
0001
0000
1000
1000
,
2000
0000
0000
3020
0000
0000
0230
0000
,
0301
0000
0001
0000
0100
0000
0010
0010
,
0010
0000
0000
0100
0000
0000
0200
0000
0000
0000
0300
0000
0001
0000
0000
0001
,
0000
0002
0000
0003
0100
0000
0100
0000
,
0010
0000
0000
0010
0000
0000
0010
0000
0000
0010
0000
0000
1000
0000
0000
1000
,
0000
0000
1000
0000
0000
1000
0000
0000
0002
0000
0000
0000
0000
0000
0000
0000
,
1003
1000
0001
0001
,
0100
0100
0001
0001
,
2000
3020
0230
0302
,
1003
1000
0001
0001
1000
1000
0001
0001
,
0100
0100
0100
0100
0100
0100
0020
0000
,
0130
0100
0100
0100
0100
0100
0002
0000
,
2003
0000
0000
3020
0000
0000
0230
0000
,
0301
0001
1000
1000
,
0001
0001
0001
0001
0001
0001
0200
0000
,
0301
0001
0001
0001
0001
0001
2000
0000
,
3020
0000
0000
2030
0000
0000
3002
0000
,
1003
0000
1000
0000
0001
0000
0100
0100
,
0020
0000
0230
0000
,
0310
0000
0100
0000
0010
0000
0100
0100
,
2002
0000
0000
0000
0000
0000
3003
0010
,
0020
0000
0000
0000
0000
0000
0000
0030
,
0200
0320
2030
3002
,
0023
0000
0230
0000
2300
0000
3001
0001
,
0002
0000
0000
0000
0000
0000
0000
1003
,
2000
0000
3002
0000
,
2003
0000
0010
0000
0010
3000
0010
0000
,
0002
0000
0100
0000
0100
0000
0100
0003
,
2000
0000
3010
0010
,
0020
0000
0230
0000
,
0302
0000
2003
0000
,
3001
1000
0001
1000
,
0001
1000
0001
0100
,
0010
0100
0001
0100
,
0010
0000
0000
0000
1000
0000
0000
0000
0001
0000
0000
0001
0000
0000
0001
0000
,
0100
0010
1000
0001
,
0010
0100
1000
0100
,
0010
0000
0001
0000
1000
1000
0010
0010
,
0100
0100
0010
0100
0002
0000
0000
0000
,
0023
0000
0230
0000
,
2300
0000
3002
0000
,
0203
0000
0302
0000
,
2003
0000
0000
0000
3020
0000
0000
0030
,
1001
0000
0000
0000
0000
0010
0000
0000
0000
0010
0000
0000
0000
0100
0000
0000
0000
0100
0000
0000
0000
0000
0000
0000
,
0000
0001
0000
0000
0000
0001
0000
0000
0000
1000
0000
0000
0000
1000
0000
0000
0000
0010
0000
0000
0000
0000
0000
0000
,
0000
0100
0000
0000
0000
0100
0000
0000
0000
0001
0000
0000
0000
0001
0000
0000
0000
1000
0000
0000
0000
0000
0000
0000
,
0000
0010
0000
0000
0000
0010
0000
0000
0000
0100
0000
0000
0000
0100
0000
0000
0000
0001
0000
0000
0000
0000
0000
0000
,
0000
0010
0000
0000
0000
0010
0000
0000
0000
0100
0000
0000
0000
0100
0000
0000
0000
1000
0000
0000
0000
0001
0000
0000
;

//---------------dance-single - ----------------
#NOTES:
     dance-single:
     :
     Beginner:
     3:
     0.285549,0.327712,0.008923,0.651408,0.040155,150.000000,1.000000,73.000000,0.000000,0.000000,0.000000,0.285549,0.327712,0.008923,0.651408,0.040155,150.000000,1.000000,73.000000,0.000000,0.000000,0.000000:
0000
0000
0000
0000
,
0000
2000
0000
3020
,
0000
2030
0000
3002
,
0000
2003
3020
0000
,
2030
3020
0230
0302
,
2003
3000
0000
0010
,
0020
0030
0000
0100
,
0200
0300
0000
0010
,
0020
0000
2030
0000
,
0000
0000
0000
3000
,
1000
0000
0001
0100
,
0200
0000
0000
0302
0000
0000
2003
0000
,
3010
0000
1000
0001
,
0002
0000
0000
0203
0000
0000
0320
0000
,
1030
0000
0010
0100
,
0100
0000
0000
0020
0000
0030
1000
0000
,
0000
2000
0000
3000
0010
0000
0000
0000
,
0100
0000
0000
0010
0000
0000
0100
0000
,
0000
0010
0000
0000
2000
0000
0000
0000
,
3001
0000
1000
0000
,
0010
0000
1000
0000
,
0002
0203
0320
2030
,
3002
2003
3002
2003
,
3020
0000
0000
0230
,
0310
0010
0010
2000
,
3002
0000
0000
0203
0000
0000
0320
0000
,
1030
0000
0001
0000
,
1000
1000
1000
0020
,
1030
1000
1000
0002
,
0203
0000
0000
0302
0000
0000
2003
0000
,
3001
0000
1000
0010
,
0200
0000
0320
0000
,
0130
0000
0100
0010
,
0020
0000
0000
0000
,
0230
0000
0000
0000
0000
0000
0000
0300
,
2000
0000
3002
0000
,
0203
0000
0302
1003
,
2000
0000
0000
0000
,
3020
0000
0230
0000
,
0302
0000
0100
0000
0000
0003
0100
0000
,
2000
0000
0010
0000
0000
0000
0010
3000
,
0002
0000
0103
0000
,
0200
0000
0320
0000
,
2030
0000
3002
0000
,
1003
0000
0010
0000
,
0100
0000
0001
0000
,
0010
0000
1000
0000
,
0100
0000
0001
0000
2000
0000
0000
3000
,
0010
0000
0001
0000
,
0100
0000
0001
0000
,
0100
0000
0001
0100
,
0010
0100
0020
0000
,
2030
0000
3020
0000
,
0230
0000
0302
0000
,
0203
0000
2300
0000
,
3002
0000
0000
0000
0023
0000
0000
0030
,
2000
0000
0000
3000
0000
0100
0000
0000
0000
0100
0000
0000
0000
0000
0000
0000
0000
0000
0000
0000
0000
0000
0000
0000
,
0000
1000
0000
0000
0000
0000
0000
0000
0000
0001
0000
0000
0000
0001
0000
0000
0000
0000
0000
0000
0000
0000
0000
0000
,
0000
0010
0000
0000
0000
0000
0000
0000
0000
1000
0000
0000
0000
1000
0000
0000
0000
0000
0000
0000
0000
0000
0000
0000
,
0000
0100
0000
0000
0000
0000
0000
0000
0000
0010
0000
0000
0000
0010
0000
0000
0000
0000
0000
0000
0000
0000
0000
0000
,
0000
0100
0000
0000
0000
0000
0000
0000
0000
0100
0000
0000
0000
0000
0000
0000
0000
0001
0000
0000
0000
2001
0000
0000
,
0000
0000
0000
0000
0000
3000
0000
0000
0000
0000
0000
0000
0000
0000
0000
0000
0000
0000
0000
0000
0000
0000
0000
0000
;
