#VERSION:0.83;
#TITLE:Gorgetech;
#SUBTITLE:;
#ARTIST:Shiron;
#TITLETRANSLIT:;
#SUBTITLETRANSLIT:;
#ARTISTTRANSLIT:;
#GENRE:;
#ORIGIN:;
#CREDIT:;
#BANNER:;
#BACKGROUND:;
#PREVIEWVID:;
#JACKET:Gorgetech-jacket.png;
#CDIMAGE:;
#DISCIMAGE:;
#LYRICSPATH:;
#CDTITLE:;
#MUSIC:Gorgetech.mp3;
#OFFSET:0.200000;
#SAMPLESTART:73.038406;
#SAMPLELENGTH:12.000000;
#SELECTABLE:YES;
#BPMS:0.000=160.000,
92.000=80.000,
94.000=160.000,
186.000=80.000,
187.500=160.000,
251.500=80.000,
253.500=160.000,
257.500=80.000,
259.500=160.000,
263.500=80.000,
265.500=160.000,
269.500=80.000,
271.500=160.000;
#STOPS:31.000=1.120,
187.500=0.200,
219.000=0.200;
#DELAYS:;
#WARPS:;
#TIMESIGNATURES:0.000=4=4;
#TICKCOUNTS:0.000=4;
#COMBOS:0.000=1;
#SPEEDS:0.000=1.000=0.000=0;
#SCROLLS:0.000=1.000;
#FAKES:;
#LABELS:0.000=Song Start;
#BGCHANGES:;
#KEYSOUNDS:;
#ATTACKS:
;

//---------------dance-single - ----------------
#NOTEDATA:;
#CHARTNAME:;
#STEPSTYPE:dance-single;
#DESCRIPTION:;
#CHARTSTYLE:;
#DIFFICULTY:Hard;
#METER:17;
#RADARVALUES:1.075236,1.124980,0.330351,0.241067,1.388368,843.000000,806.000000,37.000000,27.000000,0.000000,0.000000,0.000000,0.000000,0.000000,1.075236,1.124980,0.330351,0.241067,1.388368,843.000000,806.000000,37.000000,27.000000,0.000000,0.000000,0.000000,0.000000,0.000000;
#CREDIT:;
#NOTES:
// measure 0
0000
0000
0000
0000
0000
0000
0000
0000
0000
0000
0000
0000
1000
0000
0000
0010
,  // measure 1
0000
0000
0100
0000
0001
0000
0000
1000
0000
0000
0100
0000
0010
0000
0000
0001
,  // measure 2
0000
0000
1000
0000
0010
0100
0000
0001
1000
0000
0100
0000
0010
0000
0000
0001
,  // measure 3
0000
0000
1000
0000
0010
0000
0000
0100
0000
0000
0001
0000
1000
0000
0000
0100
,  // measure 4
0000
0000
0010
0000
0001
1000
0000
0100
1000
0000
0010
0000
0100
0001
1000
0001
,  // measure 5
1000
0010
0100
0000
0001
0010
0100
1000
0001
0000
1000
0010
1000
0001
0100
0010
,  // measure 6
0100
0001
1000
0000
0010
0100
0001
1000
0100
0000
0010
0001
0100
0010
0100
0001
,  // measure 7
1000
0001
1000
0000
0010
0100
0001
1000
0010
0000
0100
0000
0020
0000
0030
0000
,  // measure 8
1001
0000
1000
0010
0100
0000
0001
0010
0100
0000
1000
0100
0010
0000
0001
0010
,  // measure 9
0100
0000
1000
0001
0100
0000
0001
0010
1000
0000
0001
0100
1000
0000
0010
0100
,  // measure 10
0001
0000
1000
0010
0001
0000
1000
0100
0001
0000
0010
0100
1000
0000
0010
0100
,  // measure 11
1000
0000
0100
0001
0010
0000
0100
0010
0001
0000
1000
0010
0100
0000
0001
0000
,  // measure 12
1001
0000
0100
0010
0100
0010
1000
0001
0000
0001
0010
0100
1000
0000
0100
0000
,  // measure 13
1010
0000
0010
1000
0001
1000
0100
0010
0000
0010
0100
1000
0010
0000
1000
0000
,  // measure 14
0101
0000
0100
0010
0100
0001
1000
0100
0000
0100
1000
0001
0100
0000
0010
0000
,  // measure 15
0110
0000
0000
0000
0000
0000
0100
0000
0000
0001
0000
0000
1000
0000
0000
0010
0000
0000
0000
0000
0000
0100
0000
0000
0001
0000
0000
0000
1000
0000
0000
0000
0001
0000
0000
0000
1000
0000
0000
0000
0000
0000
0000
0000
0000
0000
0000
0000
,  // measure 16
0001
0000
0010
0000
0100
0000
1000
0000
0000
0001
0000
0000
1000
0000
0000
0010
0000
0000
0100
0000
0000
0010
0000
0000
0000
0000
0000
0100
0000
0000
0001
0000
0000
1000
0000
0000
0001
0000
0000
0000
0000
0000
0101
0000
0000
0000
0000
0000
,  // measure 17
0100
0000
0010
0000
1000
0000
0001
0000
0000
0010
0000
0000
0100
0000
0000
1000
0000
0000
0100
0000
0000
0010
0000
0000
0000
0000
0000
0001
0000
0000
0100
0000
0000
0010
0000
0000
0100
0000
0000
0000
0000
0000
0110
0000
0000
0000
0000
0000
,  // measure 18
0010
0000
1000
0000
0001
0000
0100
0000
0000
0010
0000
0000
1000
0000
0000
0001
0000
0000
0010
0000
0000
0001
0000
0000
0000
0000
0000
1000
0000
0000
0100
0000
0000
0010
0000
0000
0100
0000
0000
0000
0000
0000
1100
0000
0000
0000
0000
0000
,  // measure 19
1000
0000
0000
0001
0000
0000
0000
0000
0000
0001
0000
0000
0100
0000
0000
0000
0000
0000
0100
0000
0000
0010
0000
0000
0000
0000
0000
0010
0000
0000
1000
0000
0000
0000
0000
0000
0001
0000
1000
0000
0001
0000
1000
0000
0001
0000
1000
0000
,  // measure 20
0001
0000
0010
0000
0100
0000
1000
0000
0000
0010
0000
0000
1000
0000
0000
0001
0000
0000
0100
0000
0000
0001
0000
0000
0000
0000
0000
0010
0000
0000
0100
0000
0000
1000
0000
0000
0010
0000
0000
0000
0000
0000
1010
0000
0000
0000
0000
0000
,  // measure 21
1000
0000
0100
0000
0010
0000
0001
0000
0000
1000
0000
0000
0010
0000
0000
1000
0000
0000
0001
0000
0000
0010
0000
0000
0000
0000
0000
0001
0000
0000
0100
0000
0000
0010
0000
0000
1000
0000
0000
0000
0000
0000
1001
0000
0000
0000
0000
0000
,  // measure 22
0100
0000
0000
0010
0000
0000
0000
0000
0000
0010
0000
0000
0100
0000
0000
0000
0000
0000
0100
0000
0000
0001
0000
0000
0000
0000
0000
0001
0000
0000
1000
0000
0000
0000
0000
0000
1000
0000
0010
0000
0100
0000
0010
0000
0000
0000
0000
0000
,  // measure 23
1000
0000
0001
0010
0100
1000
0001
0100
0001
1000
0010
0000
0100
0000
0000
0000
1001
0000
0000
0000
0100
0000
0001
0000
1000
0000
0010
0000
0100
0000
0000
0000
,  // measure 24
0001
0010
0100
1000
0010
0000
0100
0010
1000
0001
1000
0001
0100
0000
0010
0000
,  // measure 25
1000
0000
0001
0000
0100
0000
0110
0000
0010
0000
1000
0001
1000
0100
0010
0000
,  // measure 26
0001
1000
0001
1000
0010
0000
0100
0010
0100
0001
1000
0001
0010
0000
0100
0000
,  // measure 27
1000
0000
0100
0000
0010
0000
0011
0000
0001
0000
1000
0100
0010
0100
1000
0000
,  // measure 28
0001
0100
0010
0100
0001
0000
1000
0010
1000
0001
0100
0001
0100
0000
0010
0000
,  // measure 29
1000
0000
0001
0000
1000
0000
1100
0000
0100
0000
0010
0001
0010
0001
1000
0000
,  // measure 30
0010
1000
0010
1000
0001
0000
0100
0010
1000
0001
0010
0100
0010
0000
0001
0000
,  // measure 31
1000
0000
0001
0000
0100
0000
0110
0000
1001
0000
0010
1000
0001
0100
0010
0000
,  // measure 32
1000
0100
0010
0001
0100
0000
0010
0100
0001
1000
0001
1000
0010
0100
0010
0000
,  // measure 33
1000
0001
1000
0001
0010
0000
0100
0000
0010
0001
1000
0001
1000
0100
0010
0000
,  // measure 34
0001
1000
0001
1000
0010
0000
0100
0010
0100
0001
1000
0010
0100
0001
0010
0000
,  // measure 35
0100
1000
0010
0100
0001
0000
1000
0000
0010
1000
0001
0010
0100
0010
0001
0000
,  // measure 36
1000
0010
0100
0010
1000
0000
0001
0100
0001
1000
0010
1000
0010
0100
0001
0000
,  // measure 37
1000
0100
0010
0001
0100
0000
0010
0000
1000
0001
0100
0010
1000
0010
0100
0000
,  // measure 38
0001
0010
0100
0010
0001
0000
1000
0001
0200
0000
0000
0000
0020
0000
0000
0000
,  // measure 39
0000
0000
0000
0330
1000
0100
0001
0100
,  // measure 40
1000
0000
0010
0000
0001
0000
0010
1000
0010
0000
0100
0000
1000
0000
0100
0000
,  // measure 41
0001
0001
0010
0010
0100
1000
0100
0001
,  // measure 42
0100
0000
1000
0000
0010
0000
0001
1000
0001
0000
0010
0000
1000
0000
0100
0000
,  // measure 43
0010
0000
0010
0000
2002
0000
3003
0000
0001
1000
0010
0100
0010
1000
0001
0000
,  // measure 44
1000
0010
0100
0010
1000
0000
0001
0100
0001
0010
0100
0000
1000
0100
0010
0000
,  // measure 45
0001
0010
0100
1000
0001
0000
0100
0001
0010
0100
1000
0000
0010
1000
0001
0000
,  // measure 46
1000
0000
0001
0000
1000
0000
0010
0000
0100
0000
0000
0000
0100
0000
0010
0000
1000
0001
0200
0000
0010
0300
0010
0000
1000
0000
0000
0000
1001
0000
0000
0000
,  // measure 47
0010
0000
1000
0001
0100
0000
0001
1000
0100
0000
0010
0001
1000
0000
0010
0100
,  // measure 48
0010
0000
1000
0001
1000
0000
0100
0010
0001
0000
0010
0100
1000
0000
1000
0000
,  // measure 49
0001
0000
0100
0010
1000
0000
0001
0100
0010
0000
1000
0100
0001
0000
0100
1000
,  // measure 50
0010
0000
1000
0010
0001
0000
0010
0100
0001
0000
1000
0001
0200
0000
0300
0000
,  // measure 51
0101
0000
0001
1000
0010
0000
1000
0001
0010
0000
0100
1000
0001
0000
0100
0010
,  // measure 52
0100
0000
0001
1000
0001
0000
0010
0100
1000
0000
0100
0010
0001
0000
0001
0000
,  // measure 53
1000
0000
0000
0000
0000
0000
0010
0000
0100
0000
0001
0000
0100
0000
0000
0000
0010
0000
0000
0000
1000
0000
0000
0000
0001
0000
0000
0000
0000
0000
1000
0000
0000
0001
0000
0000
0100
0000
0000
0000
0000
0000
0010
0000
0000
0100
0000
0000
,  // measure 54
1001
0000
1010
0000
0101
0000
1100
0000
1000
0001
0200
0000
0310
0000
1001
0000
,  // measure 55
0001
1000
0010
0000
1000
0010
0000
0100
0001
0100
0010
0000
1010
0000
1000
0000
,  // measure 56
0001
0010
0100
1000
0100
0010
0000
0001
1000
0001
0100
0000
0110
0000
0010
0000
,  // measure 57
1000
0010
0100
0000
0001
0100
0000
0010
0100
0001
0010
0000
0011
0000
0001
0000
,  // measure 58
0010
0100
1000
0100
0010
0001
0000
1000
0010
0100
0010
0000
1010
0000
1000
0000
,  // measure 59
0001
0100
0001
0010
0100
1000
0000
0010
0100
0001
1000
0000
1100
0000
0100
0000
,  // measure 60
0010
0001
0100
1000
0100
0001
0000
0010
1000
0010
0001
0000
0101
0000
0100
0000
,  // measure 61
0010
1000
0100
0001
0100
1000
0000
0001
0100
1000
0100
0000
0120
0000
2030
0000
,  // measure 62
3002
0000
0000
0000
0000
0000
0000
0000
0000
0000
0000
0000
0000
0000
0000
0000
0000
0000
0000
0000
0000
0000
0000
0000
0103
0000
0000
0000
0000
0000
0000
0000
0010
0000
0000
0000
0000
0000
0000
0000
0100
0000
0000
0000
0000
0000
0000
0000
0010
0000
0000
0000
0000
0000
0000
0000
0100
0000
0000
0000
0000
0000
0000
0000
0000
0000
0000
0000
0000
0000
0000
0000
0010
0000
0000
0000
0000
0000
0000
0000
0000
0000
0000
0000
0000
0000
0000
0000
0000
0000
0000
0000
0000
0000
0000
0000
0000
0000
0000
0000
0000
0000
0000
0000
1000
0000
0000
0000
0000
0000
0000
0000
0000
0000
0000
0000
0000
0000
0000
0000
0000
0000
0000
0000
0000
0000
0000
0000
0000
0000
0000
0000
0000
0000
0000
0000
0001
0000
0000
0000
0000
0000
0000
0000
0000
0000
0000
0000
0000
0000
0000
0000
0000
0000
0000
0000
0000
0000
0000
0000
0000
0000
0000
0000
0000
0000
0000
0000
1001
0000
0000
0000
0000
0000
0000
0000
0000
0000
0000
0000
1000
0000
0000
0000
0000
0000
0010
0000
0000
0000
0000
0000
,  // measure 63
0100
0000
0001
0010
0100
1000
0100
0010
0001
0000
1000
0000
0020
0000
0000
0000
0000
0000
2030
0000
0001
0000
0000
0000
3001
0000
0000
0000
1000
0000
0000
0000
,  // measure 64
1200
0000
0000
0000
0010
0000
0000
0000
0310
0000
0000
0000
0001
0000
0010
0100
1000
0000
0100
0010
0001
1000
0010
0100
0001
0000
1000
0000
2002
0000
0000
0000
,  // measure 65
0003
0000
0000
0000
0010
0000
0000
0000
3010
0000
0000
0000
0102
0000
0000
0000
0203
0000
0000
0000
0320
0000
0000
0000
2030
0000
0000
0000
3001
0000
0100
0010
,  // measure 66
0100
0000
0001
1000
0010
0001
0010
1000
0100
0000
0010
0000
0012
0000
0000
0000
0010
0000
0000
0000
1003
0000
0000
0000
1002
0000
0000
0000
0203
0000
0000
0000
,  // measure 67
0320
0000
0000
0000
0230
0000
0000
0000
0302
0000
0000
0000
1003
0000
0010
1000
0100
0000
0010
0001
1000
0100
0001
1000
0010
0000
0001
0000
0100
0010
1000
0000
,  // measure 68
0010
0100
0001
1000
0100
0000
0010
0001
1000
0001
0010
0000
0100
1000
0020
0000
,  // measure 69
0000
0000
0000
0000
,  // measure 70
0030
0000
0000
0000
;

//---------------dance-single - ----------------
#NOTEDATA:;
#CHARTNAME:;
#STEPSTYPE:dance-single;
#DESCRIPTION:;
#CHARTSTYLE:;
#DIFFICULTY:Medium;
#METER:14;
#RADARVALUES:0.700243,0.687488,0.142855,0.151783,0.258924,549.000000,533.000000,16.000000,17.000000,0.000000,0.000000,0.000000,0.000000,0.000000,0.700243,0.687488,0.142855,0.151783,0.258924,549.000000,533.000000,16.000000,17.000000,0.000000,0.000000,0.000000,0.000000,0.000000;
#CREDIT:;
#NOTES:
0000
0000
0000
0000
0000
0000
0000
0000
0000
0000
0000
0000
1000
0000
0000
1000
,
0000
0000
1000
0000
0001
0000
0000
0001
0000
0000
0001
0000
0010
0000
0000
0010
,
0000
0000
0010
0000
0100
1000
0000
1000
0100
0000
0010
0000
0001
0000
0000
0001
,
0000
0000
0001
0000
1000
0000
0000
1000
0000
0000
1000
0000
0010
0000
0000
0010
,
0000
0000
0010
0000
0100
0001
0000
0001
1000
0000
0010
0000
0100
0000
0100
0000
,
0001
1000
0010
0010
1000
0001
1000
1000
,
0100
0010
0001
0001
1000
0001
0010
0010
,
0100
1000
0001
0001
0010
0100
0200
0300
,
0001
0100
1000
0100
0001
0100
1000
0100
,
0001
0100
1000
0100
0001
0100
1000
0001
,
1000
0010
0001
0010
1000
0010
0001
0010
,
1000
0010
0001
0010
1000
0010
0001
0010
,
0110
0000
0100
0001
1000
0010
1000
0001
,
1001
0000
1000
0010
0100
0001
0010
0100
,
1100
0000
1000
0100
0010
0001
0100
0001
,
0201
0000
0000
0320
0000
0000
1030
0001
1000
0001
0000
0000
,
1000
0000
0010
0000
1000
0000
0001
0100
0000
0001
0100
0000
0010
0000
1000
0000
,
0100
0000
0010
0000
0001
0000
1000
0010
0000
0100
0001
0000
0010
0000
0100
0000
,
1000
0000
0100
0000
0010
0000
0001
1000
0000
0010
1000
0000
0001
0000
0100
0000
,
0010
1000
0000
0001
0100
0000
0010
1000
0000
0001
0100
0000
0020
0000
0000
0000
,
0130
0000
0001
0000
0010
0000
0100
1000
0000
0100
1000
0000
0010
0000
0100
0000
,
0010
0000
1000
0000
0001
0000
0100
0010
0000
1000
0001
0000
0100
0000
0001
0000
,
1000
0001
0000
1000
0001
0000
0100
0010
0000
0100
0010
0000
1000
0000
0001
0000
,
2000
0000
0000
3001
0101
0100
0010
1000
,
0001
0100
0010
0000
1000
0001
0010
0000
,
0100
1000
0010
0110
0100
0001
1000
0010
,
1000
0001
0100
0000
0010
1000
0001
0000
,
1000
0100
0010
0011
0001
1000
0010
1000
,
0001
0010
0100
0000
1000
0100
0010
0000
,
0001
1000
0010
1010
1000
0001
0100
0010
,
1000
0001
0010
0000
0100
1000
0010
0000
,
0100
0001
1000
0001
1001
0010
0100
0001
,
1000
0010
0100
0000
0001
1000
0100
0000
,
0010
0001
0100
0110
0010
1000
0001
0100
,
0001
1000
0010
0000
0100
0001
1000
0000
,
0001
0010
0100
1100
1000
0001
0100
0001
,
1000
0100
0010
0000
0001
0010
0100
0000
,
1000
0001
0100
0101
0001
1000
0010
0100
,
0001
1000
0100
0010
0002
0000
2000
0000
,
0000
0000
0000
3003
0010
0010
0100
0100
,
0001
0000
0001
0000
0010
0000
0010
0001
1000
0000
1000
0000
0100
0000
0100
0000
,
0010
0010
0001
0001
1000
1000
0010
0010
,
0100
0000
0100
0000
0010
0000
0010
1000
0100
0000
0100
0000
0010
0000
0010
0000
,
0001
0001
2002
3003
0100
0100
0010
0010
,
1000
0000
1000
0000
0100
0000
0100
1000
0001
0000
0001
0000
0010
0000
0010
0000
,
0100
0100
1000
1000
0001
0001
0100
0100
,
0010
0000
0010
0000
0100
0000
0100
0001
1000
0000
1000
0000
0010
0000
0110
0000
,
0100
0001
1000
0010
1000
0100
0010
0001
,
0100
0001
1000
0010
0100
0010
1000
0001
,
0010
0100
1000
0010
0100
0010
1000
0100
,
0010
0100
1000
0010
0100
0001
1000
0000
,
1001
0100
0001
0010
0100
1000
0010
0100
,
0001
1000
0010
0100
0001
0010
0100
0010
,
0001
0000
0010
0100
0000
1000
0100
0000
0010
0000
0001
0000
0100
0000
0010
0000
,
1000
1000
1000
1000
1000
2000
3001
1001
,
1000
0001
1000
0000
0001
0100
0000
0100
0010
0000
0100
0000
0001
0000
1000
0000
,
0010
0100
0010
0000
1000
0010
0000
0010
0100
0000
0010
0000
1000
0000
0001
0000
,
1000
0100
1000
0000
0001
0010
0000
0010
0100
0000
1000
0000
0100
0000
1000
0000
,
0001
0100
0001
0000
1000
0010
0000
0010
0100
0000
0001
0000
1000
0000
0100
0000
,
0010
0001
0010
0000
0100
1000
0000
1000
0001
0000
1000
0000
0100
0000
1000
0000
,
0010
0100
0010
0000
0100
0001
0000
0001
1000
0000
0010
0000
0100
0000
0001
0000
,
1000
0010
1000
0000
0001
0100
0000
0100
0010
0000
0100
0000
0002
0000
2003
0000
,
3020
0230
0000
0000
0000
0000
0300
0001
,
1000
0010
0100
0002
0000
1003
0010
1000
,
0001
0100
0100
0001
0010
0100
1000
0002
,
0000
0013
0100
1000
0010
0100
0100
0001
,
1000
0100
0010
0001
0001
1000
1000
0010
,
0100
0001
1000
0001
0010
0100
1000
0001
,
0010
0000
0001
0000
0100
0000
0010
0000
1000
0000
0001
0000
0100
0010
0200
0000
,
0000
0000
0000
0000
,
0300
0000
0000
0000
;

//---------------dance-single - ----------------
#NOTEDATA:;
#CHARTNAME:;
#STEPSTYPE:dance-single;
#DESCRIPTION:;
#CHARTSTYLE:;
#DIFFICULTY:Easy;
#METER:5;
#RADARVALUES:0.410707,0.437492,0.071427,0.133926,0.017857,322.000000,314.000000,8.000000,15.000000,0.000000,0.000000,0.000000,0.000000,0.000000,0.410707,0.437492,0.071427,0.133926,0.017857,322.000000,314.000000,8.000000,15.000000,0.000000,0.000000,0.000000,0.000000,0.000000;
#CREDIT:;
#NOTES:
0000
0000
0000
0001
,
0000
1000
0010
0000
0000
0100
0001
0000
,
0000
1000
0010
0000
0000
0100
0001
0000
,
0000
0010
0100
0000
0000
1000
0001
0000
,
0000
0010
0100
0000
0000
0000
0001
1000
,
0100
0000
0010
0001
1000
0000
0010
1000
,
0001
0000
0100
0010
1000
0000
0010
0100
,
0001
0000
1000
0001
0100
0000
0010
0000
,
0001
0010
0100
1000
,
0010
0100
0001
0100
,
0010
1000
0100
0010
,
0001
0010
0100
1000
,
1001
0000
0001
0100
0010
0000
0100
0000
,
0101
0000
0010
1000
0001
0000
0100
0000
,
1010
0000
1000
0100
0010
0000
0001
0000
,
0210
0320
2030
3001
,
1000
0010
0100
0000
0001
0100
0010
0000
,
1000
0001
1000
0000
0100
0010
0001
0000
,
1000
0010
0100
0000
0001
1000
0010
0000
,
0100
0000
0000
0100
0000
0000
0100
0000
0000
0100
0000
0000
0020
0000
0000
0000
,
0130
0001
1000
0000
0010
0100
0001
0000
,
1000
0001
0100
0000
0010
1000
0001
0000
,
0010
0000
0000
0010
0000
0000
0010
0000
0000
0010
0000
0000
0001
0000
1000
0000
,
0002
0000
0000
0003
1001
0000
0100
0000
,
0001
0010
0100
1000
,
0010
0100
0010
1000
,
0001
0100
0010
1000
,
0100
0010
0001
0100
,
0010
1000
0001
0010
,
0100
0010
0001
1000
,
0010
0100
0001
1000
,
0010
0000
0100
0000
1001
0010
0100
0000
,
0001
0010
0100
0000
1000
0100
0010
0000
,
0001
1000
0100
0000
0010
0001
1000
0000
,
0010
0100
0010
0000
1000
0001
1000
0000
,
0010
0100
0001
0000
1000
0010
1000
0000
,
0001
0010
0001
0000
0100
0010
0100
0000
,
0001
1000
0010
0000
0100
0001
1000
0000
,
0010
1000
0001
0000
2000
0000
0002
0000
,
0000
0000
0000
3003
0100
0000
0100
0000
,
0100
0000
0100
0010
1000
0000
1000
0000
,
1000
1000
0001
0001
,
0001
0000
0001
1000
0100
0000
0100
0000
,
0100
0020
0031
1000
,
0010
0000
1000
0010
0100
0000
0001
0000
,
0010
0100
1000
0010
,
0100
0000
0001
1000
0020
0000
0130
0110
,
0010
1000
0001
0010
,
0100
0000
0010
0000
0001
0000
1000
0001
,
1000
0010
0100
0001
,
0010
0100
1000
0001
,
1001
1000
0010
0100
,
0001
0000
1000
0000
0010
0000
1000
0001
,
2000
3200
0320
0031
,
1000
0000
0010
0000
0100
0010
0100
0001
,
0000
1000
0000
0010
0000
0100
0000
0001
,
0000
0010
0000
0100
0000
1000
0000
0010
,
0000
0100
0000
0001
0000
1000
0000
0001
,
0000
1000
0000
0100
0000
1000
0000
0010
,
0000
0100
0000
0010
0000
1000
0000
0001
,
0000
1000
0000
0010
0000
0100
0000
0001
,
0000
0010
0000
0100
0000
1000
0000
0001
,
1000
0020
0000
0000
0000
0000
0000
1030
,
0000
0010
0000
0100
0000
0001
0000
0010
,
0000
0100
0000
1000
0000
0010
0000
0200
,
0000
0301
0000
1000
0000
0010
0000
1000
,
0000
0001
0000
0010
0000
0100
0000
0010
,
0000
0001
0000
1000
0000
0010
0000
1000
,
0000
0010
0000
0100
0000
0001
1000
0002
,
0000
0000
0000
0000
,
0003
0000
0000
0000
;

//---------------dance-single - ----------------
#NOTEDATA:;
#CHARTNAME:;
#STEPSTYPE:dance-single;
#DESCRIPTION:;
#CHARTSTYLE:;
#DIFFICULTY:Beginner;
#METER:3;
#RADARVALUES:0.205353,0.311936,0.035714,0.089284,0.000000,161.000000,157.000000,4.000000,10.000000,0.000000,0.000000,0.000000,0.000000,0.000000,0.205353,0.311936,0.035714,0.089284,0.000000,161.000000,157.000000,4.000000,10.000000,0.000000,0.000000,0.000000,0.000000,0.000000;
#CREDIT:;
#NOTES:
0000
0000
0000
1000
,
0000
0001
0000
1000
,
0000
0010
0000
1000
,
0000
0010
0000
1000
,
0000
0010
0000
1000
,
0000
0100
0000
0100
,
0000
0010
0000
0100
,
0000
0001
0000
0100
,
1000
0000
0010
0000
,
0100
0000
1000
0000
,
0100
0000
0010
0000
,
1000
0000
0010
0000
,
1001
0001
0100
0010
,
1000
0100
1000
0010
,
0100
0001
0100
0010
,
2000
0000
3002
0000
,
1003
0000
1000
0000
,
0001
0000
0010
0000
,
0001
0000
1000
0000
,
0010
0000
0000
0100
0000
0000
0010
0000
,
0010
0000
0100
0000
,
0001
0000
0100
0000
,
0100
0000
0000
0010
0000
0000
1000
0000
,
0002
0000
0000
0003
1001
0000
0000
0000
,
1000
0000
0010
0000
,
0100
0000
0001
0000
,
0010
0000
0100
0000
,
1000
0000
0100
0000
,
0010
0000
0001
0000
,
0100
0000
0010
0000
,
1000
0000
0001
0000
,
0100
0000
1001
0000
,
1000
0000
0001
0000
,
1000
0000
0100
0000
,
0100
0000
0001
0000
,
0100
0000
0001
0000
,
1000
0000
0010
0000
,
1000
0000
0010
0000
,
0100
0000
0020
0000
,
0000
0030
0100
0100
,
0100
0100
0001
0001
,
0001
0001
1000
1000
,
1000
1000
0010
0010
,
0010
0020
0130
0000
,
0100
0001
0000
1000
,
0000
0010
0000
0100
,
0000
0000
1000
0000
0200
0000
0000
0310
,
0100
0000
1000
0000
,
0010
0000
1000
0000
,
0001
0000
0010
0000
,
0100
0000
0001
0000
,
1001
0000
0100
0000
,
1000
0000
0100
0000
,
0002
0003
0200
0300
,
0001
0000
0000
0000
0010
0000
0010
1000
,
0000
0000
0000
0100
0000
0000
0000
1000
,
0000
0000
0000
0010
0000
0000
0000
0100
,
0000
0000
0000
1000
0000
0000
0000
1000
,
0000
0000
0000
0010
0000
0000
0000
0100
,
0000
0000
0000
0100
0000
0000
0000
1000
,
0000
0000
0000
0100
0000
0000
0000
1000
,
0000
0000
0000
0010
0000
0000
0000
1000
,
0000
0200
0000
0000
0000
0000
0000
0301
,
0000
0000
0000
0010
0000
0000
0000
0100
,
0000
0000
0000
0001
0000
0000
0000
0010
,
0000
0000
0000
0001
0000
0000
0000
0001
,
0000
0000
0000
0100
0000
0000
0000
0100
,
0000
0000
0000
0001
0000
0000
0000
1000
,
0000
0000
0000
0010
0000
1000
0000
0002
,
0000
0000
0000
0000
0000
0000
0000
0003
;
