#TITLE:Gimme a Big Beat;
#SUBTITLE:;
#ARTIST:kors k;
#TITLETRANSLIT:;
#SUBTITLETRANSLIT:;
#ARTISTTRANSLIT:;
#GENRE:;
#CREDIT:;
#BANNER:;
#BACKGROUND:;
#LYRICSPATH:;
#CDTITLE:;
#MUSIC:Gimme a Big Beat.mp3;
#OFFSET:-0.100000;
#SAMPLESTART:92.619926;
#SAMPLELENGTH:12.000000;
#SELECTABLE:YES;
#BPMS:0.000000=138.000000
;
#STOPS:121.000000=0.220000,
121.500000=0.230000
;
#BGCHANGES:;
#KEYSOUNDS:;
#ATTACKS:;

//---------------dance-single - ----------------
#NOTES:
     dance-single:
     :
     Hard:
     14:
     0.738411,0.635259,0.355114,0.236742,0.560290,580.000000,45.000000,30.000000,0.000000,0.000000,0.000000,0.738411,0.635259,0.355114,0.236742,0.560290,580.000000,45.000000,30.000000,0.000000,0.000000,0.000000:
0000
0000
0000
0000
,
0000
0000
0000
0000
2002
0000
0000
0000
3003
0000
0100
0000
0010
0000
0000
0010
,
0000
0010
0000
0100
1001
0000
0100
0010
,
0100
0000
0001
0000
1000
0000
0000
0000
0000
0000
0010
0000
1000
0000
0000
1000
,
0000
0000
1000
0000
0000
0000
0001
0100
0001
0100
0001
0100
0001
0000
1000
0000
,
0001
0000
0010
0000
0100
0000
0000
0000
0000
0000
1000
0000
0001
0000
0000
0001
,
0000
0000
0001
0000
0000
0000
0100
0010
0100
0000
0000
0000
0010
0000
0100
0000
,
0001
0000
0010
0000
0100
0000
0000
0000
0000
0000
1000
0000
0100
0000
0000
0100
,
0000
0000
0100
0000
0000
0000
1000
0010
1000
0001
0100
0010
0100
0000
0001
0000
,
1000
0001
0110
0010
1000
0010
0101
0100
,
0010
0100
1010
0010
0100
0010
0101
0001
,
0010
0100
1001
1000
0010
0100
0101
0001
,
1000
0100
1010
0010
0100
0001
0110
0100
,
0001
1000
0001
0002
0100
0100
0010
0010
,
1000
2003
0010
0010
0100
0100
0001
3001
,
0100
0000
0100
0000
0001
1000
0001
1000
0010
0100
0010
0100
0001
0010
0001
1000
,
0100
1000
0001
0100
0010
0000
1000
0000
0001
0000
0100
0000
0001
0000
1000
0000
,
0220
0000
0330
0000
0010
0000
1000
0001
1000
0001
0100
0000
0100
0000
0001
0000
,
0010
0000
0100
0000
1000
0000
0001
0100
0001
0100
0010
0000
0010
0000
0100
0000
,
0001
0000
0100
0000
0010
0000
1000
0100
1000
0100
0010
0000
0010
0000
0001
0000
,
1000
0000
0010
0000
0100
0000
0001
0100
0001
0100
0010
0000
0010
0000
1000
0000
,
0001
0000
0010
0000
0100
0000
1000
0010
1000
0010
0100
0000
0100
0000
0001
0000
,
1000
0000
0010
0000
1000
0000
0001
1000
0001
1000
0010
0000
0010
0000
0100
0000
,
0001
0000
1000
0000
0010
0000
1000
0010
1000
0010
0100
0000
0100
0000
0001
0000
,
1000
0000
0010
0000
1000
0000
0002
0000
0203
0000
0000
0000
0310
0000
0000
0110
,
0000
0000
0010
0000
0100
0000
0001
1000
0100
1000
0010
0000
0010
0000
1000
0000
,
0100
0000
0010
0000
0001
0000
1000
0010
1000
0001
0100
0000
0100
0000
0001
0000
,
1000
0000
0010
0000
0100
0000
0001
0010
0001
1000
0100
0000
0100
0000
1000
0000
,
0001
0000
0100
0000
0010
0000
1000
0010
1000
0001
0100
0000
0100
0000
0001
0000
,
1000
0000
0100
0000
0010
0000
0001
1000
0010
1000
0001
0000
0001
0000
1000
0000
,
0010
0000
0100
0000
0002
0000
2003
0000
3010
0100
0001
0100
0010
0000
0010
0000
,
1000
0000
0001
0100
0000
0100
0010
0000
0010
1000
0000
1000
0001
0000
0001
0000
,
0100
0000
0010
1000
0001
0100
0010
1000
0001
0000
0001
0000
1000
0000
0010
0000
,
0100
0010
1000
0001
1000
0100
1000
0010
,
1000
0100
0010
0001
0100
0010
0100
0001
,
1000
0010
1000
0001
0010
0100
1000
0010
,
0100
0001
1000
0010
0100
0001
0100
1000
,
0100
0000
0010
0000
1000
0000
0001
0100
0000
0000
0100
0001
0000
1000
0010
0000
,
0100
0000
0002
0000
0000
0000
0013
0100
0000
0100
0000
1000
0000
0001
0100
0000
,
0010
0000
2000
0000
0000
0000
3001
0100
0000
0100
0000
0001
0000
1000
0010
0000
,
0100
0000
0002
0000
0000
0000
1003
0100
0000
0100
0000
0010
0000
0001
0100
0000
,
2002
0000
0000
0000
3003
0000
0010
0000
0100
0000
0000
0100
0000
0000
0100
0000
,
0000
0000
0010
0000
1000
0000
0001
0100
0000
0010
0100
0010
0000
1000
0001
0000
,
0100
0000
0010
0000
0000
0000
0100
0000
0001
0000
0000
0001
0000
0000
0001
0000
,
0000
0000
1000
0000
0010
0000
0100
0010
0000
0100
0001
0100
0000
0001
0010
0100
,
1000
0000
0000
0000
0000
0000
0001
0000
1000
0000
0000
1000
0000
0000
1000
0000
,
0000
0000
0010
0000
0100
0000
0001
1000
0000
0010
1000
0010
0000
0100
0001
0000
,
1000
0000
0001
0000
0000
0000
0100
0000
0010
0000
0000
0010
0000
0000
0010
0000
,
0000
0000
1000
0000
0001
0000
0100
0010
0200
0000
0320
0000
2030
0000
3001
0000
,
0110
0100
0001
0100
1010
0010
0100
0010
,
0101
0100
0010
0100
1010
1000
0100
0010
,
1001
0001
0100
0010
1010
1000
0001
0010
,
0101
0100
0010
1000
0001
0100
0220
0330
,
2002
0000
0000
3003
0010
0000
0100
0000
0010
0000
0000
1010
0000
0000
1001
0000
,
0001
0000
0100
0000
0001
1000
0001
0100
0000
0100
0010
0100
0000
0010
1000
0001
,
0200
0000
0300
0000
0110
0000
0010
0000
1000
0000
0000
1010
0000
0000
0101
0000
,
0100
0000
0010
0000
1000
0001
0100
0001
0000
0001
1000
0100
0000
0010
0001
1000
,
0002
0000
0003
0000
0101
0000
0100
0000
0010
0000
0000
1001
0000
0000
1100
0000
,
0100
0000
0010
0000
0001
0010
0100
1000
0000
1000
0001
0010
0000
0100
1000
0100
,
0020
0000
0030
0000
0101
0000
0001
0000
1000
0000
0000
1001
0000
0000
0011
0000
,
0001
0000
1000
0000
0100
0010
0001
0010
0000
0010
0001
1000
0000
0010
0100
0001
,
0200
0000
0300
0000
0101
0000
0010
0000
0100
0000
0000
0101
0000
0000
1001
0000
,
1000
0000
0010
0000
1000
0001
1000
0010
0000
0010
0100
0010
0000
0100
0001
1000
,
0020
0000
0030
0000
0110
0000
0100
0000
0001
0000
0000
0101
0000
0000
1010
0000
,
0010
0000
0100
0000
0001
1000
0010
1000
0000
1000
0001
0010
0000
0100
1000
0001
,
2000
0000
3000
0000
1010
0000
0010
0000
0100
0000
0000
1001
0000
0000
0011
0000
,
0010
0000
0100
0000
1000
0100
0010
0001
0000
0001
1000
0100
0000
0010
0001
0010
,
0200
0000
0300
0000
1010
0000
1000
0000
0001
0000
0000
1001
0000
0000
1100
0000
,
1000
0000
0001
0000
0010
0100
1000
0100
0010
0100
1000
0001
1000
0100
0010
0001
,
0200
0000
0000
0000
,
0300
0000
0000
0000
;

//---------------dance-single - ----------------
#NOTES:
     dance-single:
     :
     Medium:
     11:
     0.528725,0.493608,0.047348,0.260417,0.106534,430.000000,6.000000,33.000000,0.000000,0.000000,0.000000,0.528725,0.493608,0.047348,0.260417,0.106534,430.000000,6.000000,33.000000,0.000000,0.000000,0.000000:
0000
0000
0000
0000
,
0000
0000
1001
0000
0000
0100
0002
0000
,
0000
1003
0000
0010
0010
0000
1000
0001
,
1000
0100
0010
0000
0000
0001
0020
0000
,
0000
0130
0000
2000
0000
0000
3001
1000
,
0001
1000
0100
0000
0000
0010
0002
0000
,
0000
1003
0000
0010
0010
0000
0100
0001
,
1000
0100
1000
0000
0000
0001
0200
0000
,
0000
0310
0000
1000
1000
0001
0001
0100
,
0010
0100
0110
0010
1000
0001
0000
0001
,
0010
0100
0000
0100
1000
0010
0000
0010
,
1000
0001
0000
0001
0100
0010
0000
0010
,
0100
1000
0000
1000
0100
0001
0000
0001
,
1000
1000
0001
0001
0100
0100
0010
0010
,
1000
1000
0100
0100
0010
0010
0001
0001
,
0100
0100
0001
0010
0100
1000
0001
0010
,
0100
1000
0001
1000
0010
0100
0020
0000
,
0230
0000
0000
0000
0310
0000
0000
0100
0000
0000
0001
0000
0100
0000
0001
0000
,
0010
0000
0100
0000
1000
0000
0000
0001
0000
0000
0010
0000
0001
0000
1000
0000
,
0010
0000
0100
0000
0010
0000
0000
1000
0000
0000
0010
0000
0100
0000
0001
0000
,
1000
0000
0010
0000
0100
0000
0000
0001
0000
0000
0010
0000
0100
0000
1000
0000
,
0001
0000
0010
0000
0100
0000
0000
1000
0000
0000
0001
0000
0100
0000
0001
0000
,
1000
0000
0010
0000
1000
0000
0000
0001
0000
0000
0010
0000
0001
0000
0100
0000
,
0010
0000
1000
0000
0010
0000
0000
0100
0000
0000
0001
0000
0100
0000
0010
0000
,
1000
0000
0100
0000
1000
0000
0010
0000
0020
0000
0000
0000
0100
0000
0000
0130
,
0000
0000
0100
0000
0100
0000
0000
0010
0000
0000
1000
0000
0010
0000
1000
0000
,
0100
0000
0010
0000
0001
0000
0000
1000
0000
0000
0100
0000
1000
0000
0001
0000
,
0100
0000
0010
0000
0100
0000
0000
0001
0000
0000
0100
0000
0010
0000
1000
0000
,
0001
0000
0100
0000
0010
0000
0000
1000
0000
0000
0100
0000
0010
0000
0001
0000
,
1000
0000
0100
0000
0010
0000
0000
0001
0000
0000
1000
0000
0010
0000
1000
0000
,
0001
0100
0020
0230
0301
1000
0100
0100
,
0010
0000
0000
0001
0000
0000
0010
0000
0000
0100
0000
0000
1000
0000
0001
0000
,
0000
1000
0001
0100
0010
0100
0002
2000
,
3003
0010
0100
0010
1000
0001
1000
0000
,
0001
0100
0001
0000
1000
0010
1000
0000
,
0001
0010
0100
1000
0010
0100
0010
1000
,
0001
0010
0000
0100
1000
0100
0010
0001
,
1000
0001
0000
0200
0000
0302
0000
1003
,
0001
0200
0000
0302
0000
2003
0000
3100
,
0010
0002
0000
2003
0000
3020
0000
0130
,
0001
2000
0000
3020
0000
0230
0000
0310
,
2002
0000
0000
0000
3003
0000
0010
0000
1000
0000
0000
1000
0000
0000
1000
0000
,
0000
0001
0100
0010
1000
0100
0010
0001
,
1000
0000
0100
0000
0000
0000
0010
0000
0001
0000
0000
0001
0000
0000
0001
0000
,
0000
0100
0001
1000
0001
0100
0010
1000
,
0010
0000
0000
0000
0000
0000
0100
0000
0010
0000
0000
0010
0000
0000
0010
0000
,
0000
1000
0001
1000
0100
0010
0100
1000
,
0010
0000
0100
0000
0000
0000
0001
0000
0100
0000
0000
0100
0000
0000
0100
0000
,
0000
0001
1000
0010
0200
0320
2030
3001
,
0110
0100
0001
1000
0000
1000
0001
0010
,
0000
0010
0100
1000
0000
1000
0100
0010
,
0000
0010
0001
1000
0000
1000
0001
0100
,
0000
0100
0010
1000
0002
0000
1003
0000
,
2002
0000
0000
0000
3003
0000
0100
0000
0010
0000
0000
0010
0000
0000
0010
0000
,
1000
0001
0100
0100
0010
1000
1000
0001
,
0100
0000
0000
0000
0000
0000
0010
0000
1000
0000
0000
1000
0000
0000
1000
0000
,
0100
0010
0001
0001
0010
0100
0100
1000
,
0001
0000
0000
0000
0000
0000
0100
0000
0001
0000
0000
0001
0000
0000
0001
0000
,
1000
0010
1000
1000
0001
0100
0100
0010
,
1000
0000
0000
0000
0000
0000
0001
0000
0100
0000
0000
0100
0000
0000
0100
0000
,
0001
1000
0100
0100
1000
0001
0001
1000
,
0100
0000
0000
0000
0000
0000
0010
0000
0100
0000
0000
0100
0000
0000
0100
0000
,
0001
1000
0010
0010
0100
0001
0001
1000
,
0010
0000
0000
0000
0000
0000
0100
0000
0001
0000
0000
0001
0000
0000
0001
0000
,
0010
0100
1000
1000
0100
0010
0010
0001
,
1000
0000
0000
0000
0000
0000
0010
0000
1000
0000
0000
1000
0000
0000
1000
0000
,
0001
0100
0001
0001
1000
0010
0010
0100
,
0001
0000
0000
0000
0000
0000
1000
0000
0010
0000
0000
0010
0000
0000
0010
0000
,
0100
0001
0010
1000
0010
0001
0010
1000
,
2002
0000
3003
0000
;

//---------------dance-single - ----------------
#NOTES:
     dance-single:
     :
     Easy:
     4:
     0.332567,0.301649,0.031566,0.165720,0.019729,270.000000,4.000000,21.000000,0.000000,0.000000,0.000000,0.332567,0.301649,0.031566,0.165720,0.019729,270.000000,4.000000,21.000000,0.000000,0.000000,0.000000:
0000
0000
0000
0000
,
0000
0000
2000
0000
0000
0001
3002
0000
,
0000
0103
0000
0000
0010
0000
1000
0000
,
0001
0000
0100
0000
0000
0001
0002
0000
,
0000
1003
0000
0000
0000
0000
0001
0000
,
1000
0000
0010
0000
0000
1000
2000
0000
,
0000
3001
0000
0000
0100
0000
0010
0000
,
0100
0000
0001
0000
0000
0100
0200
0000
,
0000
0301
0000
0000
1000
0000
0001
0000
,
0010
0000
0110
0000
1000
0001
0000
0000
,
0100
0010
0000
0000
0100
0001
0000
0000
,
1000
0100
0000
0000
0010
0001
0000
0000
,
0001
1000
0000
0000
1000
0010
0000
0000
,
1000
0001
0100
0000
0100
0000
0010
0000
,
0010
1000
1000
0001
,
0001
2000
3002
2003
,
3200
0310
0000
0002
,
2000
3003
0010
0000
0100
0000
0001
0000
,
1000
0001
0010
0100
,
1000
0001
1000
0001
,
0100
0010
0100
0010
,
1000
0100
0010
0100
,
1000
0001
0100
0010
,
1000
0000
0001
0000
0100
0000
0010
0010
,
0010
0200
0000
0002
,
0303
0000
0000
0000
0010
0000
0000
0010
0000
0000
0000
0000
1000
0000
0000
0000
,
0001
0000
0000
0000
1000
0000
0000
1000
0000
0000
0000
0000
0010
0000
0000
0000
,
0100
0000
0000
0000
0010
0000
0000
0010
0000
0000
0000
0000
1000
0000
0000
0000
,
0001
0000
0000
0000
0100
0000
0000
0100
0000
0000
0000
0000
0010
0000
0000
0000
,
1000
0000
0000
0000
0001
0000
0000
0001
0000
0000
0000
0000
1000
0000
0000
0000
,
0010
0000
1000
1000
0001
0000
0100
0100
,
0200
0000
0000
0000
0000
0000
0001
0301
,
0000
0100
0000
0000
0010
0000
0200
0000
,
0310
0010
1000
1000
,
0001
0001
0100
0100
,
0001
0001
1000
1000
,
0100
0100
0010
0010
,
0001
1000
0010
0100
,
0001
1000
0010
0100
,
0010
1000
0100
0010
,
0001
0010
0100
1000
,
2002
0000
3003
0000
1000
0000
0000
1000
,
0000
0001
1000
0010
,
1000
0000
0000
0001
0100
0000
0000
0001
,
0000
1000
0001
1000
,
0010
0000
0000
0100
0010
0000
0000
0010
,
0000
0001
1000
0010
,
1000
0000
0000
0001
0100
0000
0000
0100
,
0000
0000
0001
0000
1000
1000
0001
0001
,
0000
0000
0001
1000
0000
0000
1000
0010
,
0000
0000
0010
1000
0000
0000
1000
0010
,
0000
0000
0010
1000
0000
0000
1000
0001
,
0000
0000
0001
0100
0010
0000
0100
0000
,
2002
0000
3003
0100
0010
0000
0000
0010
,
1000
0000
0001
0000
0100
0000
0001
0001
,
0001
0000
0000
1000
0010
0000
0000
0000
,
0100
0000
0001
0000
0010
0000
1000
1000
,
1000
0000
0000
0100
0001
0000
0000
0001
,
1000
0000
1000
0000
0001
0000
0100
0100
,
0100
0000
0000
0001
1000
0000
0000
1000
,
0001
0000
0100
0000
1000
0000
0001
0001
,
0001
0000
0000
0010
0100
0000
0000
0100
,
0001
0000
1000
0000
0100
0000
0010
0010
,
0010
0000
0000
0001
1000
0000
0000
1000
,
0010
0000
1000
0000
0001
0000
0100
0100
,
0100
0000
0000
0010
1000
0000
0000
1000
,
0001
0000
0100
0000
0001
0000
0010
0010
,
0010
0000
0000
0001
1000
0000
0000
1000
,
0001
0000
1000
0000
0001
0000
0100
0100
,
2002
0000
3003
0000
;

//---------------dance-single - ----------------
#NOTES:
     dance-single:
     :
     Beginner:
     2:
     0.172484,0.219381,0.023674,0.110480,0.000000,136.000000,3.000000,14.000000,0.000000,0.000000,0.000000,0.172484,0.219381,0.023674,0.110480,0.000000,136.000000,3.000000,14.000000,0.000000,0.000000,0.000000:
// measure 0
0000
0000
0000
0000
,  // measure 1
0000
2000
0000
3002
,  // measure 2
0000
0003
0000
0000
0010
0000
0000
0000
,  // measure 3
0001
1000
0000
0002
,  // measure 4
0000
0003
0000
0000
0000
0000
0000
0000
,  // measure 5
1000
0010
0000
2000
,  // measure 6
0000
3000
0000
0000
0000
0000
0000
0000
,  // measure 7
0100
0001
0000
0200
,  // measure 8
0000
0300
0000
0000
0000
0000
0010
0000
,  // measure 9
0000
1001
1000
0000
,  // measure 10
0001
0000
0100
0000
,  // measure 11
0010
0000
1000
0000
,  // measure 12
0001
0000
0100
0000
,  // measure 13
0001
0100
0000
0010
,  // measure 14
0000
1000
0000
0001
,  // measure 15
0000
2000
0000
3001
,  // measure 16
0000
0100
0000
0002
,  // measure 17
1003
0010
0000
1000
,  // measure 18
0000
0001
0000
1000
,  // measure 19
0000
0010
0000
1000
,  // measure 20
0000
0001
0000
0100
,  // measure 21
0000
0010
0000
1000
,  // measure 22
0000
0100
0000
0010
,  // measure 23
0000
0001
0000
0010
,  // measure 24
0000
0200
0000
0000
,  // measure 25
0300
0010
0000
1000
,  // measure 26
0000
1000
0000
0010
,  // measure 27
0000
0010
0000
1000
,  // measure 28
0000
0100
0000
0010
,  // measure 29
0000
0001
0000
1000
,  // measure 30
0000
0000
1000
1000
0000
0000
0000
0000
,  // measure 31
0200
0000
0000
0000
0000
0000
0000
0301
,  // measure 32
0000
0000
0010
0000
,  // measure 33
0010
0000
1000
0000
,  // measure 34
0001
0000
0100
0000
,  // measure 35
0001
0000
1000
0000
,  // measure 36
0100
0000
0010
0000
,  // measure 37
0001
0000
0010
0000
,  // measure 38
0001
0000
0010
0000
,  // measure 39
0100
0000
1000
0000
,  // measure 40
0001
0000
1000
0000
,  // measure 41
0002
0000
0000
0003
1000
0000
0000
1000
,  // measure 42
0000
0001
0000
0010
,  // measure 43
0000
0000
0000
0000
0100
0000
0000
0001
,  // measure 44
0000
1000
0000
1000
,  // measure 45
0000
0000
0000
0000
0010
0000
0000
0010
,  // measure 46
0000
0001
0000
0010
,  // measure 47
0000
0000
0000
0000
0100
0000
0000
0100
,  // measure 48
0000
0001
0000
1000
,  // measure 49
0000
0001
0000
1000
,  // measure 50
0000
0010
0000
1000
,  // measure 51
0000
0001
0000
1000
,  // measure 52
0000
0010
0000
0100
,  // measure 53
2002
0000
3003
0100
0010
0000
0000
0000
,  // measure 54
1000
0000
0100
0000
,  // measure 55
0001
0000
0000
1000
0000
0000
0000
0000
,  // measure 56
0100
0000
0010
0000
,  // measure 57
1000
0000
0001
0000
,  // measure 58
1000
0000
0001
0000
,  // measure 59
0100
0000
1000
0000
,  // measure 60
0001
0000
1000
0000
,  // measure 61
0001
0000
0100
0000
,  // measure 62
0001
0000
0100
0000
,  // measure 63
0010
0000
1000
0000
,  // measure 64
0010
0000
0001
0000
,  // measure 65
0100
0000
1000
0000
,  // measure 66
0010
0000
0001
0000
,  // measure 67
0010
0000
1000
0000
,  // measure 68
0001
0000
1000
0000
,  // measure 69
2002
0000
3003
0000
;
