#VERSION:0.83;
#TITLE:月々紅花;
#SUBTITLE:;
#ARTIST:7mai;
#TITLETRANSLIT:Getsugetsu kouka;
#SUBTITLETRANSLIT:;
#ARTISTTRANSLIT:;
#GENRE:;
#ORIGIN:;
#CREDIT:;
#BANNER:Getsugetsu kouka-bn.png;
#BACKGROUND:Getsugetsu kouka-bg.png;
#PREVIEWVID:;
#JACKET:Getsugetsu kouka-jacket.png;
#CDIMAGE:;
#DISCIMAGE:;
#LYRICSPATH:;
#CDTITLE:;
#MUSIC:Getsugetsu kouka.mp3;
#OFFSET:0.200000;
#SAMPLESTART:18.000006;
#SAMPLELENGTH:12.000000;
#SELECTABLE:YES;
#BPMS:0.000=183.000;
#STOPS:217.000=0.300,
218.500=0.160,
219.000=0.340,
220.000=0.160,
220.500=0.180,
221.500=0.300,
223.000=0.160,
223.500=0.340,
224.500=0.160,
225.000=0.180,
226.000=0.300,
227.500=0.160,
228.000=0.340,
229.000=0.160,
229.500=0.180,
230.500=0.300,
232.000=0.160,
232.500=0.340,
233.500=0.160,
234.000=0.180;
#DELAYS:;
#WARPS:;
#TIMESIGNATURES:0.000=4=4;
#TICKCOUNTS:0.000=4;
#COMBOS:0.000=1;
#SPEEDS:0.000=1.000=0.000=0;
#SCROLLS:0.000=1.000;
#FAKES:;
#LABELS:0.000=Song Start;
#BGCHANGES:;
#KEYSOUNDS:;
#ATTACKS:
;

//---------------dance-single - ----------------
#NOTEDATA:;
#CHARTNAME:;
#STEPSTYPE:dance-single;
#DESCRIPTION:;
#CHARTSTYLE:;
#DIFFICULTY:Hard;
#METER:16;
#RADARVALUES:0.844298,0.972634,0.292659,0.585318,0.447118,727.000000,691.000000,36.000000,72.000000,0.000000,0.000000,0.000000,0.000000,0.000000,0.844298,0.972634,0.292659,0.585318,0.447118,727.000000,691.000000,36.000000,72.000000,0.000000,0.000000,0.000000,0.000000,0.000000;
#CREDIT:;
#NOTES:
// measure 0
0000
0000
0000
0000
,  // measure 1
0000
0000
0000
0000
,  // measure 2
0000
0000
1000
0100
1000
0100
0010
0001
,  // measure 3
0010
0001
1000
0001
1000
0001
0100
0010
,  // measure 4
0100
0010
1000
0100
0010
0001
0010
0100
,  // measure 5
1000
0010
1000
0001
0010
0001
1000
0100
,  // measure 6
0010
0100
1000
0001
0100
0010
1000
0001
,  // measure 7
0100
0010
1000
0100
1000
0100
0010
0001
,  // measure 8
1000
0010
1000
0001
0010
0100
0010
0001
,  // measure 9
1000
0010
0100
0010
1000
0001
1000
0010
,  // measure 10
0100
0001
1000
2000
0001
3002
0100
0203
,  // measure 11
0010
0320
1000
2030
0100
3200
0010
0320
,  // measure 12
0001
0032
0100
0203
0010
0320
1000
2030
,  // measure 13
0001
0000
3001
1000
0010
0000
0200
0000
0010
0000
0320
0000
0100
0000
0130
0000
,  // measure 14
1001
0000
0000
0000
1000
0000
1000
0000
0100
0000
0010
0001
0010
0000
0100
0000
,  // measure 15
1000
0000
0001
0000
0100
0000
0100
0000
0010
0000
1000
0100
1000
0000
0100
0000
,  // measure 16
0010
0000
0001
0000
1000
0000
1000
0000
0010
0000
0100
0001
0100
0000
0001
0000
,  // measure 17
0010
0000
0100
0000
1000
0000
1000
0000
0010
1000
0100
1000
0100
0000
0010
0000
,  // measure 18
0001
0000
1000
0000
0001
0000
0001
0000
0010
0000
0100
1000
0100
0000
0010
0000
,  // measure 19
0001
0000
1000
0000
0010
0000
0010
0000
0100
0000
0001
0010
0001
0000
0010
0000
,  // measure 20
0100
0000
1000
0000
0001
0000
0001
0000
0100
0000
0010
1000
0010
0000
1000
0000
,  // measure 21
0100
0000
0010
0000
0001
0000
0001
0000
0010
0000
0100
1000
0100
0000
0010
0000
,  // measure 22
0001
0000
0010
0000
1001
0000
1000
0000
0100
0000
0010
0001
0010
0000
0100
1000
,  // measure 23
0100
0000
0010
0000
0100
0000
0100
0000
0010
0000
0001
0100
0001
0000
1000
0010
,  // measure 24
1000
0000
0001
0000
1000
0000
1000
0000
0010
0000
0100
0001
0100
0000
0010
1000
,  // measure 25
0010
0000
0100
0000
0001
0000
0001
0000
1000
0000
0001
1000
0001
0000
0100
0010
,  // measure 26
0100
0000
0001
0000
1000
0000
1000
0000
0100
0000
0010
0001
0010
0000
0100
1000
,  // measure 27
0100
0000
0010
0000
0100
0000
0100
0000
0010
0000
0001
0100
0001
0000
1000
0010
,  // measure 28
1000
0000
0001
0000
1000
0000
1000
0000
0010
0000
0100
0001
0100
0000
0010
1000
,  // measure 29
0010
0000
0100
0000
0001
0000
0001
0000
1000
0000
0001
1000
0001
0000
0100
0010
,  // measure 30
0100
0001
1000
0001
2000
0000
0000
0000
0000
0000
0000
0000
3002
0000
0000
0000
,  // measure 31
0000
0000
0203
0000
0000
0000
0000
0320
,  // measure 32
0000
2030
3200
0320
,  // measure 33
0032
0000
2003
0000
0000
0000
0000
3002
,  // measure 34
0000
0000
0203
0000
0000
0000
0000
0320
,  // measure 35
0000
2030
0000
3002
,  // measure 36
0023
0000
0230
0000
0000
0000
0000
0320
,  // measure 37
0000
0000
0032
0000
0000
2003
0000
3002
,  // measure 38
0000
0003
0110
0000
0000
0000
2002
3003
,  // measure 39
0000
1000
0001
0000
0001
0000
2100
3010
,  // measure 40
0000
0000
0100
0000
0001
0000
0202
0303
,  // measure 41
0010
1000
0001
0000
0100
0000
1002
0103
,  // measure 42
0000
0100
0010
0000
0000
0000
2010
3100
,  // measure 43
0000
0100
0010
0000
0001
0000
2001
0000
,  // measure 44
3020
0000
0000
0000
2030
0000
0000
0000
0000
0000
3100
0010
0001
0000
1000
0000
,  // measure 45
0001
1001
0000
1000
0100
0110
0010
0001
,  // measure 46
0010
0100
0000
0100
1000
0000
0100
0000
,  // measure 47
0010
0000
0001
0000
0100
0000
0000
0000
0010
0000
1000
0001
1000
0001
0100
0000
,  // measure 48
0010
0100
0000
0001
0010
0100
1000
0000
,  // measure 49
0010
0000
0100
0000
0001
0000
0010
0000
0100
0000
0010
0000
0001
0000
1000
0100
,  // measure 50
1000
0100
0010
0000
0000
0000
0010
0000
0010
0000
0000
0000
0001
0000
0000
0000
,  // measure 51
0100
0100
0010
0000
1000
1000
0001
0010
,  // measure 52
0100
0000
1000
0000
0010
0000
0100
0001
0100
0000
0010
1000
0010
0000
0100
0001
,  // measure 53
0100
0000
0000
0000
0000
0000
0010
0000
0000
0000
0000
0000
1000
0000
0000
0000
0100
0000
0000
0000
0010
0000
0000
0000
0001
0000
0000
0010
0000
0000
0200
0000
0000
0000
0000
0000
0300
0000
0000
0000
0000
0000
1001
0000
0000
0000
0000
0000
,  // measure 54
2002
0000
3003
0000
0110
0000
0100
0001
1000
0000
1001
0000
0011
0000
0010
0100
,  // measure 55
1000
0000
2100
0000
0000
0000
3002
0000
1003
0010
0100
0000
0101
0000
1001
0000
,  // measure 56
1000
0010
0100
0000
0120
0000
0000
0000
2030
0000
3001
1000
0010
0000
1010
0000
,  // measure 57
0101
0000
0001
1000
0100
0000
0120
0000
0000
0000
0032
0000
0013
0100
1000
0000
,  // measure 58
1100
0000
0011
0000
0001
1000
0010
0000
2002
0000
3003
0000
1000
0010
1000
0010
,  // measure 59
0100
0000
0001
0100
0001
0100
0010
0000
1000
0100
1000
0100
0010
0000
0001
0010
,  // measure 60
0001
0010
0100
0000
1000
0000
0010
0000
0100
0000
0001
0000
0010
0001
0010
0001
,  // measure 61
1000
0000
0010
1000
0010
1000
0001
0000
1000
0100
1000
0100
0010
0000
0001
0100
,  // measure 62
0001
0100
0010
0000
1000
0000
0001
0000
1000
0000
0010
0000
0100
0010
0100
0010
,  // measure 63
1000
0000
0100
0010
0100
0010
0001
0000
1000
0001
1000
0001
0100
0000
0001
1000
,  // measure 64
0001
1000
0100
0000
0010
0000
0001
0000
1000
0000
0100
0000
1000
0100
1000
0100
,  // measure 65
0010
0000
0001
0100
0001
0100
0010
0000
1000
0001
1000
0001
0010
0000
0001
1000
,  // measure 66
0001
1000
0010
0000
0100
0000
0001
0000
1000
0000
0001
0000
1001
0000
0000
0000
,  // measure 67
0100
0220
0000
0000
0330
0202
0000
0303
,  // measure 68
2020
0000
3030
2200
0000
3300
0022
0000
,  // measure 69
0033
2002
0000
0000
3003
0220
0000
0330
,  // measure 70
1001
0000
1000
0000
0010
0100
0010
0100
0010
0100
0010
0000
1000
0000
0100
0000
,  // measure 71
0010
0000
0001
1000
0010
0000
0100
0000
0001
0000
1000
0000
0100
0000
0010
0000
,  // measure 72
0001
0000
0010
0100
1000
0000
0010
0000
0100
0000
0001
0000
1000
0000
0001
0000
,  // measure 73
0100
0000
0010
1000
0001
0000
0010
0000
0100
0000
0010
0000
0001
0000
1000
0000
,  // measure 74
0010
0100
0010
0100
0001
0000
0010
0100
1000
0000
0100
0000
0010
0000
0001
0000
,  // measure 75
0100
0000
0010
1000
0001
0000
0010
0000
0100
0000
1000
0000
0100
0000
0010
0000
,  // measure 76
0001
0000
0010
0100
1000
0000
0001
0000
0010
0000
0100
0000
0010
0000
0001
0000
,  // measure 77
1000
0000
0001
1000
0100
0000
0010
0000
0001
0000
1000
0000
0100
0000
1000
0000
,  // measure 78
0010
0100
0010
1000
0001
0000
0010
0000
0100
0000
0100
0000
1001
0000
1000
0000
,  // measure 79
0100
0000
0010
0001
1000
0000
0100
1000
0001
0000
0010
0000
0100
0000
1000
0000
,  // measure 80
0010
0000
0100
0001
1000
0000
0010
0100
0001
0000
1000
0000
0100
0000
0010
0000
,  // measure 81
0001
0000
0010
0100
1000
0000
0010
0100
0001
0000
0100
0000
0010
0000
1000
0000
,  // measure 82
0001
1000
0001
0100
0010
0000
1000
0000
0100
0000
1000
0000
0001
0000
0100
0000
,  // measure 83
0010
0000
1000
0001
0010
0000
0100
1000
0001
0000
0010
0000
0100
0000
1000
0000
,  // measure 84
0010
0000
0100
0010
1000
0000
0100
0010
0001
0000
0010
0000
0100
0000
1000
0100
,  // measure 85
0001
0000
1000
0000
0001
0100
1000
0000
0001
0000
1000
0100
0001
0000
0100
0000
,  // measure 86
1000
0000
0100
0000
0010
0000
0001
0000
0000
2000
0000
0000
0000
0000
0000
3010
0000
0000
0200
0000
0000
0000
0000
0000
,  // measure 87
0301
0020
0000
0130
2000
0000
0000
3001
,  // measure 88
0010
0010
0010
0010
0010
0010
0000
0000
;

//---------------dance-single - ----------------
#NOTEDATA:;
#CHARTNAME:;
#STEPSTYPE:dance-single;
#DESCRIPTION:;
#CHARTSTYLE:;
#DIFFICULTY:Medium;
#METER:12;
#RADARVALUES:0.635256,0.684446,0.235753,0.390212,0.004065,547.000000,518.000000,29.000000,48.000000,0.000000,0.000000,0.000000,0.000000,0.000000,0.635256,0.684446,0.235753,0.390212,0.004065,547.000000,518.000000,29.000000,48.000000,0.000000,0.000000,0.000000,0.000000,0.000000;
#CREDIT:;
#NOTES:
0000
0000
0000
0000
,
0000
0000
0000
0000
,
0000
1000
0001
0010
,
0100
1000
0100
0010
,
0001
1000
0100
1000
,
0001
0100
0001
1000
,
0010
1000
0001
0100
,
0010
0100
0001
0010
,
0100
1000
0100
0010
,
0001
0100
0010
0100
,
0001
0000
1000
0001
1000
0010
0100
0001
,
0010
0100
1000
0010
0100
0001
0010
0001
,
1000
0010
0100
0010
0100
0001
1000
0010
,
1000
0000
0001
0100
0001
0000
1000
0000
0010
0000
0100
0000
0010
0000
1000
0000
,
1001
0000
0001
1000
0100
0010
0010
0100
,
1000
0001
0100
0010
0100
0001
0001
1000
,
0010
1000
0001
1000
0010
0100
0100
0001
,
0010
0100
1000
0100
0010
0001
0001
0010
,
0100
1000
0001
1000
0010
0100
0100
0010
,
1000
0001
0010
0100
0010
0001
0001
0010
,
0100
1000
0001
1000
0100
0010
0010
0001
,
1000
0010
0100
0001
0010
0100
0100
1000
,
0100
0010
0011
0001
0010
0100
0100
0010
,
0001
1000
0010
0100
0010
1000
1000
0001
,
0100
0001
1000
0001
0100
0010
0010
1000
,
0100
0010
0001
0010
0100
1000
1000
0100
,
0010
0001
1000
0001
0100
0010
0010
0100
,
0001
1000
0100
0010
0100
1000
1000
0100
,
0010
0001
1000
0001
0010
0100
0100
1000
,
0001
0100
0010
1000
0100
0010
0010
0001
,
0010
0100
2000
0000
0000
0000
3020
0000
,
0000
0000
2030
0000
0000
0000
0000
3200
,
0000
0320
0032
0203
,
0320
0000
2030
0000
0000
0000
0000
3020
,
0000
0000
0230
0000
0000
0000
0000
0302
,
0000
0023
0000
0230
,
0320
0000
0032
0000
0000
0000
0000
2003
,
0000
0000
3020
0000
0000
0230
0000
0020
,
0000
0330
1001
0000
0000
0000
1010
0000
,
0000
0010
0100
0101
,
0000
0100
0001
0101
,
0100
0010
1000
1100
,
0000
0100
0000
0110
,
0000
0010
0001
1001
,
1000
0000
0200
0000
0000
1300
0100
0010
,
0001
1001
0000
1000
0100
0010
0001
0010
,
0100
1000
0000
0010
1000
0000
0100
0000
,
0010
0001
0010
0000
0100
1000
0100
0010
,
0001
0010
0000
0001
1000
0001
0010
0000
,
0100
1000
0100
1000
0010
0100
0010
0100
,
0001
1000
0000
1000
0001
0000
0100
0000
,
0010
0100
0010
0000
1000
0001
1000
0010
,
0100
0010
2000
0000
3002
0000
0203
0000
,
0320
0000
0000
0000
0000
0000
0030
1001
,
1001
0000
0220
0000
0330
1010
1010
0000
,
0101
0201
0000
0320
0000
0030
0110
1001
,
0000
1010
0102
0000
2003
0000
3000
1100
,
0011
0000
1001
2010
0000
3002
0000
0003
,
1001
0011
0000
0110
1100
0000
0001
1000
,
0100
1000
0001
0010
0001
1000
0010
1000
,
0001
0100
0001
1000
0100
1000
0010
0100
,
0010
1000
0100
0010
0001
0100
0001
1000
,
0010
1000
0010
0100
0010
1000
0100
1000
,
0010
0100
0001
0100
0010
1000
0010
1000
,
0100
1000
0001
0100
0001
0010
0100
0010
,
0001
1000
0010
1000
0010
0100
0010
1000
,
0001
0010
0100
1000
0001
0010
0002
0000
,
0000
0203
0000
0000
0000
0320
0000
0000
,
2030
0000
0000
3200
0000
0000
0320
0000
,
0000
0032
0000
0000
0000
2003
0000
3000
,
0010
1000
0001
0100
0001
0100
0010
1000
,
0001
1000
1000
0001
0001
0100
0010
0100
,
0001
1000
1000
0100
0100
1000
0100
0010
,
0001
0100
0100
0010
0010
0100
0001
1000
,
0100
0010
0010
0001
0001
1000
0001
0100
,
0010
1000
1000
0100
0100
0010
0001
0100
,
0001
1000
1000
0010
0010
1000
0001
0100
,
0001
0010
0010
0100
0100
1000
0001
1000
,
0010
0100
0100
0001
0001
1000
0010
1000
,
0001
1000
1000
0001
0001
0100
0010
0100
,
0001
1000
1000
0100
0100
1000
0100
0010
,
0001
0100
0100
0010
0010
0100
0001
1000
,
0100
0010
0010
0001
0001
1000
0001
0100
,
0010
1000
1000
0100
0100
0010
0001
0100
,
0001
1000
1000
0010
0010
1000
0002
0000
,
0000
0023
0000
0000
0230
0000
0000
1300
,
1000
0001
0001
0200
0000
0310
2000
0000
,
3001
0020
0000
0031
2000
0000
0000
3001
,
0100
0010
0100
0010
0100
0010
0000
0000
;

//---------------dance-single - ----------------
#NOTEDATA:;
#CHARTNAME:;
#STEPSTYPE:dance-single;
#DESCRIPTION:;
#CHARTSTYLE:;
#DIFFICULTY:Easy;
#METER:7;
#RADARVALUES:0.328661,0.360235,0.073165,0.325177,0.000000,283.000000,274.000000,9.000000,40.000000,0.000000,0.000000,0.000000,0.000000,0.000000,0.328661,0.360235,0.073165,0.325177,0.000000,283.000000,274.000000,9.000000,40.000000,0.000000,0.000000,0.000000,0.000000,0.000000;
#CREDIT:;
#NOTES:
0000
0000
0000
0000
,
0000
0000
0000
0000
,
0000
0000
0000
0000
,
0000
0000
0000
0000
,
0000
0000
0000
0000
,
0000
0000
0000
0000
,
0000
0000
0000
0000
,
0000
0000
0000
0000
,
0000
0000
0000
0000
,
0000
0000
0000
0000
,
0000
1000
1000
0001
,
0001
1000
1000
0010
,
0010
0100
0100
0001
,
0001
1000
1000
0001
,
1001
1000
0100
0010
,
0001
1000
0100
1000
,
0010
0100
0001
0010
,
0001
1000
0010
1000
,
0001
0010
0001
1000
,
0100
1000
0010
0100
,
0001
1000
0100
1000
,
0010
0100
0010
0100
,
0010
1001
1000
0010
,
1000
0001
0010
0001
,
1000
0010
1000
0010
,
0100
0010
0100
0001
,
0010
0001
0010
0100
,
1000
0100
1000
0010
,
0100
0010
0100
0001
,
0010
0001
0010
0100
,
1000
0002
0000
0203
,
0000
0320
0000
0000
,
0000
1030
1000
1000
,
1000
0002
0000
0000
,
0000
0023
0000
0000
,
0000
0230
0000
2300
,
3002
0203
0000
0000
,
0000
0000
0320
0000
0000
0030
0000
0000
,
0000
0001
0000
1010
,
0000
0010
0000
0101
,
0000
0100
0000
0110
,
0000
0010
0000
1010
,
0000
1000
0000
0110
,
0000
0010
0000
1001
,
0000
2000
0000
3001
,
0100
0100
0000
0000
0000
0110
0000
0000
,
0000
0000
0000
0001
1000
0000
0100
0000
,
1000
0100
1000
0100
,
1000
0001
0000
0000
0100
0000
0001
0000
,
0100
0001
0100
0001
,
1000
0010
0000
0000
0100
0000
0010
0000
,
0100
0010
0100
0010
,
0200
0000
0000
0000
,
0310
0020
0000
0000
0000
0000
0030
1000
,
1000
0000
0002
0000
0000
1000
2003
0000
,
0001
3002
0000
2003
0000
0000
0001
3002
,
0000
1000
2003
0000
3002
0000
0000
1000
,
2003
0000
0001
3002
0000
2003
0000
0000
,
0001
3002
0000
1000
1003
0000
0001
0000
,
0100
0010
1000
0100
,
0010
0000
0001
1000
0001
0000
0010
0000
,
0100
1000
0010
0100
,
0001
0000
1000
0000
0001
1000
0001
0000
,
1000
0100
1000
0010
,
0100
0000
0010
0000
1000
0001
1000
0000
,
0010
0100
0001
0010
,
0100
0000
1000
0000
0001
1000
0002
0000
,
0000
0023
0000
0000
0000
0230
0000
0000
,
2300
0000
0000
3020
0000
0000
0230
0000
,
0000
0302
0000
0000
0000
2003
0000
3000
,
0002
0000
0000
1003
,
0001
0100
0001
1000
,
0100
1000
0010
0100
,
0010
1000
0100
1000
,
0001
0010
0001
0010
,
0100
1000
0010
0100
,
0001
1000
0010
1000
,
0001
0100
0001
1000
,
0010
1000
0001
0100
,
0001
1000
0010
1000
,
0001
1000
0001
0100
,
0010
0100
0001
0010
,
0100
1000
0100
0010
,
0001
1000
0100
1000
,
0001
0100
0001
2000
,
0000
3020
0000
0000
0230
0000
0000
1300
,
0001
1000
0001
1000
0000
0000
0002
0000
,
0003
0200
0000
0300
0020
0000
0030
2000
,
0000
0000
0000
0000
0100
3100
0000
0000
;

//---------------dance-single - ----------------
#NOTEDATA:;
#CHARTNAME:;
#STEPSTYPE:dance-single;
#DESCRIPTION:;
#CHARTSTYLE:;
#DIFFICULTY:Beginner;
#METER:3;
#RADARVALUES:0.189299,0.324211,0.065035,0.211365,0.000000,163.000000,155.000000,8.000000,26.000000,0.000000,0.000000,0.000000,0.000000,0.000000,0.189299,0.324211,0.065035,0.211365,0.000000,163.000000,155.000000,8.000000,26.000000,0.000000,0.000000,0.000000,0.000000,0.000000;
#CREDIT:;
#NOTES:
0000
0000
0000
0000
,
0000
0000
0000
0000
,
0000
0000
0000
0000
,
0000
0000
0000
0000
,
0000
0000
0000
0000
,
0000
0000
0000
0000
,
0000
0000
0000
0000
,
0000
0000
0000
0000
,
0000
0000
0000
0000
,
0000
0000
0000
0000
,
0000
0001
0000
1000
,
0000
0001
0000
0100
,
0000
0010
0000
1000
,
0000
0001
0000
1000
,
0000
0001
0000
0100
,
0000
0001
0000
1000
,
0000
0010
0000
0100
,
0000
0001
0000
1000
,
0000
0100
0000
1000
,
0000
0001
0000
0010
,
0000
0001
0000
0100
,
0000
0010
0000
0100
,
0000
1001
0000
0001
,
0000
1000
0000
0001
,
0000
0100
0000
0001
,
0000
0100
0000
0010
,
0000
1000
0000
0010
,
0000
0100
0000
0001
,
0000
0100
0000
0010
,
0000
1000
0000
0100
,
0000
0002
0000
0000
,
0000
0203
0000
0000
,
0000
0302
0000
0000
,
0000
2003
0000
0000
,
0000
3200
0000
0000
,
0000
0320
0000
0000
,
0000
0032
0000
0000
,
0000
1003
0000
0000
,
0000
0000
0000
1001
,
0000
0000
0000
1001
,
0000
0000
0000
1001
,
0000
0000
0000
1001
,
0000
0000
0000
1001
,
0000
0000
0000
1001
,
0000
0000
0000
0110
,
0000
0010
0000
0000
0000
0010
0000
0000
,
0000
1000
0000
0000
0001
0000
0001
0000
,
0001
0001
0001
0001
,
0001
1000
0000
0000
1000
0000
1000
0000
,
1000
1000
1000
1000
,
1000
0001
0000
0000
0001
0000
0001
0000
,
0001
0001
0001
0001
,
2000
0000
0000
0000
,
0020
3000
0000
0000
0000
0000
0000
0000
,
0030
0000
2000
0000
0000
0002
3000
0000
,
2000
0003
0000
3002
0000
0000
2000
0003
,
0000
0002
3000
0000
2003
0000
0000
0002
,
3000
0000
2000
0003
0000
3002
0000
0000
,
2000
0003
0000
0002
3003
0000
1000
0000
,
0000
0100
0000
0010
,
0000
1000
0000
0100
,
0000
0001
0000
0010
,
0000
0001
0000
1000
,
0000
0010
0000
0100
,
0000
0100
0000
0001
,
0000
0010
0000
0100
,
0000
0001
0000
2000
,
0000
3000
0000
0000
0000
0100
0000
0000
,
0002
0000
0000
0003
0000
0000
0020
0000
,
0000
1030
0000
0000
0000
0002
0000
0000
,
2003
0000
0000
3001
,
0000
0010
0000
0001
,
0000
0100
0000
0010
,
0000
0100
0000
0001
,
0000
1000
0000
0001
,
0000
0010
0000
0100
,
0000
1000
0000
0001
,
0000
0100
0000
0010
,
0000
1000
0000
0001
,
0000
0100
0000
0001
,
0000
1000
0000
0010
,
0000
1000
0000
0001
,
0000
1000
0000
0100
,
0000
0010
0000
0001
,
0000
0100
0000
0010
,
0000
0100
0000
0000
0010
0000
0000
0000
,
1000
0001
0000
1000
,
0000
1000
0000
0000
1000
0000
0000
0000
,
0000
0000
0000
0000
0001
0001
0000
0000
;
