#VERSION:0.83;
#TITLE:GHOST KINGDOM;
#SUBTITLE:;
#ARTIST:BEMANI Sound Team "劇団レコード";
#TITLETRANSLIT:GHOST KINGDOM;
#SUBTITLETRANSLIT:;
#ARTISTTRANSLIT:BEMANI Sound Team "Tomoaki Hirono";
#GENRE:;
#ORIGIN:;
#CREDIT:;
#BANNER:Folder.jpg;
#BACKGROUND:;
#PREVIEWVID:;
#JACKET:GHOST KINGDOM-jacket.png;
#CDIMAGE:AlbumArtSmall.jpg;
#DISCIMAGE:;
#LYRICSPATH:;
#CDTITLE:;
#MUSIC:GHOST KINGDOM.mp3;
#OFFSET:0.000000;
#SAMPLESTART:18.700006;
#SAMPLELENGTH:12.000000;
#SELECTABLE:YES;
#BPMS:0.000=118.000,
33.000=59.000,
34.000=118.000,
193.500=59.000;
#STOPS:34.000=0.260,
34.500=0.260,
111.000=0.500,
113.000=0.260;
#DELAYS:;
#WARPS:;
#TIMESIGNATURES:0.000=4=4;
#TICKCOUNTS:0.000=4;
#COMBOS:0.000=1;
#SPEEDS:0.000=1.000=0.000=0;
#SCROLLS:0.000=1.000;
#FAKES:;
#LABELS:0.000=Song Start;
#BGCHANGES:;
#KEYSOUNDS:;
#ATTACKS:
;

//---------------dance-single - ----------------
#NOTEDATA:;
#CHARTNAME:;
#STEPSTYPE:dance-single;
#DESCRIPTION:;
#CHARTSTYLE:;
#DIFFICULTY:Hard;
#METER:14;
#RADARVALUES:0.534377,0.599596,0.571362,0.660638,0.258899,419.000000,355.000000,64.000000,74.000000,0.000000,0.000000,0.000000,0.000000,0.000000,0.534377,0.599596,0.571362,0.660638,0.258899,419.000000,355.000000,64.000000,74.000000,0.000000,0.000000,0.000000,0.000000,0.000000;
#CREDIT:;
#NOTES:
0000
0000
0000
0000
,
0000
0000
1001
0000
1000
0001
0100
0000
,
0010
0000
1000
0000
0100
0010
0002
0000
,
0000
0000
0103
0000
0001
1000
0010
0000
,
0200
0020
0000
0000
,
0000
0330
2002
3003
2020
3030
0202
0303
,
2200
3300
0011
0100
1010
0001
1100
0010
,
1001
0100
0011
1000
0101
0010
0110
1000
,
1001
0000
0001
0000
1000
0100
0010
0002
1003
0000
1001
0000
0001
0000
0100
0000
,
0001
0000
1000
0100
0000
0000
0010
0000
0000
0100
0000
0010
0002
0000
0000
0000
0000
0000
0103
0000
0000
0100
0000
0000
,
0010
0010
2000
0100
0002
3003
1001
1000
,
0010
0000
0100
0001
0000
0000
1000
0000
0000
0010
0000
1000
0001
0000
0000
0000
0000
0000
0110
0000
0000
1000
0000
0001
,
0100
0000
0010
1000
0000
0000
0101
0000
0000
0010
0000
0000
2020
0000
0000
3030
0000
0000
0100
0000
0000
0010
0000
0000
,
1000
0000
0001
0010
0000
0000
0100
0000
0000
0010
0000
0100
2000
0000
0000
0000
0000
0000
3010
0000
0000
0010
0000
0000
,
0100
0100
0002
0010
2000
3003
1001
0001
,
0100
0000
0010
1000
0000
0000
0001
0000
0000
0100
0000
0001
1000
0000
0000
0000
0000
0000
0110
0000
0000
0001
0000
1000
,
0010
0000
0100
0001
0000
0000
1010
0000
0000
0100
0000
0000
0101
0000
0000
0000
0000
0000
1000
0000
0000
1000
0000
0001
,
0100
0000
0000
0010
0000
0000
0100
0000
0000
0100
0000
0001
0010
0000
0000
0001
0000
0000
0010
0000
0000
0010
0000
0001
,
1000
0000
0000
0010
0000
0000
0110
0000
0000
0000
0000
0000
0110
0000
0000
0010
1000
0001
1000
0000
0000
0001
0000
1000
,
0010
0000
0000
0100
0000
0000
0010
0000
0000
0010
0000
1000
0100
0000
0000
1000
0000
0000
0100
0000
0000
0100
0000
1000
,
0001
0000
0000
0100
0000
0000
0101
0000
0000
0000
0000
0000
0101
0000
0000
0001
1000
0100
1000
0000
0000
0010
0000
0000
,
0100
0000
0001
1000
0000
0000
2020
0000
0000
3030
0000
0202
0000
0000
0303
0000
0000
0000
0001
0000
0000
0100
0000
0000
,
0010
0000
0000
0000
1000
0000
0001
0000
0000
0000
0000
0000
0001
0000
0000
0010
0000
0000
0100
0000
0000
0000
2200
0000
0000
0000
0000
0000
3300
0000
0000
0000
0000
0000
0000
0000
0100
0000
0000
0000
0000
0000
0010
0000
0000
0000
0000
0000
,
0010
0000
0001
1000
0000
0000
0100
0000
0000
1000
0000
0010
0000
0000
0000
0100
0000
0000
0001
0000
0000
0010
0000
0000
,
0100
0000
0000
1000
0000
0000
0100
0000
0000
1000
0000
0000
0000
0000
0000
0000
0000
0000
1001
0000
0000
0000
0000
0000
1001
0000
0000
0000
0000
0000
0100
0000
0010
0000
0100
0000
0010
0000
0000
0000
0000
0000
0100
0000
0000
0000
0000
0000
,
0010
0000
1000
0001
0000
0000
0202
0000
0000
0303
0000
2020
0000
0000
3030
0000
0000
0000
1000
0000
0000
0010
0000
0000
,
0100
0000
0000
0000
0001
0000
1000
0000
0000
0000
0000
0000
1000
0000
0000
0100
0000
0000
0010
0000
0000
0000
0022
0000
0000
0000
0000
0000
0033
0000
0000
0000
0000
0000
0000
0000
0110
0000
0000
0000
0000
0000
0010
0000
0000
0000
0000
0000
,
0100
0000
1000
0001
0000
0000
1001
0000
0000
1000
0000
0000
0001
0000
0100
0000
0010
0000
2000
0000
0000
3000
0000
0000
,
0001
1000
0001
1000
0000
0000
0220
0330
0000
0001
0000
0000
0010
0000
0000
0100
0000
0000
1000
0000
0000
0001
0000
0000
,
0010
0100
1000
0002
0000
0010
0000
0100
,
0000
1003
0101
1000
0010
0100
0001
1000
,
0010
0100
0001
2000
0000
0010
0000
0001
,
3001
1000
0010
0200
0000
0310
1000
0002
,
0000
0103
0000
2010
0000
3001
1000
0020
,
0000
1030
1001
0002
0000
0103
0010
2000
,
0000
3200
0000
0320
0000
0031
0010
0200
,
0000
1300
0000
2020
3030
0202
0303
0220
,
0330
0000
2002
0000
3003
0000
0001
0000
0100
0010
0000
0010
1000
0000
0001
0000
,
0100
0000
1000
0000
0100
0000
0001
0000
0010
0000
0100
0000
1000
0001
0000
0000
,
0000
0000
1000
0000
0100
0000
0011
0000
0000
0101
0000
0000
1010
0000
0000
1100
,
0000
1000
0100
0010
0001
0010
0100
0220
,
0330
0000
2002
0000
3003
0000
1000
0000
0010
0100
0000
0100
0001
0000
1000
0000
,
0010
0000
0001
0000
0010
0000
1000
0000
0100
0000
0010
0000
0001
1000
0000
0000
,
0000
0020
0100
0230
0001
0302
1000
2003
,
0010
0000
3020
0000
0100
0000
0100
0000
0000
1000
1000
0000
0000
0100
0100
0000
,
0000
1000
1000
0000
0030
0000
2002
0000
3003
0000
0202
0000
0303
0000
2020
0000
,
3030
0022
0033
1100
0010
0101
1000
0011
,
0100
1001
0010
1100
0001
1010
0100
0110
,
0001
0000
1001
0000
1000
0000
0001
0010
0100
2000
3001
0000
1001
0000
0220
0000
,
0000
0000
0000
0330
;

//---------------dance-single - ----------------
#NOTEDATA:;
#CHARTNAME:;
#STEPSTYPE:dance-single;
#DESCRIPTION:;
#CHARTSTYLE:;
#DIFFICULTY:Medium;
#METER:11;
#RADARVALUES:0.391536,0.399730,0.223188,0.651710,0.066957,307.000000,282.000000,25.000000,73.000000,0.000000,0.000000,0.000000,0.000000,0.000000,0.391536,0.399730,0.223188,0.651710,0.066957,307.000000,282.000000,25.000000,73.000000,0.000000,0.000000,0.000000,0.000000,0.000000;
#CREDIT:;
#NOTES:
0000
0000
0000
0000
,
0000
0000
1001
0000
1000
0001
1000
0000
,
0001
0000
0010
0000
0100
0010
0100
0000
,
0000
0000
1000
0000
0001
1000
0001
0000
,
0100
0002
0000
0000
,
0003
0000
2001
3000
1020
0030
0201
0300
,
1020
0030
0200
0000
0310
1000
0002
0000
,
0023
0230
2300
3002
,
2003
0000
0000
0000
3001
1000
0010
1000
0002
0000
0103
0000
0010
0000
1000
0000
,
0001
1000
0010
0100
0002
0000
1003
1000
,
0001
0001
0020
0000
0200
0330
1100
1000
,
0100
0010
0001
0010
0200
0000
1300
0001
,
0001
1000
0010
0010
2002
3003
0100
0001
,
1000
0001
0100
0010
2000
0000
3001
0001
,
1000
1000
0200
0000
0020
0330
0011
0001
,
0010
0100
1000
0100
0020
0000
0031
1000
,
1000
0001
0100
0010
0220
0330
0100
0001
,
1000
1000
0100
0010
0001
0001
0010
0100
,
1000
1000
1001
0000
0110
0000
0100
0001
,
0010
0010
0100
1000
0001
0001
0100
0010
,
1000
0010
0110
0000
0110
0010
1000
0001
,
0100
0000
0000
0001
0000
0000
2000
0000
0000
0000
0000
0002
0000
0000
0003
3000
0000
0000
1000
0000
0000
0010
0000
0000
,
1000
0000
0000
0100
0000
0000
0010
0000
0000
0001
0000
0200
0000
0000
0300
0000
0000
0000
0010
0000
0000
1000
0000
0000
,
0001
0000
0000
0100
0000
0000
0010
0000
0000
0000
0000
0010
0000
0000
0000
1000
0000
0000
0001
0000
0000
0010
0000
0000
,
0100
2000
0000
0001
3001
0000
0100
0001
,
1000
0000
0000
0001
0000
0000
0200
0000
0000
0000
0000
0020
0000
0000
0000
0330
0000
0000
1000
0000
0000
0001
0000
0000
,
0100
0000
0000
0010
0000
0000
1000
0000
0000
0100
0000
0020
0000
0000
0030
0000
0000
0000
0001
0000
0000
0010
0000
0000
,
0100
1000
1001
0001
1000
0010
0200
0300
,
0010
0100
1001
1000
0010
0100
0001
1000
,
0010
0100
0001
2000
0000
0000
0000
0002
,
0000
0000
3003
0010
0100
1000
0100
0010
,
0001
0010
0100
2000
0000
0000
0000
0002
,
0000
0000
3003
2000
0000
3010
0100
0002
,
0000
2000
0003
3200
0000
0310
0001
2000
,
0000
0000
0000
3020
0000
0130
0001
2000
,
0000
3002
0000
0203
0000
0310
1000
0002
,
0000
0200
0303
2002
3003
0220
0330
2002
,
3003
0000
0220
0000
0330
0000
1000
0000
0010
0100
0000
0000
0001
0000
1000
0000
,
0010
0000
0100
0000
0010
0000
1000
0000
0001
0000
0100
0000
0001
1000
0000
0000
,
0000
0000
0001
0000
0010
0000
0100
0000
0000
1000
0000
0000
0100
0000
0000
0010
,
0000
0001
1000
0010
1000
0001
0100
0020
,
0030
0000
2002
0000
3003
0000
0001
0000
0100
0010
0000
0000
1000
0000
0001
0000
,
0100
0000
0010
0000
0100
0000
0001
0000
0010
0000
0100
0000
1000
0001
0000
0000
,
0000
0010
0100
1000
1000
0010
0010
0100
,
0100
0001
0001
2000
0000
0000
0000
0000
,
0000
0000
3000
1002
0003
0201
0300
1020
,
0030
0201
0300
0020
0000
0130
0001
2000
,
0000
3200
0000
0320
0000
0032
0000
2003
,
0000
0000
3002
0000
0000
0000
1003
0010
0100
0001
0010
0000
0100
0000
0220
0000
,
0000
0000
0000
0330
;

//---------------dance-single - ----------------
#NOTEDATA:;
#CHARTNAME:;
#STEPSTYPE:dance-single;
#DESCRIPTION:;
#CHARTSTYLE:;
#DIFFICULTY:Easy;
#METER:5;
#RADARVALUES:0.264000,0.310901,0.071420,0.517797,0.040174,207.000000,199.000000,8.000000,58.000000,0.000000,0.000000,0.000000,0.000000,0.000000,0.264000,0.310901,0.071420,0.517797,0.040174,207.000000,199.000000,8.000000,58.000000,0.000000,0.000000,0.000000,0.000000,0.000000;
#CREDIT:;
#NOTES:
0000
0000
0000
0000
,
0000
1001
0100
0100
,
0010
1000
0001
0001
,
0000
1000
0001
1000
,
0001
0200
0000
0000
,
0300
0000
2000
3000
0002
0003
0200
0300
,
0002
0003
2000
3000
0100
0000
0010
0000
,
0001
1000
0010
0200
,
0020
0330
0001
1000
0020
0130
0010
0000
,
1000
0001
0100
0010
,
0100
0100
0100
0000
0001
0000
1000
0000
,
0001
0010
0100
1000
,
0001
0000
1000
1000
1000
0000
0001
0000
,
1000
0010
0200
0301
,
0010
0010
0010
0000
0001
0000
0010
0000
,
0100
0000
1000
0000
0001
0000
0100
0100
,
0100
0000
0001
0000
0200
0000
0301
1000
,
0001
0000
1000
0010
1000
0000
0001
0100
,
0001
0000
1000
0000
1001
0000
0100
0010
,
0100
0000
0010
0100
0010
0000
0100
0001
,
0100
0010
0110
1000
,
0001
0000
0000
0000
0000
0000
0200
0000
0000
0000
0000
0310
0000
0000
0000
0000
0000
0000
0100
0000
0000
0000
0000
0000
,
0001
0000
0000
0000
0000
0000
2000
0000
0000
0000
0000
3100
0000
0000
0000
0000
0000
0000
0010
0000
0000
0000
0000
0000
,
0100
0000
0000
0000
0000
0000
0010
0000
0000
0000
0000
0010
0000
0000
0000
1000
0000
0000
0001
0000
0000
1000
0000
0000
,
0000
0000
0000
0001
0001
0000
0100
0000
,
0010
0000
0000
0000
0000
0000
0200
0000
0000
0000
0000
0310
0000
0000
0000
0000
0000
0000
1000
0000
0000
0000
0000
0000
,
0001
0000
0000
0000
0000
0000
0020
0000
0000
0000
0000
0130
0000
0000
0000
0000
0000
0000
1000
0000
0000
0000
0000
0000
,
0100
0000
0010
0000
0001
0000
0020
0030
,
0100
0000
0002
0103
0000
0010
0000
1000
,
0000
0001
0000
0200
0000
0000
0000
0320
,
0000
0000
0000
1030
0000
0001
0000
0100
,
0000
0010
0000
2000
0000
0000
0000
3002
,
0000
0000
0003
0200
0000
0320
0000
0230
,
0000
0302
0000
2003
0000
3200
0000
0320
,
0000
0000
0000
0032
0000
0203
0000
0320
,
0000
2030
0000
3002
0000
0203
0000
0320
,
0000
2030
3000
2002
3003
2002
3003
2002
,
3003
0000
2002
0000
3003
0000
0010
0000
0000
0010
0000
0000
0010
0000
1000
0000
,
0000
0001
0000
0100
0000
0001
1000
0000
,
0000
0000
0010
0000
0000
0000
0100
0000
0000
0100
0000
0000
0010
0000
0000
0010
,
0000
1000
0000
0001
0000
0010
0000
0100
,
0000
0000
1000
0000
0000
0000
0001
0000
0000
0001
0000
0000
0001
0000
1000
0000
,
0000
0010
0000
0100
0000
0001
1000
0000
,
0000
0010
0000
1000
0000
0010
0000
0100
,
0000
0001
0000
2000
0000
0000
0000
0000
,
0000
0000
3000
0002
0003
0200
0300
0020
,
0030
0200
0300
0020
0030
1000
0001
2000
,
0000
3200
0000
0320
0000
0032
0000
2003
,
0000
3002
0000
0103
0010
0100
0010
0220
,
0000
0000
0000
0330
;

//---------------dance-single - ----------------
#NOTEDATA:;
#CHARTNAME:;
#STEPSTYPE:dance-single;
#DESCRIPTION:;
#CHARTSTYLE:;
#DIFFICULTY:Beginner;
#METER:2;
#RADARVALUES:0.135188,0.155451,0.026783,0.312464,0.000000,106.000000,103.000000,3.000000,35.000000,0.000000,0.000000,0.000000,0.000000,0.000000,0.135188,0.155451,0.026783,0.312464,0.000000,106.000000,103.000000,3.000000,35.000000,0.000000,0.000000,0.000000,0.000000,0.000000;
#CREDIT:;
#NOTES:
// measure 0
0000
0000
0000
0000
,  // measure 1
0000
1001
0000
0010
,  // measure 2
0000
0001
0000
1000
,  // measure 3
0000
0001
0000
0001
,  // measure 4
0000
0020
0000
0000
,  // measure 5
0030
0000
0002
0003
0000
0000
0200
0300
,  // measure 6
0000
0000
0002
0003
0000
0000
0100
0000
,  // measure 7
0000
0001
0000
0020
,  // measure 8
0000
0030
1000
0000
0200
0300
0100
0000
,  // measure 9
0000
1000
0000
0100
,  // measure 10
0000
0010
0000
0001
,  // measure 11
0000
0100
0000
0001
,  // measure 12
1000
0000
0001
0000
,  // measure 13
1000
0000
0020
0030
,  // measure 14
0000
0100
0000
0100
,  // measure 15
0000
0001
0000
0000
,  // measure 16
0010
0000
0010
0000
,  // measure 17
1000
0000
0001
0000
,  // measure 18
1000
0000
1001
0000
,  // measure 19
0010
0000
0100
0000
,  // measure 20
0010
0000
0100
0000
,  // measure 21
1000
0000
0000
0000
0000
0000
0020
0000
0000
0000
0000
0030
0000
0000
0000
0000
0000
0000
0010
0000
0000
0000
0000
0000
,  // measure 22
0000
0000
0000
0000
0000
0000
0002
0000
0000
0000
0000
0003
0000
0000
0000
0000
0000
0000
0100
0000
0000
0000
0000
0000
,  // measure 23
0000
0000
0100
0000
0000
0001
0000
0100
,  // measure 24
0000
0000
0000
0001
0001
0000
1000
0000
,  // measure 25
0000
0000
0000
0000
0000
0000
0020
0000
0000
0000
0000
0030
0000
0000
0000
0000
0000
0000
0001
0000
0000
0000
0000
0000
,  // measure 26
0000
0000
0000
0000
0000
0000
0200
0000
0000
0000
0000
0300
0000
0000
0000
0000
0000
0000
0001
0000
0000
0000
0000
0000
,  // measure 27
0000
0000
0100
0000
0000
0000
0200
0300
,  // measure 28
0000
0000
0010
0010
0000
0000
0000
0001
,  // measure 29
0000
0000
0000
0020
0000
0000
0000
0230
,  // measure 30
0000
0000
0000
0301
0000
0000
0000
0010
,  // measure 31
0000
0000
0000
0002
0000
0000
0000
2003
,  // measure 32
0000
0000
3000
0020
0000
0030
0000
0020
,  // measure 33
0000
0030
0000
0002
0000
0003
0000
0200
,  // measure 34
0000
0000
0000
2300
0000
3000
0000
0200
,  // measure 35
0000
0300
0000
2000
0000
3000
0000
0200
,  // measure 36
0000
0310
0000
2000
3000
0000
0000
2000
,  // measure 37
3000
0001
0000
0100
0000
0000
0000
0001
,  // measure 38
0000
0000
0000
0010
0000
0000
0001
0000
,  // measure 39
0000
0100
0000
0010
0000
0000
0100
0000
,  // measure 40
0000
0001
0000
0000
0000
0100
0000
0000
,  // measure 41
0000
0001
0000
1000
0000
0000
0000
0001
,  // measure 42
0000
0000
0000
0010
0000
1000
0000
0000
,  // measure 43
0000
0100
0000
0000
0000
0100
0000
0000
,  // measure 44
0000
1000
0000
0002
0000
0000
0000
0000
,  // measure 45
0000
0000
0003
2000
3000
0000
0000
0200
,  // measure 46
0300
0000
0000
0200
0300
0000
0000
0002
,  // measure 47
0000
0003
0000
0200
0000
0300
0000
0002
,  // measure 48
0000
0003
0000
0010
0000
0000
0000
0220
,  // measure 49
0000
0000
0000
0330
;
