#TITLE:Fire Spirit;
#SUBTITLE:;
#ARTIST:MK;
#TITLETRANSLIT:;
#SUBTITLETRANSLIT:;
#ARTISTTRANSLIT:;
#GENRE:;
#CREDIT:;
#BANNER:;
#BACKGROUND:;
#LYRICSPATH:;
#CDTITLE:;
#MUSIC:Fire Spirit.mp3;
#OFFSET:0.040000;
#SAMPLESTART:83.198441;
#SAMPLELENGTH:12.000000;
#SELECTABLE:YES;
#BPMS:0.000000=120.000000
;
#STOPS:
;
#BGCHANGES:;
#KEYSOUNDS:;
#ATTACKS:;

//---------------dance-single - ----------------
#NOTES:
     dance-single:
     :
     Hard:
     15:
     0.725688,0.712195,0.331847,0.068071,0.867908,597.000000,558.000000,39.000000,8.000000,0.000000,0.000000,0.725688,0.712195,0.331847,0.068071,0.867908,597.000000,558.000000,39.000000,8.000000,0.000000,0.000000:
0000
0000
0000
0000
,
0000
0000
0000
0000
0000
0000
0000
0000
0000
0000
0000
0000
1001
0000
0001
1000
,
0200
0000
0000
0000
1300
0010
0100
0000
1000
0100
0020
0000
0000
0000
1030
0001
,
0020
0000
0000
0000
0031
0010
0100
0000
1000
0010
0100
0000
0001
0000
1000
0001
,
0020
0000
0000
0000
0031
0100
0010
0000
0001
0010
0200
0000
0000
0000
0301
1000
,
0200
0000
0000
0000
1300
0100
0010
0000
0001
0100
0010
0000
1001
0000
1000
0001
,
0010
0000
0011
0000
0001
0100
0010
0000
0001
0010
0100
0000
0101
0000
0001
1000
,
0100
0000
1100
0000
1000
0100
0010
0000
0001
0100
0010
0000
1001
0000
0001
1000
,
0100
0000
1100
0000
1000
0010
0100
0000
1000
0100
0010
0000
1010
0000
1000
0001
,
0010
0000
0011
0000
0001
0010
0100
0000
0010
0100
1000
0000
0001
0010
0001
0010
,
0100
0000
0100
0010
0000
0010
0000
0001
1000
0000
1000
0000
0010
0100
0001
0100
,
0001
0000
1000
0100
0000
0100
0000
0010
0001
0000
0001
0000
1000
0010
0100
0001
,
0010
0000
0100
1000
0000
1000
0000
0001
0100
0000
0100
0000
0010
1000
0001
1000
,
0001
0000
0100
0010
0000
0010
0000
1000
0100
0000
0010
0000
0001
1000
0001
1000
,
0100
0000
0010
0001
0000
0001
0000
1000
0010
0000
0010
0000
0100
0001
1000
0010
,
0100
0000
0001
1000
0000
1000
0000
0001
0100
0000
0100
0000
0010
0100
0001
0100
,
0010
0100
0001
0100
0010
0100
0001
0100
0010
0100
0001
0100
0010
1000
0100
0010
,
0001
1000
0100
0010
0001
1000
0000
0001
1000
0000
0010
0000
1001
0000
0000
1000
,
0001
0000
0100
0000
0010
1000
0000
1000
0001
0000
0010
0000
0011
0000
0000
0001
,
0010
0000
0100
0000
1000
0010
0000
0010
0100
0000
0001
0000
0101
0000
0000
0010
,
1000
0000
0100
0000
0010
0001
0000
0001
1000
0000
0100
0000
1100
0000
0000
1000
,
0010
0000
0100
0000
0001
0100
0000
0100
0010
0000
1000
0000
1010
0000
0000
0001
,
1000
0000
0010
0000
0100
0001
0000
0001
1000
0000
0100
0000
1100
0000
0000
1000
,
0100
0000
0010
0000
0001
0100
0000
0100
0010
0000
1000
0000
1010
0000
0000
0100
,
0001
0000
0010
0000
0100
1000
0000
1000
0001
0000
0010
0000
0011
0000
0001
0010
,
0100
0000
0010
0000
0100
1000
0010
0000
0100
0001
0010
0000
0101
0000
0000
0010
,
1000
0001
1000
0000
0010
1000
0000
1000
0100
0000
0010
0000
0010
0000
0000
0001
,
0010
0100
1000
0000
0001
0100
0000
0100
0010
0000
1000
0000
1000
0000
0000
0010
,
0100
0001
1000
0000
0100
0010
0000
0010
0001
0000
0100
0000
0100
0000
0000
0001
,
1000
0100
0010
0000
0001
0010
0000
0010
0100
0000
1000
0000
1000
0000
0000
0001
,
1000
0000
0010
0000
0100
0001
0000
0001
1000
0000
0100
0000
1100
0000
0000
1000
,
0100
0000
0010
0000
0001
0100
0000
0100
0010
0000
1000
0000
1010
0000
0000
0100
,
0001
0000
0010
0000
0100
1000
0000
1000
0001
0000
0010
0000
1001
0000
0000
1000
,
0001
1000
0100
0010
0001
1000
0001
0100
0010
1000
0001
0000
1000
0100
1000
0100
,
0010
0000
0010
0100
0000
0100
0000
1000
0001
0000
0001
0000
0100
0010
1000
0010
,
1000
0000
0001
0010
0000
0010
0000
0100
1000
0000
1000
0000
0001
0100
0010
1000
,
0100
0000
0010
0001
0000
0001
0000
1000
0010
0000
0010
0000
0100
0001
1000
0001
,
1000
0000
0010
0100
0000
0100
0000
0001
0010
0000
0100
0000
1000
0001
1000
0001
,
0010
0000
0100
1000
0000
1000
0000
0001
0100
0000
0100
0000
0010
1000
0001
0100
,
0010
0000
1000
0001
0000
0001
0000
1000
0010
0000
0010
0000
0100
0010
1000
0010
,
0100
0010
1000
0010
0100
0010
1000
0010
0100
0010
1000
0010
0100
0001
0010
0100
,
1000
0001
0010
0100
1000
0001
0000
1000
0001
0000
0100
0000
1001
0000
1000
0001
,
0100
0000
0101
0000
0001
0010
1000
0000
0001
0100
1000
0000
1100
0000
0100
0010
,
0001
0000
0011
0000
0010
0100
1000
0000
0001
0100
1000
0000
1100
0000
0100
0001
,
0010
0000
0110
0000
0100
1000
0001
0000
1000
0001
0100
0000
0101
0000
0001
0010
,
0100
0000
1100
0000
1000
0100
0001
0000
1000
0010
0001
0000
1001
0000
0001
1000
,
0010
0000
1010
0000
1000
0100
0001
0000
1000
0010
0001
0000
0011
0000
0010
0100
,
1000
0000
1100
0000
0100
0010
0001
0000
1000
0010
0001
0000
0011
0000
0010
1000
,
0100
0000
0110
0000
0010
0001
1000
0000
0001
1000
0010
0000
1010
0000
1000
0100
,
0010
0000
0011
0000
0001
0010
1000
0000
0001
0100
1000
0000
1001
0000
0100
1000
,
0100
0000
0100
0000
0100
0010
0100
0000
0100
0001
0100
0000
0100
0000
0100
0010
,
0100
0000
0100
0000
0100
1000
0100
0000
0100
0001
0100
0000
0100
0000
0100
0010
,
0100
0000
0100
0000
0100
1000
0100
0000
0100
0001
0100
0000
0100
0000
0000
0001
,
1000
0100
0010
0000
0010
0001
0000
0001
0100
0000
0010
0000
2020
0000
0000
0000
,
3030
0000
0000
0000
;

//---------------dance-single - ----------------
#NOTES:
     dance-single:
     :
     Medium:
     12:
     0.474067,0.436507,0.178687,0.204214,0.025527,390.000000,369.000000,21.000000,24.000000,0.000000,0.000000,0.474067,0.436507,0.178687,0.204214,0.025527,390.000000,369.000000,21.000000,24.000000,0.000000,0.000000:
0000
0000
0000
0000
,
0000
0000
0000
0000
0000
0000
1000
0001
,
0200
0000
0301
1000
0010
0200
0000
0310
,
0020
0000
0130
0001
0010
0200
0000
1300
,
0020
0000
0130
0001
1000
0200
0000
0310
,
0200
0000
1300
0010
0100
0001
1001
0000
,
1000
0011
0000
0000
0100
0001
0101
0000
,
1000
1100
0000
0000
0010
0100
1001
0000
,
0010
1100
0000
0000
1000
0010
1010
0000
,
0001
0011
0000
0000
0001
1000
0001
0010
,
0001
0010
1000
0010
1000
0010
1000
0100
,
1000
0100
0001
0100
0001
0100
0001
0010
,
0001
0010
0001
0100
0001
0100
1000
0100
,
1000
0100
1000
0010
1000
0010
0001
0010
,
0001
0010
0001
0100
0001
0100
1000
0100
,
1000
0100
1000
0010
1000
0010
0001
0010
,
0001
0010
0001
0100
0001
0100
0010
0100
,
0010
0000
0100
0000
0001
1000
0000
0001
1000
0000
0010
0000
0110
0000
0000
0000
,
0100
0001
0010
0001
0010
0100
1100
0000
,
1000
0001
1000
0010
0100
0001
0101
0000
,
0010
1000
0010
1000
0001
0100
0101
0000
,
0001
1000
0100
1000
0010
0100
0101
0000
,
0001
0010
0001
1000
0100
1000
1100
0000
,
0100
0010
0001
0010
0100
0010
0011
0000
,
0001
1000
0010
1000
0010
0100
0110
0020
,
0100
0130
2000
0001
3001
0100
0100
0000
,
0010
0010
1000
1000
0001
0100
0010
0000
,
1000
1000
0100
0100
0010
0001
0010
0000
,
0001
0001
1000
1000
0010
0100
0001
0000
,
1000
1000
0010
0010
0100
0001
1000
0000
,
0010
1000
0100
1000
0100
0010
0011
0000
,
0001
1000
0001
0100
0010
1000
1010
0000
,
0100
0001
0100
0001
1000
0010
1010
0000
,
1000
0001
0010
0001
0100
0010
1000
0100
,
1000
0100
0001
0100
0001
0100
0001
0010
,
0001
0010
1000
0010
1000
0010
1000
0100
,
1000
0100
1000
0010
1000
0010
0001
0010
,
0001
0010
0001
0100
0001
0100
1000
0100
,
1000
0100
1000
0010
1000
0010
0001
0010
,
0001
0010
0001
0100
0001
0100
1000
0100
,
1000
0100
1000
0010
1000
0010
0100
0010
,
0100
0000
0010
0000
1000
0001
0000
1000
0001
0000
0100
0000
0001
0000
1000
0000
,
0020
0000
1030
0001
0100
0020
0000
0130
,
0200
0000
0310
1000
0100
0020
0000
0031
,
0200
0000
0310
1000
0001
0020
0000
0130
,
0020
0000
0031
0100
0010
1000
1001
0001
,
0200
0000
0301
1000
0010
0200
0000
0310
,
0020
0000
0130
0001
0010
0200
0000
1300
,
0020
0000
0130
0001
1000
0200
0000
0310
,
0200
0000
1300
0010
0100
0001
1001
1000
,
1000
1000
1000
1000
1000
1000
1000
1000
,
1000
1000
1000
1000
1000
1000
1000
1000
,
1000
0000
1000
0000
1000
0000
1000
0000
1000
0000
1000
0000
0001
0000
0000
0100
,
0000
0000
0010
0000
0000
0100
0000
0000
0001
0000
1000
0000
0200
0000
0000
0000
,
0300
0000
0000
0000
;

//---------------dance-single - ----------------
#NOTES:
     dance-single:
     :
     Easy:
     5:
     0.274716,0.275688,0.076580,0.161669,0.000000,226.000000,217.000000,9.000000,19.000000,0.000000,0.000000,0.274716,0.275688,0.076580,0.161669,0.000000,226.000000,217.000000,9.000000,19.000000,0.000000,0.000000:
0000
0000
0000
0000
,
0000
0000
0000
0000
0000
0000
0000
0001
,
0002
0000
1003
0000
0010
0000
0000
0100
,
0200
0000
0301
0000
1000
0000
0000
0010
,
0020
0000
0130
0000
0001
0000
0000
1000
,
2000
3001
1000
1001
,
0000
0110
0000
0000
0000
0000
1001
0000
,
0000
0110
0000
0000
0000
0000
1001
0000
,
0000
0110
0000
0000
0000
0000
1001
0000
,
0000
0110
0000
0000
0000
0000
0001
0000
,
0001
1000
1000
0010
,
0010
0100
0100
0001
,
0001
0010
0010
0100
,
0100
1000
1000
0001
,
0001
0010
0010
0100
,
0100
1000
1000
0010
,
0010
0100
0100
0001
,
0001
2000
3010
0110
,
0100
0100
0000
0000
0001
1000
0001
0000
,
1000
1000
0000
0000
0010
0100
0010
0000
,
1000
1000
0000
0000
0001
0100
0001
0000
,
0010
0010
0000
0000
0100
1000
0100
0000
,
0010
0010
0000
0000
1000
0001
1000
0000
,
0001
0001
0000
0000
0100
0010
0100
0000
,
0001
0001
0000
0000
1000
0010
1000
0000
,
0200
0010
0310
0000
,
0001
0001
0000
0000
1000
0001
1000
0000
,
0001
0001
0000
0000
0010
0100
0010
0000
,
1000
1000
0000
0000
0010
0100
0010
0000
,
0100
0100
0000
0000
0010
1000
0010
0000
,
0100
0100
0000
0000
0001
0100
0001
0000
,
1000
0001
0000
0000
1000
0010
0100
0000
,
0001
0010
0000
0000
0100
1000
0001
0000
,
0200
0010
0310
1000
,
1000
0001
0001
0100
,
0100
0010
0010
1000
,
1000
0100
0100
0010
,
0010
0001
0001
1000
,
1000
0100
0100
0010
,
0010
0001
0001
0100
,
0100
0010
0010
1000
,
1000
0000
0002
0000
0103
0000
0000
0001
,
0002
0000
1003
0000
0010
0000
0000
0100
,
0200
0000
0301
0000
1000
0000
0000
0010
,
0020
0000
0130
0000
0001
0000
0000
1000
,
2000
0000
3001
0000
1000
0000
0001
1000
,
2000
0000
3001
0000
0100
0000
0000
0010
,
0020
0000
1030
0000
0001
0000
0000
0100
,
0200
0000
0310
0000
1000
0000
0000
0001
,
0002
2003
3020
0130
,
0100
0100
0100
0100
,
0100
0100
0100
0100
,
0100
0000
0100
0010
0100
0010
0100
0000
,
0000
0001
0000
0000
1000
0001
0020
0000
,
0030
0000
0000
0000
;

//---------------dance-single - ----------------
#NOTES:
     dance-single:
     :
     Beginner:
     2:
     0.148298,0.183792,0.008509,0.136142,0.000000,122.000000,121.000000,1.000000,16.000000,0.000000,0.000000,0.148298,0.183792,0.008509,0.136142,0.000000,122.000000,121.000000,1.000000,16.000000,0.000000,0.000000:
// measure 0
0000
0000
0000
0000
,  // measure 1
0000
0000
0000
0000
,  // measure 2
2000
3001
0000
0000
,  // measure 3
0020
1030
0000
0000
,  // measure 4
0200
0310
0000
0000
,  // measure 5
0002
1003
0000
1000
,  // measure 6
0000
0010
0000
0000
0000
0000
1000
0000
,  // measure 7
0000
0010
0000
0000
0000
0000
0001
0000
,  // measure 8
0000
0010
0000
0000
0000
0000
1000
0000
,  // measure 9
0000
0010
0000
0000
0000
0000
1000
0000
,  // measure 10
0000
0001
0000
0100
,  // measure 11
0000
0010
0000
1000
,  // measure 12
0000
0100
0000
0010
,  // measure 13
0000
0001
0000
1000
,  // measure 14
0000
0100
0000
0010
,  // measure 15
0000
0001
0000
0100
,  // measure 16
0000
0010
0000
1000
,  // measure 17
0000
0001
0000
0110
,  // measure 18
0010
0000
1000
1000
,  // measure 19
0001
0000
0100
0100
,  // measure 20
0001
0000
1000
1000
,  // measure 21
0100
0000
0010
0010
,  // measure 22
0100
0000
0001
0001
,  // measure 23
1000
0000
0010
0010
,  // measure 24
1000
0000
0001
0001
,  // measure 25
0020
0000
0030
0000
,  // measure 26
1000
0000
0001
0001
,  // measure 27
1000
0000
0100
0100
,  // measure 28
0001
0000
0100
0100
,  // measure 29
0010
0000
0100
0100
,  // measure 30
0010
0000
1000
1000
,  // measure 31
0001
0000
0001
0010
,  // measure 32
1000
0000
0010
1000
,  // measure 33
0020
0000
0030
0001
,  // measure 34
0000
1000
0000
0010
,  // measure 35
0000
0100
0000
0001
,  // measure 36
0000
0010
0000
0100
,  // measure 37
0000
1000
0000
0001
,  // measure 38
0000
0010
0000
0100
,  // measure 39
0000
1000
0000
0010
,  // measure 40
0000
0100
0000
0001
,  // measure 41
0000
2000
3010
0000
,  // measure 42
2000
3001
0000
0000
,  // measure 43
0020
1030
0000
0000
,  // measure 44
0200
0310
0000
0000
,  // measure 45
0002
1003
0000
1000
,  // measure 46
0002
1003
0000
0000
,  // measure 47
0200
0301
0000
0000
,  // measure 48
0020
0130
0000
0000
,  // measure 49
0100
0000
0200
0310
,  // measure 50
0000
0010
0000
0010
,  // measure 51
0000
0010
0000
0010
,  // measure 52
0000
0010
0000
0010
,  // measure 53
0000
1000
0000
0000
0100
0000
0200
0000
,  // measure 54
0300
0000
0000
0000
;
