#VERSION:0.81;
#TITLE:Fairy_dancing_in_lake;
#SUBTITLE:;
#ARTIST:uno(IOSYS);
#TITLETRANSLIT:;
#SUBTITLETRANSLIT:;
#ARTISTTRANSLIT:;
#GENRE:;
#ORIGIN:;
#CREDIT:;
#BANNER:Fairy _dancing _in _lake-bn.png;
#BACKGROUND:Fairy _dancing _in _lake-bg.png;
#PREVIEWVID:;
#JACKET:Fairy _dancing _in _lake-jacket.png;
#CDIMAGE:;
#DISCIMAGE:;
#LYRICSPATH:;
#CDTITLE:;
#MUSIC:Fairy _dancing _in _lake.mp3;
#OFFSET:0.150000;
#SAMPLESTART:42.826996;
#SAMPLELENGTH:12.000000;
#SELECTABLE:YES;
#BPMS:0.000=142.000;
#STOPS:50.000=0.210,
81.000=0.200,
145.000=0.100,
145.250=0.110,
228.500=0.100,
228.750=0.110;
#DELAYS:;
#WARPS:;
#TIMESIGNATURES:0.000=4=4;
#TICKCOUNTS:0.000=4;
#COMBOS:0.000=1;
#SPEEDS:0.000=1.000=0.000=0;
#SCROLLS:0.000=1.000;
#FAKES:;
#LABELS:0.000=Song Start;
#BGCHANGES:;
#KEYSOUNDS:;
#ATTACKS:
;

//---------------dance-single - ----------------
#NOTEDATA:;
#CHARTNAME:;
#STEPSTYPE:dance-single;
#DESCRIPTION:;
#CHARTSTYLE:;
#DIFFICULTY:Hard;
#METER:14;
#RADARVALUES:0.747888,0.803448,0.264238,0.569763,0.751427,533.000000,32.000000,69.000000,0.000000,0.000000,0.000000,0.000000,0.000000,0.747888,0.803448,0.264238,0.569763,0.751427,533.000000,32.000000,69.000000,0.000000,0.000000,0.000000,0.000000,0.000000;
#CREDIT:;
#NOTES:
0000
0000
0000
0000
0110
0000
1000
0010
,
0100
0000
0001
0010
0100
0000
1000
0010
,
0100
0000
0001
0010
0100
2000
0010
0000
,
3001
0000
0100
0010
0100
0000
0001
0000
,
1000
0000
0001
1000
1100
0100
0010
0001
,
0010
0100
1000
0100
1100
1000
0001
0100
,
0110
0010
0100
0001
0011
0010
0110
0100
,
2100
0000
0000
0000
0001
0000
0000
0000
3001
0010
0100
1000
0100
0010
0100
1000
,
0001
0000
1000
0000
0001
0000
0100
0000
0000
0010
0000
0000
0200
0000
0000
0000
0000
0000
0000
0000
0000
0302
0000
0000
,
0000
0000
0000
0000
0000
0000
1003
0010
1000
0010
0000
0000
2000
0000
0000
0000
0000
0000
0000
0000
0000
3200
0000
0000
,
0000
0000
0000
0310
0001
0010
0001
1000
0000
0001
0000
0000
2000
0000
0000
0000
0000
0000
0000
0000
0000
3020
0000
0000
,
0000
0000
0000
0130
0001
0100
0001
0100
0000
0010
0000
0000
2000
0000
0000
0000
0000
0000
3002
0000
0000
0000
0000
0000
,
0103
0000
0000
0000
0000
0000
0000
0000
0000
0000
0000
0000
0000
0000
0000
0000
0000
0000
0000
0000
0000
0000
0000
0000
0010
0000
0000
0000
0000
0000
0000
0000
1000
0000
0000
0000
0000
0000
0000
0000
0001
0000
0000
0000
0000
0000
0000
0000
0000
0000
0000
0000
0000
0000
0000
0000
1000
0000
0000
0000
0000
0000
0000
0000
0000
0000
0000
0000
0000
0000
0000
0000
0010
0000
0000
0000
0000
0000
0000
0000
0100
0000
0000
0000
0000
0000
0000
0000
0020
0000
0000
0000
0000
0000
0000
0000
0000
0000
0000
0030
0000
0000
0000
0000
0000
0000
0000
0000
0000
0000
0000
0000
0000
0000
0000
0000
0000
0000
0000
0000
0220
0000
0000
0000
0000
0000
0000
0000
0000
0000
0000
0000
0000
0000
0000
0000
0000
0000
0000
0000
0000
0000
0000
0000
0330
0000
0000
0000
0000
0000
0000
0000
0000
0000
0000
0000
0000
0000
0000
0000
0000
0000
0000
0000
0000
0000
0000
0000
0001
0000
0000
0000
0000
0000
0000
0000
0000
0000
0000
0000
0000
0000
0000
0000
0000
0000
0000
0000
0000
0000
0000
0000
,
1000
0010
1000
0010
0100
0000
0001
0000
0000
0200
0000
0000
0000
0000
0000
0000
0300
0010
1000
0010
0000
0000
0100
0001
,
0100
0000
0010
0000
1000
0001
2000
0000
0000
0002
0000
0000
3000
0000
0000
1003
0000
0000
0010
0000
0000
0220
0000
0000
,
0000
0000
0000
0000
0000
0000
0000
0000
0000
0000
0000
0000
0330
0000
0000
0000
0000
0000
1000
0000
0000
0001
0000
0000
1000
0000
0000
0010
0000
0000
0100
0000
0000
0001
0000
0000
0010
0000
0000
0100
0000
0000
1000
0000
0000
0000
0100
0000
,
0000
0010
0000
0001
0000
0010
0000
0001
0000
1000
0010
1000
0010
1000
0010
1000
0000
0000
0002
0000
0000
2000
0000
0000
,
0003
0000
0000
3200
0000
0000
0000
0000
0000
0310
0001
0010
0001
0010
0001
0010
0000
0000
0002
0000
0000
0200
0000
0000
,
0003
0000
0000
0320
0000
0000
0000
0000
0000
0130
0001
0100
0001
0100
0001
0100
0000
0000
0020
0000
0000
2000
0000
0000
,
0030
0000
0000
0000
0000
0000
3002
0000
0000
0000
0000
0000
0000
0000
0000
0000
0000
0000
1003
0000
0100
0000
1000
0000
0100
0000
1000
0000
0100
0000
1000
0000
0000
0000
0000
0000
0010
0000
0000
0000
0000
0000
0202
0000
0000
0303
0000
0000
,
0000
0000
0000
2020
0000
0000
3030
0000
0000
0000
0000
0000
2002
0000
0000
3003
0000
0000
0000
0000
0000
0000
0000
0000
0001
0000
1000
0000
0001
0000
1000
0000
0001
0000
1000
0000
0001
0000
0000
0000
0000
0000
0000
0000
0000
0001
0000
0000
,
0100
0000
0000
0000
0000
0000
0000
0000
0000
0000
0000
0000
0100
0000
0010
0000
0100
0000
0010
0000
0100
0000
0010
0000
0100
0000
0000
0000
0000
0000
0001
0000
0000
0000
0000
0000
0100
0000
0000
0000
0000
0000
0000
0000
0000
0100
0000
0000
,
0010
0000
0000
0000
0000
0000
0100
0001
0100
0001
0100
0001
0200
0000
0000
0000
0000
0000
0301
1000
0001
1000
0001
1000
,
0002
0000
0000
0000
0000
0000
0000
0000
0000
0000
0003
0000
1000
0000
0000
0010
0000
0000
1000
0000
0000
0001
0000
0000
0100
0000
0000
0010
0000
0000
0100
0000
0000
0001
0000
0000
1000
0000
0000
0000
0010
0000
0000
0000
1000
0000
0000
0000
,
0001
0000
0000
0000
0010
0000
0000
0000
0100
0000
0000
0000
1000
0000
0000
0000
0000
0000
0000
0000
0000
0000
0000
0000
1001
0000
0000
0000
0000
0000
0000
0000
0000
0000
0000
0000
0001
0000
0000
0000
0000
0000
0000
0000
0000
0010
0000
0000
,
0000
0000
0100
0000
1000
0000
0000
0100
0000
0000
0010
0000
0002
0000
0000
0000
,
1003
0000
0010
0000
0100
0000
0000
0000
0110
0000
0000
0000
0010
0000
0000
1000
,
0000
0000
0001
0000
1000
0000
0000
0100
0000
0000
0010
0000
0200
0000
0000
0000
,
1300
0000
0001
0000
0010
0000
0000
0000
1001
0000
0000
0000
1010
0000
0000
1100
,
0000
0000
0110
0000
0011
0000
0000
0001
0000
0000
1000
0000
0010
0000
0000
1000
,
0100
0000
0100
0000
0010
0000
0000
0010
0001
0000
0001
0000
1000
0000
0000
1000
,
0000
0000
0001
0000
1000
0010
1000
0001
0100
0001
0010
0100
1000
0100
0010
0001
,
1000
0000
0001
0000
1000
0000
0001
0000
0000
0000
0000
0000
0100
0000
0000
0000
0000
0000
0100
0000
0000
0000
0000
0000
0001
0000
0000
0000
1000
0000
0000
0000
0001
0000
0000
0000
0100
0000
0000
0010
0000
0000
0100
0000
0000
0000
0000
0000
,
0010
0000
0000
1000
0000
0000
0010
0000
0000
0000
0000
0000
0100
0000
0000
0000
0001
0000
0000
0000
0100
0000
0000
0000
0010
0000
0000
0000
0000
0000
0010
0000
0000
1000
0000
0000
0001
0000
0000
0100
0000
0000
0001
0000
0000
0000
0000
0000
,
1000
0000
0000
0001
0000
0000
1000
0000
0000
0100
0000
0000
0020
0000
0000
0000
0000
0000
0000
0000
0000
0000
0000
0000
0130
0000
0000
0000
1000
0000
0000
0000
0000
0001
0000
0000
0100
0000
0000
0001
0000
0000
0000
0000
0000
1000
0000
0000
,
0010
0000
0000
1000
0000
0000
0010
0000
0000
0100
0000
0000
0001
0000
0000
0000
1000
0000
0010
0000
1000
0000
0001
0000
0100
0000
0000
0000
0000
0000
0001
0000
0000
0000
0000
0000
1000
0000
0000
0000
0010
0000
0000
0000
0010
0000
0000
0000
,
0100
0000
0000
0000
0100
0000
0000
0000
0001
0000
0000
0000
1000
0000
0000
0001
0000
0000
0100
0000
0000
0000
0000
0000
0010
0000
0000
0000
0000
0000
1000
0000
0000
0001
0000
0000
1000
0000
0000
0000
0100
0000
0000
0000
0010
0000
0000
0000
,
0100
0000
0010
0001
0010
0000
0100
1000
0100
0010
0001
0100
0010
0000
0100
0001
,
1000
0100
0020
0000
0000
0000
0032
0000
0000
0000
2003
0000
3000
0000
2002
0000
,
3003
0000
0000
0000
0000
0000
0001
0000
0000
0010
0000
0000
0001
0000
0000
1000
0000
0000
0010
0000
0000
0100
0000
0000
0010
0000
0000
0100
0000
0000
0001
0000
0000
0000
1000
0000
0000
0000
0010
0000
0000
0000
1000
0000
0001
0000
1000
0000
,
0001
1000
0000
0010
0000
0000
0100
0000
0000
0001
0000
0000
0100
0000
0000
1000
0000
0000
0000
0000
0000
1000
0000
0000
,
0100
0001
0000
0001
0010
0100
0000
1000
,
0001
2002
0000
0000
,
0000
0000
0000
0000
0000
3003
1000
0010
,
0200
0001
0001
0001
0301
0000
0010
0000
,
0200
1000
1000
1000
1300
0000
0000
0000
,
0002
0100
0100
0100
0103
0000
0000
0000
,
1001
0000
0000
0010
0000
0000
0110
0000
0000
0100
0000
0000
0001
0000
1000
0000
,
0001
0010
0100
0000
0000
0100
0000
0000
1000
0000
0000
0010
0000
0000
0010
0000
,
1000
0000
1100
0000
0000
0100
0000
0000
0220
0000
0000
0000
0330
0000
0000
0000
,
0000
0010
0001
0000
0000
0001
0000
0000
1000
0000
0000
0010
0000
0000
0010
0000
,
2000
0002
0000
0000
0000
0000
0000
3003
,
0001
0000
0000
0100
0000
0000
0001
0000
0000
0000
1000
0000
0000
0000
0001
0000
0000
0000
0000
0000
0000
0000
1000
0000
0000
0000
0010
0000
0000
0000
1000
0000
0000
0000
0000
0000
0000
0000
0000
0000
0000
0000
0010
0000
0000
0000
0000
0000
,
0100
0000
0000
0020
0000
0000
0000
0000
0000
0000
0000
0000
2030
0000
0000
0000
0000
0000
0000
0000
0000
3001
0100
0001
,
0100
0000
0000
0002
0000
0000
0000
0000
0000
0000
0000
0000
0023
0000
0000
0000
0000
0000
0130
1000
0100
1000
0001
0000
,
1000
0000
0000
0002
0000
0000
0000
0000
0000
0000
0000
0000
0203
0000
0000
0000
0000
0000
0310
1000
0010
1000
0010
0000
,
0100
0000
0000
0002
0000
0000
0000
0000
0000
2003
0000
0000
0000
0000
0000
3010
0000
0000
0100
0001
0100
0000
0010
0000
,
1000
0000
0001
0000
0010
0000
0100
0000
0000
1000
0000
0000
0100
0000
0000
0000
0000
0000
0000
0000
0000
0000
0000
0000
0010
0000
0000
0000
0000
0000
0000
0000
0000
0000
0000
0000
0001
0000
0010
0000
0001
0000
0010
0000
0000
0000
0000
0000
,
0200
0000
0000
0000
0000
0000
1300
0010
1000
0001
0100
0001
0100
0010
1000
0010
,
0200
0000
0000
0010
0310
0000
1010
0000
,
0001
0000
0000
1000
0000
0000
0001
0000
0000
1000
0000
0000
0100
0000
0000
0010
0000
0000
0100
0000
0000
1000
0000
0000
0100
0000
0000
0000
0010
0000
0000
0000
0001
0000
0000
0000
0010
0000
0100
0000
0010
0000
0100
0000
0000
0000
0000
0000
,
1000
0100
0001
0100
1000
0000
0001
0100
,
1000
0000
1000
0100
0001
0000
0010
0100
,
0000
2200
0000
0000
0000
0000
0000
0000
,
0000
0000
0000
0000
3300
1000
0100
0001
,
0100
0000
1000
0010
0000
0020
0100
0000
,
1000
0100
1030
1001
,
0101
1100
0220
0330
,
2002
0000
0000
0000
0000
0000
0000
0003
,
0001
0000
3000
0000
;

//---------------dance-single - ----------------
#NOTEDATA:;
#CHARTNAME:;
#STEPSTYPE:dance-single;
#DESCRIPTION:;
#CHARTSTYLE:;
#DIFFICULTY:Medium;
#METER:12;
#RADARVALUES:0.504883,0.459113,0.165149,0.635822,0.078446,331.000000,20.000000,77.000000,0.000000,0.000000,0.000000,0.000000,0.000000,0.504883,0.459113,0.165149,0.635822,0.078446,331.000000,20.000000,77.000000,0.000000,0.000000,0.000000,0.000000,0.000000;
#CREDIT:;
#NOTES:
0000
0000
0000
0000
1001
0000
1000
0001
,
0100
0000
0001
1000
0100
0000
1000
0001
,
0010
0000
0001
1000
0010
0000
0100
0000
,
0001
0000
1000
0010
0100
0000
0001
0000
,
1000
0000
0001
1000
0100
0100
0000
0010
,
0000
0001
0000
1000
0010
0010
0000
0100
,
0001
0100
0001
0010
0100
1000
0001
0100
,
0002
0000
0000
0000
2000
0000
0000
0003
,
3001
0000
0100
0010
2000
0000
0000
3002
,
0000
0000
0023
0000
0230
0000
0000
2300
,
0000
0000
0001
0000
3020
0000
0000
0230
,
0000
0301
2000
0000
3020
0000
0230
0000
,
0302
0000
0000
0203
0000
0301
0000
2001
,
0000
3002
0000
0023
0000
0000
0230
0000
,
2300
0000
3001
0200
0000
0301
1000
0020
,
0000
0000
0000
1030
0001
1000
0010
0200
,
0000
0301
0000
2002
0000
3003
0010
0200
,
0000
0301
0000
2020
0000
3030
0001
0020
,
0000
0130
0000
2200
0000
3300
1000
0002
,
0000
0013
0000
0220
0000
0330
1000
0001
,
0000
0001
0000
0000
0001
0000
0000
0000
0202
0000
0000
0000
0303
0000
0000
0000
,
0010
0000
2020
0000
3030
0001
0200
0000
,
0310
0000
1000
0001
1000
0001
0100
0010
,
0100
0010
1000
0001
0010
0100
0020
0000
,
0032
0000
0000
0000
1003
0000
0000
0000
1001
0000
0000
0000
1000
0000
0000
0010
,
0000
0000
1000
0000
0001
0000
0000
0001
0000
0000
0001
0000
0200
0000
0000
0000
,
0310
0000
1000
0000
0001
0000
0000
0000
0011
0000
0000
0000
0010
0000
0000
0100
,
0000
0000
1000
0000
0010
0000
0000
0010
0000
0000
0010
0000
2000
0000
0000
0000
,
3001
0000
0100
0000
0010
0000
0000
0000
1010
0000
0000
0000
0002
0000
0000
2003
,
0000
0000
0010
0000
3010
0000
0000
0100
0000
0000
0001
0000
1000
0000
0000
1000
,
0000
0000
1000
0000
0010
0000
0000
0010
0000
0000
0010
0000
0100
0000
0000
0100
,
0000
0100
0001
1000
0100
0010
0100
0010
,
0001
0001
0001
1000
0001
0000
0100
0010
,
1000
0010
0100
0000
0001
1000
0001
0010
,
0100
1000
0200
0000
0310
0000
0001
0000
,
0010
0001
0010
0001
1000
0010
1000
0000
,
0100
0000
2000
3000
0000
0001
1000
0001
,
0100
0010
1000
0010
1000
0001
0010
0001
,
0100
0020
0000
0230
0000
0302
0000
1003
,
0000
0001
1000
0010
0100
0010
0100
0001
,
0010
0100
1000
0001
0100
0001
0000
1000
,
0100
1000
0000
0001
0010
0001
0000
0100
,
0010
0220
0000
0000
,
0000
0000
0000
0000
0000
0330
1000
0001
,
1000
0001
0000
0100
0010
0000
0010
0000
,
0100
0001
0100
1000
0100
0000
0000
0000
,
0010
1000
0010
0001
0010
0000
0000
0000
,
1000
0000
0000
0001
0000
0000
1000
0000
0000
0100
0000
0000
0010
0000
0001
0000
,
0100
0000
0010
0000
0000
1000
0000
0000
0001
0000
0000
0100
0000
0000
0010
0000
,
1000
0000
0100
0000
0000
0010
0000
0000
0012
0000
0000
0000
0000
0000
0003
0000
,
0000
1000
0010
0000
0000
0100
0000
0000
0010
0000
0000
1000
0000
0000
0001
0000
,
0100
0020
0000
0000
0000
0000
0000
0000
,
1030
0000
0000
0001
0000
0000
0000
0000
0000
0000
0000
0000
0000
0100
0000
0100
0000
0000
0000
0000
0000
0010
0000
0000
,
0100
0002
0000
0000
2003
0000
0000
3200
,
0000
0320
0000
0000
0032
0000
0000
1000
,
0000
0203
0000
0000
0320
0000
1030
0002
,
0000
0203
0000
0320
0000
2030
0000
0000
,
3020
0130
0002
2003
,
3200
0000
0000
1300
0010
1000
0001
0100
,
0020
0000
0000
0100
0130
0000
0110
0000
,
0010
1000
0010
0100
0010
0100
0001
0010
,
0001
1000
0100
1000
0010
0000
0100
0001
,
0010
0000
0001
1000
0100
0000
0010
0001
,
0000
2002
0000
0000
0000
0000
0000
0000
,
0000
0000
0000
0000
3003
1000
0001
0100
,
0010
0000
1000
0001
0000
0200
0000
0000
,
0000
0000
0300
0101
,
1100
1010
0022
0033
,
2002
0000
0000
0000
0000
0000
0000
0003
,
3002
0000
0003
0000
;

//---------------dance-single - ----------------
#NOTEDATA:;
#CHARTNAME:;
#STEPSTYPE:dance-single;
#DESCRIPTION:;
#CHARTSTYLE:;
#DIFFICULTY:Easy;
#METER:4;
#RADARVALUES:0.346812,0.370346,0.033030,0.561505,0.000000,222.000000,4.000000,68.000000,0.000000,0.000000,0.000000,0.000000,0.000000,0.346812,0.370346,0.033030,0.561505,0.000000,222.000000,4.000000,68.000000,0.000000,0.000000,0.000000,0.000000,0.000000;
#CREDIT:;
#NOTES:
0000
0000
1001
0001
,
0010
1000
0010
0001
,
0100
1000
0100
0010
,
1000
0001
0010
1000
,
0001
0000
1000
0000
0010
0002
0000
2003
,
0000
3020
0000
0230
0000
0302
0000
0000
,
1003
0010
0100
0010
,
0200
0000
0320
0000
,
0030
0000
1000
0000
0002
0000
0000
2003
,
0000
0000
3200
0000
0320
0000
0000
0032
,
0000
0000
1000
0000
0203
0000
0000
0320
,
0000
1030
0002
0000
0203
0000
0320
0000
,
2030
0000
0000
3020
0000
0030
0000
0001
,
0000
2000
0000
3200
0000
0000
0320
0000
,
0032
0000
1003
0020
0000
1030
0000
0200
,
0000
0000
0000
0301
0000
0001
0000
0020
,
0000
0030
0000
2000
0000
3000
0100
0020
,
0000
1030
0000
0002
0000
0003
1000
0200
,
0000
0310
0000
0002
0000
0003
0001
2000
,
0000
3010
0000
0200
0000
0300
0001
1000
,
0000
0001
0200
0300
,
0010
0000
2000
0000
3000
0001
0200
0000
,
0310
0002
0000
2003
,
0000
3001
0100
0020
,
2030
3001
0000
0001
,
0000
0001
1000
0000
0000
1000
0020
0000
,
0130
0100
0001
0100
,
0000
0001
0100
0000
0000
0010
2000
0000
,
3001
0000
0000
0000
1000
0000
0000
0000
0001
0000
0000
0000
2000
0000
0000
3000
,
0000
0001
0010
0000
0000
0100
1000
0000
,
0000
0001
0010
0000
0000
1000
0001
0000
,
0000
0010
1000
0000
0000
0000
0010
0000
,
1000
0001
0100
0100
,
0001
0001
1000
1000
,
0100
0100
0010
0010
,
0001
0001
1000
1000
,
0010
0000
0010
0000
0000
1000
0000
1000
,
0000
0001
0000
0001
0000
0100
0000
0100
,
0000
0020
0000
0230
0000
0302
0000
1003
,
0000
2000
0000
0000
0000
3002
0000
0000
,
0000
0103
0000
0010
0000
0010
0000
1000
,
0000
1000
0000
0001
0000
0001
0000
0100
,
0010
0200
0000
0000
,
0000
0000
0000
0000
0000
0300
0001
0000
,
0001
1000
0000
0000
0100
0000
0100
0000
,
0010
0010
0010
0000
,
0100
0100
0100
0000
,
0001
0000
0000
0001
0000
0000
0100
0000
,
0010
0000
0000
0000
1000
0000
0000
0100
,
0000
0001
0100
0000
,
0000
0100
0000
0000
0001
0000
0000
1000
,
0000
0020
0000
0000
0000
0000
0000
0000
,
1030
0000
0000
0000
0000
0001
0000
0100
,
0000
1000
0000
0000
0002
0000
0000
0023
,
0000
0230
0000
0000
2300
0000
0000
0001
,
0000
3010
0000
0000
0200
0000
0300
2000
,
0000
3020
0000
0130
0000
0002
0000
0000
,
0203
0300
1000
0001
,
0020
0000
0000
0031
0000
0100
0000
0010
,
0200
0000
0310
0000
,
0100
0001
0100
0010
,
1000
0001
0100
0010
,
0100
1000
0010
0100
,
0000
2002
0000
0000
0000
0000
0000
0000
,
0000
0000
3003
1000
,
0100
0000
0000
0010
0000
0020
0000
0000
,
0000
0000
0030
1000
,
0001
1000
0220
0330
,
2002
0000
0000
0000
0000
0000
0000
3000
,
1003
0000
0000
0000
;

//---------------dance-single - ----------------
#NOTEDATA:;
#CHARTNAME:;
#STEPSTYPE:dance-single;
#DESCRIPTION:;
#CHARTSTYLE:;
#DIFFICULTY:Beginner;
#METER:2;
#RADARVALUES:0.208795,0.256393,0.000000,0.322040,0.000000,138.000000,0.000000,39.000000,0.000000,0.000000,0.000000,0.000000,0.000000,0.208795,0.256393,0.000000,0.322040,0.000000,138.000000,0.000000,39.000000,0.000000,0.000000,0.000000,0.000000,0.000000;
#CREDIT:;
#NOTES:
// measure 0
0000
0000
0000
0001
,  // measure 1
0000
1000
0000
0001
,  // measure 2
0000
1000
0000
0010
,  // measure 3
0000
0001
0000
1000
,  // measure 4
0000
0000
1000
0000
0000
0001
0000
1000
,  // measure 5
0000
0010
0000
0100
0000
0002
0000
0000
,  // measure 6
1003
0000
0100
0000
,  // measure 7
0200
0000
0320
0000
,  // measure 8
0030
0000
1000
0000
0002
0000
0000
1003
,  // measure 9
0000
0000
0100
0000
0010
0000
0000
0002
,  // measure 10
0000
0000
1000
0000
0103
0000
0000
0020
,  // measure 11
0000
0030
0001
0000
0100
0000
0010
0000
,  // measure 12
2000
0000
0000
3020
0000
0030
0000
0001
,  // measure 13
0000
1000
0000
0000
0000
0000
0010
0000
,  // measure 14
0002
0000
1003
0000
0000
0100
0000
0200
,  // measure 15
0000
0000
0000
0301
0000
0000
0000
0020
,  // measure 16
0000
0030
0000
2000
0000
3000
0000
0020
,  // measure 17
0000
0030
0000
0002
0000
0003
0000
0200
,  // measure 18
0000
0300
0000
0002
0000
0003
0000
1000
,  // measure 19
0000
0000
0000
0200
0000
0300
0000
1000
,  // measure 20
0000
0010
0200
0300
,  // measure 21
0000
2000
3000
0200
,  // measure 22
0300
0002
0000
0000
,  // measure 23
0000
1003
0000
0020
,  // measure 24
0130
0000
0000
0001
,  // measure 25
0000
1000
0000
0020
,  // measure 26
0130
0000
0001
0100
,  // measure 27
0000
0100
0000
2000
,  // measure 28
3001
0000
0000
0000
0000
0000
0000
0000
0001
0000
0000
0000
2000
0000
0000
3000
,  // measure 29
0000
0010
0000
1000
,  // measure 30
0000
0010
0000
0001
,  // measure 31
0000
1000
0000
0010
,  // measure 32
0000
0001
0000
0100
,  // measure 33
0000
0001
0000
1000
,  // measure 34
0000
0100
0000
0010
,  // measure 35
0000
0001
0000
1000
,  // measure 36
0000
0000
0010
0000
0000
1000
0000
0000
,  // measure 37
0000
0001
0000
0000
0000
0100
0000
0000
,  // measure 38
0000
0020
0000
0030
0000
0002
0000
0003
,  // measure 39
0000
2000
0000
0000
0000
0000
0000
0000
,  // measure 40
0000
3010
0000
0000
0000
0010
0000
0000
,  // measure 41
0000
1000
0000
0000
0000
0001
0000
0000
,  // measure 42
0000
0200
0000
0000
,  // measure 43
0000
0000
0000
0000
0000
0300
0001
0000
,  // measure 44
0000
1000
0000
0000
0000
0000
0100
0000
,  // measure 45
0000
0000
0010
0000
,  // measure 46
0000
0000
0100
0000
,  // measure 47
0001
0000
0000
0100
,  // measure 48
0000
0000
1000
0000
,  // measure 49
0000
0001
0000
0000
,  // measure 50
0000
0100
0000
0000
0001
0000
0000
0000
,  // measure 51
0000
0020
0000
0000
0000
0000
0000
0000
,  // measure 52
1030
0000
0000
0000
0000
0001
0000
0000
,  // measure 53
0000
1000
0000
0000
0001
0000
0000
0010
,  // measure 54
0000
0100
0000
0000
2000
0000
0000
0001
,  // measure 55
0000
3010
0000
0000
0200
0000
0300
1000
,  // measure 56
0000
0010
0000
0100
0000
0001
0000
0000
,  // measure 57
2000
3000
1000
0000
,  // measure 58
0020
0000
0000
0031
0000
0000
0000
0000
,  // measure 59
0200
0000
0300
0000
,  // measure 60
0100
0000
0100
0000
,  // measure 61
1000
0000
0100
0000
,  // measure 62
0100
0000
0010
0000
,  // measure 63
0000
0002
0000
0000
0000
0000
0000
0000
,  // measure 64
0000
0000
0003
1000
,  // measure 65
0000
0000
0000
0000
0000
0020
0000
0000
,  // measure 66
0000
0000
0030
1000
,  // measure 67
0000
0010
0200
0300
,  // measure 68
0002
0000
0000
0000
,  // measure 69
1003
0000
0000
0000
;
