#VERSION:0.83;
#TITLE:F.K.S;
#SUBTITLE:;
#ARTIST:Nizikawa;
#TITLETRANSLIT:;
#SUBTITLETRANSLIT:;
#ARTISTTRANSLIT:;
#GENRE:;
#ORIGIN:;
#CREDIT:;
#BANNER:;
#BACKGROUND:;
#PREVIEWVID:;
#JACKET:F.K.S.-jacket.png;
#CDIMAGE:;
#DISCIMAGE:;
#LYRICSPATH:;
#CDTITLE:;
#MUSIC:F.K.S..mp3;
#OFFSET:-0.060000;
#SAMPLESTART:20.740019;
#SAMPLELENGTH:12.000000;
#SELECTABLE:YES;
#BPMS:0.000=185.000,
149.500=92.050,
157.500=93.050,
165.500=185.000;
#STOPS:38.000=0.180,
38.500=0.150,
126.000=0.160,
129.500=0.180,
133.000=0.140,
203.500=0.170,
204.000=0.170,
216.500=0.150,
216.750=0.150,
217.000=0.150,
217.250=0.200,
232.500=0.170,
233.000=0.150,
249.000=0.200,
249.500=0.070,
250.000=0.070,
250.500=0.070,
251.000=0.070,
251.500=0.090,
252.000=0.070,
252.500=0.070,
253.000=0.070,
253.500=0.070,
254.000=0.110;
#DELAYS:;
#WARPS:;
#TIMESIGNATURES:0.000=4=4;
#TICKCOUNTS:0.000=4;
#COMBOS:0.000=1;
#SPEEDS:0.000=1.000=0.000=0;
#SCROLLS:0.000=1.000;
#FAKES:;
#LABELS:0.000=Song Start;
#BGCHANGES:;
#KEYSOUNDS:;
#ATTACKS:
;

//---------------dance-single - ----------------
#NOTEDATA:;
#CHARTNAME:;
#STEPSTYPE:dance-single;
#DESCRIPTION:;
#CHARTSTYLE:;
#DIFFICULTY:Hard;
#METER:17;
#RADARVALUES:0.876480,1.053523,0.598129,0.208439,0.661567,677.000000,611.000000,66.000000,23.000000,0.000000,0.000000,0.000000,0.000000,0.000000,0.876480,1.053523,0.598129,0.208439,0.661567,677.000000,611.000000,66.000000,23.000000,0.000000,0.000000,0.000000,0.000000,0.000000;
#CREDIT:;
#NOTES:
// measure 0
0000
0000
0000
0000
,  // measure 1
0000
0000
0000
0000
,  // measure 2
0000
0000
0000
0000
,  // measure 3
1000
0001
1000
0001
1000
0001
1000
0001
1000
0001
0000
0000
,  // measure 4
1000
1000
0000
0000
0010
0010
0000
0000
,  // measure 5
0100
0100
0000
0000
0001
0100
0001
1000
,  // measure 6
0001
0001
0000
0000
1000
1000
0000
0000
,  // measure 7
0010
0000
0000
0000
0000
0000
0010
0000
0000
0000
0000
0000
0100
0000
0000
0000
0000
0000
0010
0000
0000
0000
0000
0000
1000
0000
0000
0000
0001
0000
0000
0000
1000
0000
0000
0000
0100
0000
0000
0010
0000
0000
0001
0000
0000
0010
0000
0000
,  // measure 8
0100
0000
1000
0001
0100
0001
1000
0000
0010
0000
0100
0001
1000
0010
1000
0000
,  // measure 9
0001
0000
0100
0010
1000
0001
0100
0000
1001
0000
0110
0000
0010
0000
0000
1000
,  // measure 10
0000
0001
0010
0100
1000
0100
0010
0001
,  // measure 11
1000
0000
0000
0000
1001
0000
1000
0000
0001
0000
0000
0000
0100
0000
0001
1000
,  // measure 12
0001
0010
0100
0000
1000
0000
0100
0010
0001
0010
0100
0000
1000
0000
0010
0100
,  // measure 13
0001
0100
0010
0000
1000
0010
0100
0001
0010
0100
1000
0100
0010
0000
0000
0000
,  // measure 14
0110
0000
0100
1000
0001
1000
0010
1000
,  // measure 15
0001
0000
0000
0000
0101
0000
0100
0000
0010
0000
0000
0000
1000
0000
0000
0001
,  // measure 16
1000
0000
0010
0000
0100
0001
0000
0001
1000
0000
0100
0000
0010
0000
0001
0000
,  // measure 17
1000
0010
0100
0020
1030
0200
1300
0001
,  // measure 18
1000
0000
0001
0000
0010
0100
0010
0100
1000
0001
1000
0001
0100
0000
0020
0000
,  // measure 19
1030
0200
0301
2000
3010
0002
0103
0020
,  // measure 20
1030
0000
0001
0000
0010
0100
1000
0001
0100
0000
0010
0000
1000
0000
0001
0000
,  // measure 21
0010
0100
1000
0001
0010
1000
0001
0100
,  // measure 22
1000
0000
0001
0000
1000
0000
0010
0000
0100
0000
0001
0000
1000
0010
1000
0010
,  // measure 23
0100
0001
0100
0001
0010
0100
0010
0100
1000
0000
0000
0000
0010
0100
0001
1000
,  // measure 24
0010
1000
0100
0000
0010
0001
0010
0100
1000
0010
0100
0000
0001
1000
0001
1000
,  // measure 25
0100
0010
0001
0000
0100
0000
1010
0000
0010
0000
0101
0000
1000
0000
1010
0000
,  // measure 26
0100
0010
0000
1001
1000
0100
0110
0000
,  // measure 27
0011
0000
0000
0000
1001
0000
0001
1000
0010
0000
0100
0000
0002
0000
2000
0000
,  // measure 28
0000
0003
3020
0200
0000
0030
0310
1000
,  // measure 29
0001
0000
0010
0000
0100
1000
0001
0100
0010
0000
0110
0000
0100
0000
0001
0000
,  // measure 30
1000
0000
0001
0000
0010
0100
1000
0000
0100
0010
0001
0000
1000
0000
0001
0000
,  // measure 31
1000
0010
0100
0000
0110
1000
0001
1000
,  // measure 32
0001
0100
0010
1000
0100
0010
0001
1000
,  // measure 33
1000
0010
0100
0001
1000
0010
0100
0001
,  // measure 34
1000
0000
0000
0100
0000
0000
0010
0000
0000
0001
0000
0000
0000
0000
0000
1000
0000
0000
0000
0000
0000
0001
0000
0010
,  // measure 35
0000
0100
0000
1000
0000
0000
0000
0001
0000
0010
0000
0100
0000
0010
0000
0001
0000
0000
0000
1000
0000
0001
0000
0000
,  // measure 36
0000
1000
0000
0010
0000
0100
0000
0001
0000
0010
0000
0100
0000
1000
0000
0100
0000
0010
0000
0001
0000
1000
0000
0001
,  // measure 37
0000
0000
1000
0000
0000
0000
0001
0000
0000
0000
1000
0000
0000
0000
0001
0000
0000
0000
0110
0000
0000
0000
0000
0000
0010
0000
0000
1000
0000
0000
0000
0000
0000
0010
0000
0000
0100
0000
0000
0001
0000
0000
0100
0000
0000
0000
0000
0000
,  // measure 38
0010
0100
0000
0001
1000
0001
1000
0000
0010
0100
0000
0001
1000
0010
1000
0100
,  // measure 39
0010
0001
0100
0000
1010
0000
1001
0000
1000
0010
0000
0010
0100
0001
1000
0000
,  // measure 40
0001
1000
0000
0010
1000
0001
1000
0000
0000
0000
1001
0000
0000
0000
1010
0000
,  // measure 41
1001
0110
0110
1001
0000
0110
0000
1010
,  // measure 42
0000
1001
0000
1100
0000
0110
0000
0011
,  // measure 43
0000
0101
0000
1010
0000
0101
0000
1001
,  // measure 44
0000
0110
0000
0001
1000
0001
1000
0010
,  // measure 45
0000
0000
0100
0001
1000
0001
0100
0000
0000
0000
0010
0000
1000
0000
0000
0000
,  // measure 46
1000
0100
0010
0001
0000
0001
0010
0000
,  // measure 47
0100
0000
1000
0000
0010
0000
0100
0000
0000
0001
0000
0000
1000
0000
0010
0000
,  // measure 48
0100
0001
1000
0001
1000
0010
0000
0110
,  // measure 49
0000
0000
1001
0000
0000
0000
0100
0000
0001
1000
0010
1000
0001
0000
0100
0000
,  // measure 50
0010
1000
0001
0100
0001
0000
1000
0000
0010
0100
0001
1000
0010
0000
1001
0000
,  // measure 51
0110
0000
0100
0000
0000
0001
0000
0000
1000
0000
0100
0000
0010
0000
0001
0000
,  // measure 52
0010
0000
0100
0000
1000
0000
0001
0000
0000
0000
1001
0000
0000
0000
0001
0010
,  // measure 53
0100
1000
0010
0000
1000
0001
1000
0100
0010
0000
0001
0000
0010
0100
1000
0100
,  // measure 54
0010
0000
0011
0101
1010
1001
0010
0000
1000
0000
0001
0100
0010
1000
0001
0000
,  // measure 55
0100
0010
0000
1001
0000
0001
0100
0010
,  // measure 56
1000
0000
0001
0000
0100
0000
0010
0100
0010
0100
0010
0000
1000
0001
0100
0001
,  // measure 57
1000
0000
0010
0000
0100
0001
1000
0010
1000
0000
0001
0000
0100
0010
1000
0001
,  // measure 58
0100
0000
0110
0000
0101
0000
0001
0000
0000
1000
0000
0000
0001
0000
0010
0000
,  // measure 59
0100
1000
0100
0010
0001
1000
0000
1010
,  // measure 60
0000
0000
1000
0100
0010
0001
0100
0000
0001
1000
0001
0010
0100
0000
1000
0000
,  // measure 61
0100
0010
0001
0010
0100
0000
1000
0000
0010
0100
0001
0100
0010
0000
2000
0000
,  // measure 62
3002
0000
0203
0000
0020
0330
1010
0000
1100
0000
0101
0000
0011
0000
0110
0000
,  // measure 63
0011
0101
1100
1010
1001
0000
0000
0100
,  // measure 64
0100
0000
0001
0000
1000
0010
0000
1000
0010
0000
0110
0000
0100
0001
0000
0100
,  // measure 65
0001
0000
0000
0000
2002
0000
0000
0000
0000
0000
0000
3003
1001
0000
0000
0000
0000
0000
0000
0000
0001
0000
0000
0000
0000
0000
1000
0000
0000
0000
0000
0000
,  // measure 66
0010
0100
0001
0010
0100
1000
0001
0200
,  // measure 67
0000
0000
0302
0000
0000
0000
0013
0100
1000
0100
0010
0000
0001
1000
0010
1000
,  // measure 68
0001
0000
0100
0000
0010
1000
0001
0100
0001
0000
1000
0000
0010
0100
0001
1000
,  // measure 69
0010
2000
0000
0200
3300
0110
0000
0010
,  // measure 70
0001
1000
0000
1010
0000
0010
0100
0001
,  // measure 71
0000
0000
1001
0000
0000
0000
1010
0000
0000
0000
1000
0000
0010
0100
0001
0000
,  // measure 72
1000
0000
0010
0000
0000
0000
0110
0000
0000
0000
0100
0000
0001
1000
0100
1000
,  // measure 73
0010
0000
0100
0001
0100
0010
1000
0000
0100
0000
0010
0000
0001
1000
0010
0000
,  // measure 74
0010
0220
0000
0000
0000
0000
0000
0000
,  // measure 75
0330
0000
0000
0000
;

//---------------dance-single - ----------------
#NOTEDATA:;
#CHARTNAME:;
#STEPSTYPE:dance-single;
#DESCRIPTION:;
#CHARTSTYLE:;
#DIFFICULTY:Medium;
#METER:13;
#RADARVALUES:0.528218,0.611723,0.271877,0.154064,0.145001,408.000000,378.000000,30.000000,17.000000,0.000000,0.000000,0.000000,0.000000,0.000000,0.528218,0.611723,0.271877,0.154064,0.145001,408.000000,378.000000,30.000000,17.000000,0.000000,0.000000,0.000000,0.000000,0.000000;
#CREDIT:;
#NOTES:
0000
0000
0000
0000
,
0000
0000
0000
0000
,
0000
0000
0000
0000
,
0000
0000
0000
0000
,
0001
1000
0000
0000
0100
0010
0000
0000
,
0001
1000
0000
0000
0010
1000
0100
0010
,
0001
1000
0000
0000
0010
0100
0000
0000
,
0001
1000
0100
0010
0001
1000
0010
1000
,
0001
0000
0000
0001
0000
0000
0001
0000
0100
0000
0000
0100
0000
0000
0100
0000
,
0010
0000
0000
0010
0000
0000
0010
0000
2000
0000
3001
0000
0100
0000
0000
0100
,
0000
0010
1000
0010
0100
0001
0010
0001
,
0100
0000
0000
0000
0110
0000
0000
0000
0000
0000
0000
0000
1000
0000
0000
1000
,
0000
0000
1000
0000
0010
0000
0000
0010
0000
0000
0010
0000
0100
0000
0000
0100
,
0000
0100
0001
1000
0100
0010
0001
0000
,
1001
0000
1000
0010
1000
0001
0100
0001
,
0010
0000
0000
0000
0101
0000
0000
0000
0000
0000
0000
0000
1000
0000
0000
0001
,
0000
0000
0010
0000
0100
0000
0000
1000
0000
0000
0100
0000
0010
0000
0001
0000
,
0010
0100
1000
0001
0100
0010
0100
0001
,
1000
0001
0200
0000
0320
0000
1030
1000
,
0001
0001
0100
0100
0010
0010
1000
0001
,
1000
0000
0001
0100
0010
0000
0100
0001
,
1000
0000
0100
0010
0001
0000
1000
0100
,
0010
0000
0001
1000
0010
0010
0220
0000
,
0000
0000
0000
0330
1001
0000
0001
1000
,
0100
0000
0010
0001
1000
0000
0010
1000
,
0100
0000
0010
0011
0000
0001
1000
1000
,
1000
0010
0000
0110
0100
0100
0110
0000
,
0101
0000
1010
0000
0010
1000
0001
0200
,
0000
0000
0301
2000
0000
0000
3001
0000
,
0010
0000
0100
0000
1000
0000
0001
0001
,
1000
0001
0010
0100
0010
0001
1000
0000
,
0010
0000
0010
0000
1002
0103
0000
0100
,
0000
0100
0010
2000
3001
0000
0001
0000
,
0001
0010
0200
1300
0000
1000
0000
1000
,
0000
0100
0010
0001
0000
1000
0000
0001
,
0100
1000
0000
1000
0100
0001
0000
0001
,
0000
0010
0100
0010
0100
0010
0100
0010
,
0000
0000
0010
0000
0000
0000
0110
0000
0000
0100
0000
0000
1000
0000
1000
0000
,
0000
0010
0000
0000
0100
0000
0100
0000
0000
0001
0000
0000
0010
0000
0010
0000
,
0000
0100
0000
0000
1000
0000
0001
0000
0000
0010
0000
0000
0100
0000
0100
0000
,
0000
1000
0000
0000
0001
0000
0001
0000
0000
0000
1000
0000
0000
0000
0001
0000
,
0100
0010
0010
1001
0000
1000
0000
0001
,
0000
1000
0000
0001
0000
1000
0000
0001
,
0000
1000
0000
0001
0000
1000
0000
0001
,
0000
1000
0000
0001
0000
1000
0000
0001
,
0000
0100
0010
0100
0000
1010
0000
1100
,
0000
0110
0000
0011
0000
0101
0000
1001
,
0000
1010
0000
0110
0000
0000
1000
0001
,
0000
0100
0010
0100
0000
0001
0000
1001
,
0000
0000
0000
0000
0000
0000
1000
0000
0000
1000
0000
0000
1000
0000
0010
0000
,
0000
0010
0000
0000
0010
0000
0100
0000
0000
0100
0000
0000
0100
0000
0002
0000
,
1003
0000
0010
0000
0000
0010
0000
0000
1000
0000
0100
0000
1000
0000
0001
0000
,
0010
0001
1000
0010
0000
0101
0000
0000
,
0000
0000
0001
0000
0000
0001
0000
0000
0001
0000
0010
0000
0000
0010
0000
0000
,
0010
2200
0000
3300
0000
0001
0000
1000
,
0001
0100
0000
0010
0000
1000
0001
0010
,
0000
0000
0100
0000
1000
0000
0001
0000
0000
0000
0100
0000
0000
0100
0000
0000
,
0100
0000
0010
0000
0000
0010
0000
0000
0010
0000
1000
0000
0000
1000
0000
0000
,
1000
0000
0002
0000
0013
0000
0100
0000
0000
0100
0000
0000
1000
0000
0001
0000
,
1000
0010
0100
0010
1000
0001
0000
1001
,
0000
0000
0000
0000
0000
0000
0010
0000
0000
0010
0000
0000
0010
0000
1000
0000
,
0000
1000
0000
0000
1000
0000
0001
0000
0000
0001
0000
0000
0001
0000
0010
0000
,
0100
1000
0002
0000
0000
0000
0000
0000
,
0000
0000
0000
0000
1003
0000
0000
0010
,
0000
0100
0000
0001
0000
1000
0000
0010
,
0000
0000
1001
0000
0000
0000
0000
0000
0000
0000
0001
0000
0000
0001
0000
0000
,
1000
0010
1000
0001
0100
0001
0010
0100
,
0000
0000
1000
0000
0000
0000
0000
0000
0000
0000
0001
0000
0000
1000
0000
0000
,
0001
0000
0100
0000
0000
0010
0000
0000
1000
0000
0100
0000
0000
0010
0000
0000
,
0001
2000
0000
3001
0000
0101
0000
0100
,
0010
1000
0000
1100
0000
0100
0010
0001
,
0000
0011
0000
0010
0000
0100
1000
0100
,
0000
1000
0000
1100
0000
0001
1000
0100
,
0000
0010
0001
1000
0000
0010
0000
0100
,
0010
2000
0000
0000
0000
0000
0000
0000
,
3000
0000
0000
0000
;

//---------------dance-single - ----------------
#NOTEDATA:;
#CHARTNAME:;
#STEPSTYPE:dance-single;
#DESCRIPTION:;
#CHARTSTYLE:;
#DIFFICULTY:Easy;
#METER:5;
#RADARVALUES:0.310717,0.407816,0.099688,0.317190,0.000000,240.000000,229.000000,11.000000,35.000000,0.000000,0.000000,0.000000,0.000000,0.000000,0.310717,0.407816,0.099688,0.317190,0.000000,240.000000,229.000000,11.000000,35.000000,0.000000,0.000000,0.000000,0.000000,0.000000;
#CREDIT:;
#NOTES:
0000
0000
0000
0000
,
0000
0000
0000
0000
,
0000
0000
0000
0000
,
0000
0000
0000
0000
,
1000
0000
0001
0000
,
1000
0000
0010
0100
,
0010
0000
0010
0000
,
0100
0100
0001
1000
,
0001
1000
0100
1000
,
0010
0000
0100
0000
0002
0003
0100
0000
,
0010
1000
0001
1000
,
0100
0010
0000
1000
,
0001
0010
0100
1000
,
0100
0020
0000
0031
,
0001
1000
1000
0010
,
0100
0001
0000
2000
,
3001
0002
1003
0020
,
0130
0200
0310
1000
,
0001
0200
0310
0010
,
0010
0100
0100
0001
,
0001
1000
0100
1000
,
1000
0100
0010
0001
,
1000
0001
0100
0020
,
0000
0000
0130
0001
,
0001
1000
1000
0010
,
0010
0100
0000
1000
,
0000
1001
0000
0000
0110
0000
0010
0000
,
1001
1001
0010
0200
,
0000
0302
0000
2003
,
0000
3001
1000
0001
,
1000
0001
1000
0001
,
0000
0000
0000
0000
2002
3003
0000
0000
,
0000
0000
0000
2020
3030
0000
0000
0000
,
0000
0000
0202
0303
0000
0000
0000
0000
,
0000
0000
0000
2000
0000
3020
0000
0230
,
0000
0302
0000
0023
0000
0230
0000
2300
,
0000
3010
0000
0100
0000
0001
0000
0200
,
0000
0300
0000
1001
0000
0000
0001
1000
,
0000
0000
1000
0001
0000
0000
0100
0010
,
0000
0000
0010
0100
0000
0000
0100
0010
,
0000
0000
1000
0001
0000
1000
0000
0001
,
0001
1000
0000
1001
0000
0001
0000
0001
,
0000
0010
0000
0010
0000
0100
0000
0100
,
0000
1000
0000
1000
0000
0010
0000
0010
,
0000
0100
0000
0100
0000
0001
0000
0001
,
0000
0100
0000
0100
0000
0000
0000
0000
,
0000
0001
0000
0101
0000
0000
0000
0000
,
0000
1000
0000
1010
0000
0000
0000
0001
,
0000
0000
0000
1000
0000
0001
0000
0200
,
0300
0000
0000
1000
0000
0001
0000
1000
,
0000
0010
0000
0100
0000
0010
0000
2000
,
3000
0010
0000
0100
0000
0010
0000
1000
,
0000
0001
0000
0010
0000
0001
0000
0000
,
0000
1000
0000
0001
0000
1000
0000
0010
,
0000
0200
0000
0300
0000
0002
0000
0003
,
0000
2000
0000
3000
0000
0001
0000
0001
,
0000
0100
0000
0100
0000
0010
0000
0100
,
0000
0010
0000
1000
0000
0001
0000
0100
,
0000
0002
0003
1000
0000
0010
0000
1000
,
0000
0001
0000
0010
0000
0001
0000
2000
,
3000
0000
0000
0010
0000
0100
0000
0010
,
0000
1000
0000
0001
0000
1000
0000
0100
,
0000
0002
0000
0000
0000
0000
0000
0000
,
0000
0000
0000
0000
1003
0000
0000
0010
,
0000
0000
0000
0100
0000
0000
0000
0010
,
0000
0000
0000
0000
0000
0001
0000
1000
,
0000
0010
0000
1000
0000
0001
0000
0100
,
0000
0010
0000
0000
0000
1000
0000
0001
,
0000
0100
0000
0010
0000
1000
0000
0100
,
0000
2000
0000
3001
0000
0001
0000
0000
,
0000
1000
0000
0000
0000
0001
0000
0001
,
0000
1000
0000
0000
0000
0100
0000
0100
,
0000
1000
0000
0000
0000
0010
0000
0010
,
0000
0100
0000
0000
0000
0010
0000
0100
,
0000
0002
0000
0000
0000
0000
0000
0000
,
0003
0000
0000
0000
;

//---------------dance-single - ----------------
#NOTEDATA:;
#CHARTNAME:;
#STEPSTYPE:dance-single;
#DESCRIPTION:;
#CHARTSTYLE:;
#DIFFICULTY:Beginner;
#METER:3;
#RADARVALUES:0.187725,0.305862,0.000000,0.280940,0.000000,145.000000,145.000000,0.000000,31.000000,0.000000,0.000000,0.000000,0.000000,0.000000,0.187725,0.305862,0.000000,0.280940,0.000000,145.000000,145.000000,0.000000,31.000000,0.000000,0.000000,0.000000,0.000000,0.000000;
#CREDIT:;
#NOTES:
0000
0000
0000
0000
,
0000
0000
0000
0000
,
0000
0000
0000
0000
,
0000
0000
0000
0000
,
0001
0000
1000
0000
,
0001
0000
0100
0000
,
0100
0000
0100
0000
,
0010
0000
1000
0000
,
1000
0000
0010
0000
,
0100
0000
0000
0000
2000
3000
0010
0000
,
0000
0001
0000
0001
,
0000
0100
0000
0001
,
0000
0100
0000
0001
,
0000
0200
0000
1300
,
0000
0001
0000
0100
,
0000
1000
0000
0002
,
0003
2000
3000
0200
,
0300
0020
0030
0002
,
0003
0020
0030
0100
,
0000
0010
0000
1000
,
0000
0001
0000
0001
,
0000
0010
0000
1000
,
0000
1000
0000
0200
,
0000
0000
0310
1000
,
0000
0001
0000
0100
,
0000
0010
0000
0000
,
0000
0001
0000
0000
0001
0000
1000
0000
,
1000
1000
0000
0020
,
0000
2030
0000
3002
,
0000
1003
0000
0001
,
0000
1000
0000
0001
,
0000
0000
0000
0000
0002
0003
0000
0000
,
0000
0000
0000
0200
0300
0000
0000
0000
,
0000
0000
0020
0030
0000
0000
0000
0000
,
0000
0000
0000
0002
0000
0003
0000
0020
,
0000
0030
0000
0200
0000
0300
0000
0002
,
0000
0003
0000
0200
0000
0300
0000
0020
,
0000
0030
0000
0100
0000
0000
0001
0001
,
0000
0000
1000
1000
0000
0000
0010
0010
,
0000
0000
0100
0100
0000
0000
0010
0010
,
0000
0000
1000
1000
0000
0001
0000
1000
,
0000
0001
0000
1000
0000
0000
0000
0100
,
0000
0000
0000
0010
0000
0000
0000
0001
,
0000
0000
0000
0100
0000
0000
0000
0010
,
0000
0000
0000
1000
0000
0000
0000
0100
,
0000
0000
0000
0010
0000
0000
0000
0000
,
0000
1000
0000
1000
0000
0000
0000
0000
,
0000
0001
0000
0001
0000
0000
0000
1000
,
0000
0000
0000
0001
0000
0000
0000
0200
,
0300
0000
0000
0001
0000
0000
0000
0010
,
0000
0000
0000
0100
0000
0000
0000
0002
,
0003
0000
0000
0010
0000
0000
0000
0001
,
0000
0000
0000
0100
0000
0000
0000
0000
,
0000
0001
0000
0000
0000
1000
0000
0000
,
0000
0020
0000
0030
0000
2000
0000
3000
,
0000
0002
0000
0003
0000
1000
0000
0000
,
0000
0010
0000
0000
0000
0100
0000
0000
,
0000
0010
0000
0000
0000
1000
0000
0000
,
0000
0002
0003
0000
0000
0100
0000
0000
,
0000
1000
0000
0000
0000
1000
0000
0002
,
0003
0000
0000
0100
0000
0000
0000
0010
,
0000
0000
0000
1000
0000
0000
0000
0010
,
0000
0200
0000
0000
0000
0000
0000
0000
,
0000
0000
0000
0000
0310
0000
0000
0100
,
0000
0000
0000
0000
0000
0000
0000
0100
,
0000
0000
0000
0000
0000
1000
0000
0000
,
0000
0100
0000
0000
0000
0010
0000
0000
,
0000
0001
0000
0000
0000
1000
0000
0000
,
0000
0010
0000
0000
0000
0100
0000
0000
,
0000
0002
0000
0003
0000
1000
0000
0000
,
0000
0001
0000
0000
0000
1000
0000
0000
,
0000
0001
0000
0000
0000
0010
0000
0000
,
0000
0001
0000
0000
0000
0100
0000
0000
,
0000
0010
0000
0000
0000
0100
0000
0000
,
0000
2000
0000
0000
0000
0000
0000
0000
,
3000
0000
0000
0000
;
